osu file format v14

[General]
AudioFilename: audio.mp3
AudioLeadIn: 0
PreviewTime: 56740
Countdown: 0
SampleSet: Normal
StackLeniency: 0.7
Mode: 1
LetterboxInBreaks: 0
WidescreenStoryboard: 0

[Editor]
DistanceSpacing: 1.8
BeatDivisor: 4
GridSize: 32
TimelineZoom: 2.2

[Metadata]
Title:Sana no Outa. (Angeart J-Core Edit)
TitleUnicode:さなのおうた。(Angeart J-Core Edit)
Artist:Natori Sana
ArtistUnicode:名取さな
Creator:KTYN
Version:Dearest
Source:
Tags:KitajimaYN seren58 jerry xavy x_a_v_y japanese Electronic Hardcore バーチャル YouTuber バーチャルサナトリウム もっちゃん motchan Remix Bootleg オリジナルソング Original Song virtual vtuber
BeatmapID:2694102
BeatmapSetID:1298908

[Difficulty]
HPDrainRate:5.7
CircleSize:5
OverallDifficulty:6
ApproachRate:5
SliderMultiplier:1.4
SliderTickRate:1

[Events]
//Background and Video events
0,0,"BG natori.png",0,0
//Break Periods
//Storyboard Layer 0 (Background)
//Storyboard Layer 1 (Fail)
//Storyboard Layer 2 (Pass)
//Storyboard Layer 3 (Foreground)
//Storyboard Layer 4 (Overlay)
//Storyboard Sound Samples

[TimingPoints]
1240,315.789473684211,4,1,0,70,1,0
1240,-125,4,1,0,70,0,0
10950,-95.2380952380952,4,1,0,100,0,0
11266,-117.647058823529,4,1,0,80,0,0
16003,-95.2380952380952,4,1,0,100,0,0
16319,-111.111111111111,4,1,0,80,0,0
19950,-86.9565217391304,4,1,0,90,0,0
21371,-100,4,1,0,90,0,0
25424,-100.475651735315,4,1,0,90,0,0
25477,-100.95574806695,4,1,0,90,0,0
25529,-101.440557354998,4,1,0,90,0,0
25687,-102.923225449208,4,1,0,90,0,0
25766,-103.68098604765,4,1,0,90,0,0
25845,-104.449987257102,4,1,0,90,0,0
25924,-105.230370326719,4,1,0,90,0,0
26003,-106.022614623699,4,1,0,90,0,0
26082,-106.826764377547,4,1,0,90,0,0
26161,-107.643321700678,4,1,0,90,0,0
26319,-109.314347617439,4,1,0,90,0,0
26398,-111.038072734379,4,1,0,80,0,0
35477,-109.58904109589,4,1,0,80,0,0
35556,-108.843537414966,4,1,0,80,0,0
35635,-108.108108108108,4,1,0,80,0,0
35714,-107.38255033557,4,1,0,80,0,0
35792,-106.666666666667,4,1,0,80,0,0
35871,-105.960264900662,4,1,0,80,0,0
35950,-105.263157894737,4,1,0,80,0,0
36029,-104.575163398693,4,1,0,80,0,0
36108,-103.896103896104,4,1,0,80,0,0
36187,-103.225806451613,4,1,0,80,0,0
36266,-102.564102564103,4,1,0,80,0,0
36424,-101.26582278481,4,1,0,80,0,0
36529,-86.9565217391304,4,1,0,90,0,0
36766,-100,4,1,0,90,0,0
45582,-101.905635381637,4,1,0,90,0,0
45740,-103.896103896104,4,1,0,90,0,0
45898,-105.954651409197,4,1,0,90,0,0
46056,-108.108108108108,4,1,0,90,0,0
46135,-109.217999126256,4,1,0,90,0,0
46214,-110.350915912602,4,1,0,90,0,0
46292,-111.495149960977,4,1,0,90,0,0
46371,-112.676056338028,4,1,0,90,0,0
46529,-115.101289134438,4,1,0,90,0,0
46634,-117.647058823529,4,1,0,80,0,0
50635,-115.942028985507,4,1,0,80,0,0
50687,-115.380177685474,4,1,0,80,0,0
50740,-114.836931557189,4,1,0,80,0,0
50792,-114.285714285714,4,1,0,80,0,0
50950,-112.676056338028,4,1,0,80,0,0
51108,-111.111111111111,4,1,0,80,0,0
51187,-110.350915912602,4,1,0,80,0,0
51266,-109.58904109589,4,1,0,80,0,0
51345,-108.849461195167,4,1,0,80,0,0
51424,-108.108108108108,4,1,0,80,0,0
51582,-106.666666666667,4,1,0,80,0,0
54253,-105.263157894737,4,1,0,90,0,0
54332,-104.234527687296,4,1,0,90,0,0
54411,-103.225806451613,4,1,0,90,0,0
54490,-102.23642172524,4,1,0,90,0,0
54569,-101.26582278481,4,1,0,90,0,0
54648,-100.313479623824,4,1,0,90,0,0
54727,-99.3788819875776,4,1,0,90,0,0
54806,-98.4615384615385,4,1,0,90,0,0
54885,-97.5609756097561,4,1,0,90,0,0
54964,-96.6767371601208,4,1,0,90,0,0
55043,-95.8083832335329,4,1,0,90,0,0
55122,-94.9554896142433,4,1,0,90,0,0
55201,-94.1176470588235,4,1,0,90,0,0
55280,-93.2944606413994,4,1,0,90,0,0
55359,-92.485549132948,4,1,0,90,0,0
55438,-91.6905444126074,4,1,0,90,0,0
55516,-90.9090909090909,4,1,0,90,0,0
56398,-111.111111111111,4,1,0,90,0,0
56634,-105.263157894737,4,1,0,90,0,0
56818,-100,4,1,0,100,0,1
62897,-86.9565217391304,4,1,0,100,0,1
63055,-100,4,1,0,100,0,1
63529,-86.9565217391304,4,1,0,100,0,1
63687,-100,4,1,0,100,0,1
65661,-86.9565217391304,4,1,0,100,0,0
66450,-86.9565217391304,4,1,0,100,0,1
66766,-86.9565217391304,4,1,0,100,0,0
66924,-95.2380952380952,4,1,0,100,0,1
71477,-94.1176470588235,4,1,0,100,0,1
71556,-93.5672514619883,4,1,0,100,0,1
71635,-93.0232558139535,4,1,0,100,0,1
71714,-92.485549132948,4,1,0,100,0,1
71792,-91.9540229885058,4,1,0,100,0,1
71871,-91.4285714285714,4,1,0,100,0,1
71950,-90.9090909090909,4,1,0,100,0,1
74463,-90.4255319148936,4,1,0,100,0,1
74542,-89.94708994709,4,1,0,100,0,1
74621,-89.4736842105263,4,1,0,100,0,1
74700,-89.0052356020942,4,1,0,100,0,1
74779,-88.5416666666667,4,1,0,100,0,1
74858,-88.0829015544041,4,1,0,100,0,1
74937,-87.6288659793814,4,1,0,100,0,1
75016,-87.1794871794872,4,1,0,100,0,1
75095,-86.734693877551,4,1,0,100,0,1
75174,-86.2944162436548,4,1,0,100,0,1
75253,-85.8585858585859,4,1,0,100,0,1
75332,-85.4271356783919,4,1,0,100,0,1
75411,-85,4,1,0,100,0,1
75490,-84.5771144278607,4,1,0,100,0,1
75569,-84.1584158415842,4,1,0,100,0,1
75648,-83.743842364532,4,1,0,100,0,1
75766,-83.3333333333333,4,1,0,100,0,0
75897,-86.9565217391304,4,1,0,100,0,0
75950,-88.4955752212389,4,1,0,100,0,0
76003,-90.0900900900901,4,1,0,100,0,0
76055,-91.743119266055,4,1,0,100,0,0
76371,-111.111111111111,4,1,0,90,0,0
76450,-109.604535874113,4,1,0,90,0,0
76529,-108.138269917447,4,1,0,90,0,0
76608,-106.710716850583,4,1,0,90,0,0
76687,-105.320252557966,4,1,0,90,0,0
76845,-102.645482007787,4,1,0,90,0,0
76924,-101.35840534848,4,1,0,90,0,0
77003,-100.103206405804,4,1,0,100,0,0
77029,-100.103206405804,4,1,0,100,0,1
87055,-86.9565217391304,4,1,0,100,0,1
87582,-90.9090909090909,4,1,0,100,0,1
87661,-91.743119266055,4,1,0,100,0,1
87740,-92.5925925925926,4,1,0,100,0,1
87819,-93.4579439252336,4,1,0,100,0,1
87898,-94.3396226415094,4,1,0,100,0,1
87977,-95.2380952380952,4,1,0,100,0,1
88056,-96.1538461538461,4,1,0,100,0,1
88214,-98.0392156862745,4,1,0,100,0,1
88371,-100,4,1,0,100,0,1
88397,-100,4,1,0,100,0,0
88687,-125,4,1,0,70,0,0
92503,-122.806974453693,4,1,0,80,0,0
92661,-120.68971759813,4,1,0,80,0,0
92818,-118.644087905778,4,1,0,80,0,0
92976,-116.666647222225,4,1,0,80,0,0
93134,-114.754041924242,4,1,0,100,0,0
93424,-111.111111111111,4,1,0,100,0,0
93582,-110.344827586207,4,1,0,100,0,0
93661,-109.965635738832,4,1,0,100,0,0
93740,-109.58904109589,4,1,0,100,0,0
93898,-108.843537414966,4,1,0,100,0,0
94056,-108.108108108108,4,1,0,100,0,0
94135,-107.744107744108,4,1,0,100,0,0
94214,-107.38255033557,4,1,0,100,0,0
94371,-106.666666666667,4,1,0,100,0,0
94529,-105.960264900662,4,1,0,100,0,0
94608,-105.610561056106,4,1,0,100,0,0
94687,-105.263157894737,4,1,0,100,0,0
94845,-104.575163398693,4,1,0,100,0,0
95003,-103.896103896104,4,1,0,100,0,0
95082,-103.559870550162,4,1,0,100,0,0
95161,-103.225806451613,4,1,0,100,0,0
95319,-102.564102564103,4,1,0,100,0,0
95477,-101.910828025478,4,1,0,100,0,0
95556,-101.587301587302,4,1,0,100,0,0
95635,-101.26582278481,4,1,0,100,0,0
95714,-100.946372239748,4,1,0,100,0,0
95792,-100.62893081761,4,1,0,100,0,0
95950,-100,4,1,0,100,0,0
97371,-101.26582278481,4,1,0,90,0,0
97450,-101.910828025478,4,1,0,90,0,0
97529,-102.564102564103,4,1,0,90,0,0
97687,-103.896103896104,4,1,0,90,0,0
97845,-105.263157894737,4,1,0,90,0,0
97924,-105.960264900662,4,1,0,90,0,0
98003,-106.666666666667,4,1,0,90,0,0
98082,-107.38255033557,4,1,0,90,0,0
98161,-108.108108108108,4,1,0,90,0,0
98240,-108.843537414966,4,1,0,90,0,0
98319,-109.58904109589,4,1,0,90,0,0
98477,-111.111111111111,4,1,0,90,0,0
98740,-111.111111111111,4,1,0,70,0,0
106055,-111.111111111111,4,1,0,80,0,0
112529,-109.58904109589,4,1,0,80,0,0
112581,-109.090869421502,4,1,0,80,0,0
112634,-108.597324379122,4,1,0,80,0,0
112686,-108.108108108108,4,1,0,80,0,0
112844,-106.666666666667,4,1,0,80,0,0
113002,-105.263157894737,4,1,0,80,0,0
113081,-104.575163398693,4,1,0,80,0,0
113160,-103.896103896104,4,1,0,80,0,0
113239,-103.225806451613,4,1,0,80,0,0
113318,-102.564102564103,4,1,0,80,0,0
113476,-101.26582278481,4,1,0,80,0,0
113581,-100,4,1,0,90,0,0
116147,-105.263157894737,4,1,0,90,0,0
116226,-104.234527687296,4,1,0,90,0,0
116305,-103.225806451613,4,1,0,90,0,0
116384,-102.23642172524,4,1,0,90,0,0
116463,-101.26582278481,4,1,0,90,0,0
116542,-100.313479623824,4,1,0,90,0,0
116621,-99.3788819875776,4,1,0,90,0,0
116700,-98.4615384615385,4,1,0,90,0,0
116779,-97.5609756097561,4,1,0,90,0,0
116858,-96.6767371601208,4,1,0,90,0,0
116937,-95.8083832335329,4,1,0,90,0,0
117016,-94.9554896142433,4,1,0,90,0,0
117095,-94.1176470588235,4,1,0,90,0,0
117174,-93.2944606413994,4,1,0,90,0,0
117253,-92.485549132948,4,1,0,90,0,0
117332,-91.6905444126074,4,1,0,90,0,0
117424,-100,4,1,0,90,0,0
117582,-111.111111111111,4,1,0,90,0,0
117661,-110.236203112409,4,1,0,90,0,0
117740,-109.374965820323,4,1,0,90,0,0
117819,-108.527081305233,4,1,0,90,0,0
117898,-107.692357396473,4,1,0,90,0,0
118056,-106.060622130397,4,1,0,90,0,0
118135,-105.263157894737,4,1,0,90,0,0
118214,-104.477596346627,4,1,0,90,0,0
118292,-103.703672976689,4,1,0,90,0,0
118371,-102.941131055383,4,1,0,90,0,0
118529,-101.449304767914,4,1,0,90,0,0
118713,-100,4,1,0,100,0,1
124792,-86.9565217391304,4,1,0,100,0,1
124950,-100,4,1,0,100,0,1
127555,-86.9565217391304,4,1,0,100,0,0
128345,-86.9565217391304,4,1,0,100,0,1
128661,-86.9565217391304,4,1,0,100,0,0
128818,-95.2380952380952,4,1,0,100,0,1
133372,-94.1176470588235,4,1,0,100,0,1
133451,-93.5672514619883,4,1,0,100,0,1
133530,-93.0232558139535,4,1,0,100,0,1
133609,-92.485549132948,4,1,0,100,0,1
133687,-91.9540229885058,4,1,0,100,0,1
133766,-91.4285714285714,4,1,0,100,0,1
133845,-90.9090909090909,4,1,0,100,0,1
136358,-90.4255319148936,4,1,0,100,0,1
136437,-89.94708994709,4,1,0,100,0,1
136516,-89.4736842105263,4,1,0,100,0,1
136595,-89.0052356020942,4,1,0,100,0,1
136674,-88.5416666666667,4,1,0,100,0,1
136753,-88.0829015544041,4,1,0,100,0,1
136832,-87.6288659793814,4,1,0,100,0,1
136911,-87.1794871794872,4,1,0,100,0,1
136990,-86.734693877551,4,1,0,100,0,1
137069,-86.2944162436548,4,1,0,100,0,1
137148,-85.8585858585859,4,1,0,100,0,1
137227,-85.4271356783919,4,1,0,100,0,1
137306,-85,4,1,0,100,0,1
137385,-84.5771144278607,4,1,0,100,0,1
137464,-84.1584158415842,4,1,0,100,0,1
137543,-83.743842364532,4,1,0,100,0,1
137661,-83.3333333333333,4,1,0,100,0,0
137792,-86.9565217391304,4,1,0,100,0,0
137845,-88.4955752212389,4,1,0,100,0,0
137898,-90.0900900900901,4,1,0,100,0,0
137950,-91.743119266055,4,1,0,100,0,0
138266,-111.111111111111,4,1,0,90,0,0
138345,-109.604535874113,4,1,0,90,0,0
138424,-108.138269917447,4,1,0,90,0,0
138503,-106.710716850583,4,1,0,90,0,0
138582,-105.320252557966,4,1,0,90,0,0
138740,-102.645482007787,4,1,0,90,0,0
138819,-101.35840534848,4,1,0,90,0,0
138898,-100.103206405804,4,1,0,100,0,0
138924,-100.103206405804,4,1,0,100,0,1
146621,-98.0392156862745,4,1,0,100,0,1
146700,-97.0873786407767,4,1,0,100,0,1
146778,-96.1538461538461,4,1,0,100,0,1
146936,-94.3396226415094,4,1,0,100,0,1
147015,-93.4579439252336,4,1,0,100,0,1
147094,-92.5925925925926,4,1,0,100,0,1
147252,-90.9090909090909,4,1,0,100,0,1
147568,-83.3333333333333,4,1,0,100,0,1
148200,-90.9090909090909,4,1,0,100,0,1
148358,-91.9540229885057,4,1,0,100,0,1
148437,-93.0232558139535,4,1,0,100,0,1
148516,-94.1176470588235,4,1,0,100,0,1
148595,-95.2380952380952,4,1,0,100,0,1
148674,-96.3855421686747,4,1,0,100,0,1
148832,-98.7654320987654,4,1,0,100,0,1
149029,-100,4,1,0,100,0,0
157871,-86.9565217391304,4,1,0,100,0,0
158147,-101.010101010101,4,1,0,100,0,0
158305,-102.040816326531,4,1,0,100,0,0
158384,-103.092783505155,4,1,0,100,0,0
158463,-104.166666666667,4,1,0,100,0,0
158542,-105.263157894737,4,1,0,100,0,0
158621,-106.382978723404,4,1,0,100,0,0
158700,-107.52688172043,4,1,0,100,0,0
158779,-108.695652173913,4,1,0,100,0,0
158937,-109.89010989011,4,1,0,100,0,0
159095,-111.111111111111,4,1,0,100,0,0
164108,-111.111111111111,4,1,0,80,0,0
164266,-110.535405872193,4,1,0,80,0,0
164424,-109.965635738832,4,1,0,80,0,0
164582,-109.401709401709,4,1,0,80,0,0
164740,-108.843537414966,4,1,0,80,0,0
164897,-108.2910321489,4,1,0,80,0,0
165055,-107.744107744108,4,1,0,80,0,0
165213,-107.202680067002,4,1,0,80,0,0
165371,-106.666666666667,4,1,0,80,0,0
165529,-106.135986733002,4,1,0,80,0,0
165687,-105.610561056106,4,1,0,80,0,0
165845,-105.090311986864,4,1,0,80,0,0
166003,-104.575163398693,4,1,0,80,0,0
166161,-104.065040650407,4,1,0,80,0,0
166318,-103.559870550162,4,1,0,80,0,0
166476,-103.059581320451,4,1,0,80,0,0
166674,-102.564102564103,4,1,0,80,0,0
166753,-102.07336523126,4,1,0,80,0,0
166832,-101.587301587302,4,1,0,80,0,0
166911,-101.105845181675,4,1,0,80,0,0
166990,-100.62893081761,4,1,0,80,0,0
167069,-100.156494522692,4,1,0,80,0,0
167148,-99.6884735202492,4,1,0,80,0,0
167227,-99.2248062015504,4,1,0,80,0,0
167306,-98.7654320987654,4,1,0,80,0,0
167385,-98.3102918586789,4,1,0,80,0,0
167463,-97.8593272171254,4,1,0,80,0,0
167542,-97.4124809741248,4,1,0,80,0,0
167621,-96.969696969697,4,1,0,80,0,0
167700,-96.5309200603318,4,1,0,80,0,0
167779,-96.0960960960961,4,1,0,80,0,0
167858,-95.6651718983558,4,1,0,80,0,0
167937,-95.2380952380952,4,1,0,80,0,0
168266,-111.111111111111,4,1,0,80,0,0
168424,-109.10455707914,4,1,0,80,0,0
168503,-108.128214111164,4,1,0,80,0,0
168582,-107.16930499634,4,1,0,80,0,0
168661,-106.227141247043,4,1,0,80,0,0
168740,-105.301398929085,4,1,0,80,0,0
168819,-104.391652425905,4,1,0,80,0,0
168898,-103.497490703338,4,1,0,80,0,0
169056,-101.754346691305,4,1,0,80,0,0
169214,-100.069047642874,4,1,0,90,0,0
180568,-100,4,1,0,80,0,0
180647,-99.3377483443709,4,1,0,80,0,0
180726,-98.6842105263158,4,1,0,80,0,0
180805,-98.0392156862745,4,1,0,80,0,0
180884,-97.4025974025974,4,1,0,80,0,0
180963,-96.7741935483871,4,1,0,80,0,0
181042,-96.1538461538461,4,1,0,80,0,0
181121,-95.5414012738854,4,1,0,80,0,0
181200,-94.9367088607595,4,1,0,80,0,0
181279,-94.3396226415094,4,1,0,80,0,0
181357,-93.75,4,1,0,80,0,0
181436,-93.167701863354,4,1,0,80,0,0
181515,-92.5925925925926,4,1,0,80,0,0
181594,-92.0245398773006,4,1,0,80,0,0
181673,-91.4634146341463,4,1,0,80,0,0
181752,-90.9090909090909,4,1,0,80,0,0
181871,-76.9230769230769,4,1,0,90,0,1
183055,-83.3333333333333,4,1,0,90,0,1
184319,-90.9090909090909,4,1,0,90,0,1
185661,-142.857142857143,4,1,0,90,0,0
185792,-136.363698347136,4,1,0,90,0,0
185871,-133.333333333333,4,1,0,90,0,0
185950,-130.434725897945,4,1,0,90,0,0
186108,-125,4,1,0,90,0,0
186266,-120.000048000019,4,1,0,90,0,0
186345,-117.647058823529,4,1,0,90,0,0
186424,-115.384571005934,4,1,0,90,0,0
186503,-113.207589889657,4,1,0,90,0,0
186582,-111.111111111111,4,1,0,90,0,0
186924,-100,4,1,0,100,0,1
187950,-86.9565217391304,4,1,0,100,0,1
188108,-100,4,1,0,100,0,1
188582,-86.9565217391304,4,1,0,100,0,1
188740,-100,4,1,0,100,0,1
190713,-86.9565217391304,4,1,0,100,0,0
191503,-86.9565217391304,4,1,0,100,0,1
191818,-86.9565217391304,4,1,0,100,0,0
191976,-95.2380952380952,4,1,0,100,0,1
196450,-94.6802930544431,4,1,0,100,0,1
196529,-94.1290754359823,4,1,0,100,0,1
196608,-93.5841513368028,4,1,0,100,0,1
196687,-93.0455867547746,4,1,0,100,0,1
196766,-92.5130998549395,4,1,0,100,0,1
196845,-91.9867575863779,4,1,0,100,0,1
196924,-91.4662868986435,4,1,0,100,0,1
197003,-90.9516728286425,4,1,0,100,0,1
199515,-90.4255319148936,4,1,0,100,0,1
199594,-89.94708994709,4,1,0,100,0,1
199673,-89.4736842105263,4,1,0,100,0,1
199752,-89.0052356020942,4,1,0,100,0,1
199831,-88.5416666666667,4,1,0,100,0,1
199910,-88.0829015544041,4,1,0,100,0,1
199989,-87.6288659793814,4,1,0,100,0,1
200068,-87.1794871794872,4,1,0,100,0,1
200147,-86.734693877551,4,1,0,100,0,1
200226,-86.2944162436548,4,1,0,100,0,1
200305,-85.8585858585859,4,1,0,100,0,1
200384,-85.4271356783919,4,1,0,100,0,1
200463,-85,4,1,0,100,0,1
200542,-84.5771144278607,4,1,0,100,0,1
200621,-84.1584158415842,4,1,0,100,0,1
200700,-83.743842364532,4,1,0,100,0,1
200818,-83.3333333333333,4,1,0,100,0,0
200937,-86.9565217391304,4,1,0,100,0,0
201016,-87.719298245614,4,1,0,100,0,0
201095,-88.4955752212389,4,1,0,100,0,0
201174,-89.2857142857143,4,1,0,100,0,0
201253,-90.0900900900901,4,1,0,100,0,0
201424,-90.9090909090909,4,1,0,100,0,0
201503,-91.9431166326017,4,1,0,100,0,0
201582,-93.000935589412,4,1,0,100,0,0
201661,-94.0833785717579,4,1,0,100,0,0
201740,-95.1914061198555,4,1,0,100,0,0
201898,-97.4874558016247,4,1,0,100,0,0
202056,-99.8970061866216,4,1,0,100,0,0
202319,-117.647058823529,4,1,0,85,0,0
202792,-125,4,1,0,80,0,0
203582,-125,4,1,0,75,0,0
203898,-128.205128205128,4,1,0,75,0,0
204213,-131.578947368421,4,1,0,75,0,0
204529,-135.135135135135,4,1,0,70,0,0
204608,-135.135135135135,4,1,0,70,0,1
205792,-142.857142857143,4,1,0,70,0,1
209477,-139.534818821014,4,1,0,90,0,1
209556,-137.931034482759,4,1,0,90,0,1
209635,-136.363698347136,4,1,0,90,0,1
209661,-136.363698347136,4,1,0,90,0,0
209792,-133.333333333333,4,1,0,90,0,0
209871,-131.868189832171,4,1,0,90,0,0
209950,-130.434725897945,4,1,0,90,0,0
210108,-127.659628791331,4,1,0,90,0,0
210187,-126.315736288111,4,1,0,90,0,0
210266,-125,4,1,0,90,0,0
210345,-123.711391221192,4,1,0,90,0,0
210503,-121.212121212121,4,1,0,90,0,0
210582,-120.000048000019,4,1,0,90,0,0
210740,-117.647058823529,4,1,0,90,0,0
210898,-115.384571005934,4,1,0,90,0,0
210977,-114.285714285714,4,1,0,90,0,0
211056,-113.207589889657,4,1,0,90,0,0
211214,-111.111111111111,4,1,0,90,0,0
211292,-110.091783519921,4,1,0,90,0,0
211371,-109.090869421502,4,1,0,90,0,0
211450,-108.108108108108,4,1,0,90,0,0
211529,-107.142895408177,4,1,0,90,0,0
211608,-106.194652674459,4,1,0,90,0,0
211687,-105.263157894737,4,1,0,90,0,0
211740,-104.651114115761,4,1,0,90,0,0
211792,-104.046254803035,4,1,0,90,0,0
211845,-103.448240190262,4,1,0,90,0,0
212003,-101.694949727102,4,1,0,90,0,0
212082,-101.010101010101,4,1,0,90,0,0
212187,-100,4,1,0,100,0,1
229911,-99.3788819875776,4,1,0,100,0,1
229990,-98.7654320987654,4,1,0,100,0,1
230068,-98.159509202454,4,1,0,100,0,1
230147,-97.5609756097561,4,1,0,100,0,1
230226,-96.969696969697,4,1,0,100,0,1
230305,-96.3855421686747,4,1,0,100,0,1
230383,-95.8083832335329,4,1,0,100,0,1
230463,-95.2380952380952,4,1,0,100,0,1
230542,-94.6745562130177,4,1,0,100,0,1
230621,-94.1176470588235,4,1,0,100,0,1
230699,-93.5672514619883,4,1,0,100,0,1
230779,-93.0232558139535,4,1,0,100,0,1
230858,-92.485549132948,4,1,0,100,0,1
230937,-91.9540229885057,4,1,0,100,0,1
231015,-91.4285714285714,4,1,0,100,0,1
231108,-90.9090909090909,4,1,0,100,0,1
231266,-92.4812725423102,4,1,0,100,0,1
231424,-94.1176470588235,4,1,0,100,0,1
231582,-95.8037938302357,4,1,0,100,0,1
231740,-97.5609756097561,4,1,0,100,0,1
231819,-98.4639621898385,4,1,0,100,0,1
231898,-99.3739441518434,4,1,0,100,0,1
231977,-100.310963988364,4,1,0,100,0,1
232056,-101.26582278481,4,1,0,100,0,1
232214,-103.220478943022,4,1,0,100,0,1
232318,-103.220478943022,4,1,0,80,0,1
232397,-105.263157894737,4,1,0,80,0,0

[HitObjects]
165,179,1240,5,0,0:0:0:0:
156,180,1555,1,8,0:0:0:0:
156,180,1713,1,0,0:0:0:0:
154,183,2029,1,8,0:0:0:0:
154,183,2345,1,8,0:0:0:0:
154,183,2661,1,0,0:0:0:0:
154,183,2976,1,0,0:0:0:0:
154,183,3134,1,8,0:0:0:0:
135,157,3450,1,0,0:0:0:0:
162,162,3766,1,0,0:0:0:0:
144,88,4082,1,8,0:0:0:0:
140,133,4240,1,0,0:0:0:0:
231,189,4555,1,8,0:0:0:0:
140,142,4871,1,8,0:0:0:0:
140,142,5187,1,0,0:0:0:0:
150,107,5503,1,0,0:0:0:0:
150,107,5661,1,8,0:0:0:0:
140,142,5976,1,8,0:0:0:0:
203,214,6134,1,0,0:0:0:0:
165,179,6292,1,0,0:0:0:0:
156,180,6608,1,8,0:0:0:0:
156,180,6766,1,0,0:0:0:0:
154,183,7082,1,8,0:0:0:0:
154,183,7397,1,8,0:0:0:0:
154,183,7713,1,0,0:0:0:0:
154,183,8029,1,0,0:0:0:0:
154,183,8187,1,8,0:0:0:0:
225,177,8503,1,0,0:0:0:0:
162,162,8818,1,0,0:0:0:0:
144,88,9134,1,8,0:0:0:0:
140,133,9292,1,0,0:0:0:0:
177,134,9608,1,8,0:0:0:0:
140,142,9924,1,8,0:0:0:0:
140,142,10240,1,0,0:0:0:0:
150,107,10555,1,0,0:0:0:0:
150,107,10713,1,8,0:0:0:0:
155,101,10871,1,0,0:0:0:0:
140,142,11029,1,12,0:0:0:0:
166,138,11345,1,0,0:0:0:0:
158,87,11503,1,0,0:0:0:0:
170,57,11661,1,8,0:0:0:0:
170,57,11818,1,0,0:0:0:0:
170,70,12134,1,8,0:0:0:0:
170,70,12450,1,8,0:0:0:0:
170,70,12766,1,0,0:0:0:0:
147,49,13082,1,0,0:0:0:0:
170,70,13240,1,8,0:0:0:0:
225,177,13555,1,8,0:0:0:0:
182,105,13713,1,8,0:0:0:0:
182,105,13871,1,0,0:0:0:0:
158,87,14029,1,0,0:0:0:0:
182,105,14187,1,8,0:0:0:0:
182,111,14345,1,0,0:0:0:0:
182,111,14661,1,8,0:0:0:0:
182,111,14976,1,8,0:0:0:0:
149,168,15134,1,0,0:0:0:0:
149,168,15292,1,8,0:0:0:0:
182,111,15608,1,0,0:0:0:0:
159,84,15766,1,8,0:0:0:0:
167,50,15924,1,0,0:0:0:0:
167,50,16082,1,12,0:0:0:0:
167,50,16397,1,0,0:0:0:0:
158,90,16555,1,0,0:0:0:0:
167,50,16713,1,8,0:0:0:0:
191,107,16871,1,0,0:0:0:0:
191,107,17187,1,8,0:0:0:0:
191,107,17503,1,8,0:0:0:0:
186,200,17818,1,0,0:0:0:0:
189,190,18134,1,0,0:0:0:0:
191,107,18292,1,8,0:0:0:0:
139,110,18608,1,8,0:0:0:0:
139,110,18766,1,8,0:0:0:0:
139,110,18924,1,0,0:0:0:0:
139,110,19082,1,0,0:0:0:0:
139,110,19240,1,8,0:0:0:0:
139,110,19397,1,0,0:0:0:0:
164,77,19713,1,8,0:0:0:0:
161,139,20029,1,4,0:0:0:0:
161,140,20345,1,4,0:0:0:0:
161,140,20661,1,6,0:0:0:0:
161,140,20976,1,6,0:0:0:0:
161,140,21134,1,6,0:0:0:0:
150,208,21450,1,4,0:0:0:0:
193,159,21608,1,0,0:0:0:0:
193,159,21687,1,0,0:0:0:0:
193,159,21766,1,8,0:0:0:0:
193,159,21924,1,0,0:0:0:0:
193,159,22082,1,8,0:0:0:0:
200,119,22161,1,0,0:0:0:0:
200,119,22240,1,8,0:0:0:0:
200,119,22318,1,8,0:0:0:0:
200,123,22397,1,0,0:0:0:0:
200,124,22555,1,8,0:0:0:0:
200,124,22713,1,0,0:0:0:0:
200,124,22871,1,8,0:0:0:0:
200,124,22950,1,8,0:0:0:0:
200,124,23029,1,0,0:0:0:0:
200,124,23187,1,8,0:0:0:0:
200,124,23345,1,0,0:0:0:0:
200,124,23424,1,0,0:0:0:0:
200,124,23503,1,8,0:0:0:0:
200,124,23582,1,0,0:0:0:0:
200,124,23661,1,8,0:0:0:0:
200,124,23818,1,0,0:0:0:0:
200,124,23976,1,8,0:0:0:0:
143,112,24134,1,8,0:0:0:0:
148,131,24213,1,8,0:0:0:0:
148,131,24292,1,0,0:0:0:0:
150,139,24450,1,8,0:0:0:0:
150,139,24608,1,0,0:0:0:0:
151,145,24766,1,0,0:0:0:0:
138,173,24924,1,0,0:0:0:0:
138,173,25082,1,8,0:0:0:0:
151,145,25397,1,8,0:0:0:0:
132,134,25450,1,8,0:0:0:0:
132,134,25503,1,8,0:0:0:0:
132,134,25555,1,0,0:0:0:0:
179,76,25713,1,8,0:0:0:0:
184,102,25792,1,0,0:0:0:0:
184,102,25871,1,8,0:0:0:0:
206,89,25950,1,8,0:0:0:0:
184,102,26029,1,0,0:0:0:0:
184,102,26108,1,8,0:0:0:0:
211,107,26187,1,0,0:0:0:0:
204,99,26345,1,8,0:0:0:0:
160,143,26503,1,4,0:0:0:0:
197,134,26818,1,8,0:0:0:0:
151,141,26976,1,0,0:0:0:0:
148,162,27134,1,0,0:0:0:0:
173,143,27292,1,8,0:0:0:0:
173,143,27450,1,0,0:0:0:0:
151,89,27608,1,8,0:0:0:0:
173,143,27687,1,8,0:0:0:0:
225,160,27766,1,0,0:0:0:0:
191,156,27924,1,0,0:0:0:0:
191,128,28082,1,8,0:0:0:0:
187,153,28240,1,0,0:0:0:0:
151,92,28397,1,8,0:0:0:0:
151,92,28476,1,0,0:0:0:0:
151,92,28555,1,0,0:0:0:0:
151,92,28713,1,8,0:0:0:0:
173,143,28871,1,8,0:0:0:0:
176,99,29029,1,0,0:0:0:0:
191,128,29345,1,8,0:0:0:0:
196,82,29503,1,8,0:0:0:0:
145,133,29661,1,0,0:0:0:0:
196,82,29818,1,8,0:0:0:0:
196,82,29976,1,0,0:0:0:0:
200,133,30134,1,8,0:0:0:0:
200,134,30213,1,8,0:0:0:0:
200,133,30292,1,0,0:0:0:0:
201,118,30450,1,0,0:0:0:0:
191,128,30608,1,8,0:0:0:0:
166,130,30766,1,0,0:0:0:0:
173,145,30845,1,0,0:0:0:0:
167,133,30924,1,8,0:0:0:0:
201,118,31003,1,0,0:0:0:0:
167,133,31082,1,0,0:0:0:0:
191,128,31240,1,8,0:0:0:0:
166,118,31555,1,0,0:0:0:0:
172,108,31871,1,8,0:0:0:0:
196,113,32029,1,0,0:0:0:0:
167,153,32187,1,0,0:0:0:0:
149,132,32345,1,8,0:0:0:0:
160,142,32503,1,0,0:0:0:0:
160,147,32661,1,8,0:0:0:0:
160,142,32740,1,8,0:0:0:0:
162,151,32818,1,0,0:0:0:0:
147,164,32976,1,8,0:0:0:0:
139,133,33134,1,8,0:0:0:0:
197,145,33292,1,0,0:0:0:0:
197,137,33450,1,8,0:0:0:0:
162,150,33529,1,0,0:0:0:0:
160,142,33608,1,8,0:0:0:0:
160,142,33687,1,8,0:0:0:0:
160,142,33766,1,0,0:0:0:0:
156,138,33924,1,8,0:0:0:0:
156,138,34082,1,0,0:0:0:0:
156,139,34397,1,8,0:0:0:0:
166,118,34555,1,0,0:0:0:0:
166,118,34871,1,0,0:0:0:0:
166,118,35187,1,8,0:0:0:0:
156,145,35345,1,0,0:0:0:0:
156,145,35503,1,0,0:0:0:0:
156,145,35582,1,0,0:0:0:0:
156,145,35661,1,8,0:0:0:0:
140,118,35740,1,0,0:0:0:0:
140,118,35818,1,8,0:0:0:0:
140,118,35897,1,8,0:0:0:0:
140,118,35976,1,0,0:0:0:0:
157,152,36055,1,8,0:0:0:0:
157,152,36134,1,0,0:0:0:0:
157,152,36213,1,0,0:0:0:0:
157,152,36292,1,8,0:0:0:0:
157,152,36450,1,8,0:0:0:0:
160,143,36608,1,4,0:0:0:0:
164,187,36845,1,0,0:0:0:0:
164,187,36924,1,8,0:0:0:0:
164,187,37082,1,8,0:0:0:0:
164,192,37240,1,0,0:0:0:0:
164,192,37397,1,8,0:0:0:0:
164,192,37476,1,0,0:0:0:0:
164,192,37555,1,0,0:0:0:0:
164,192,37713,1,8,0:0:0:0:
164,198,37871,1,0,0:0:0:0:
164,198,38029,1,8,0:0:0:0:
164,198,38108,1,8,0:0:0:0:
163,207,38187,1,0,0:0:0:0:
163,207,38345,1,8,0:0:0:0:
163,207,38503,1,0,0:0:0:0:
162,212,38582,1,0,0:0:0:0:
161,214,38661,1,8,0:0:0:0:
161,214,38740,1,0,0:0:0:0:
161,217,38818,1,8,0:0:0:0:
147,112,38976,1,8,0:0:0:0:
160,221,39134,1,0,0:0:0:0:
151,135,39371,1,0,0:0:0:0:
191,128,39450,1,8,0:0:0:0:
151,135,39608,1,8,0:0:0:0:
214,133,39766,1,0,0:0:0:0:
195,120,39845,1,0,0:0:0:0:
195,120,39924,1,8,0:0:0:0:
166,126,40082,1,0,0:0:0:0:
166,126,40240,1,8,0:0:0:0:
142,115,40318,1,8,0:0:0:0:
166,126,40397,1,0,0:0:0:0:
201,118,40555,1,0,0:0:0:0:
191,128,40713,1,8,0:0:0:0:
166,130,40871,1,0,0:0:0:0:
167,133,41029,1,8,0:0:0:0:
201,118,41108,1,0,0:0:0:0:
167,133,41187,1,0,0:0:0:0:
231,117,41266,1,0,0:0:0:0:
191,128,41345,1,8,0:0:0:0:
213,85,41503,1,0,0:0:0:0:
156,97,41661,1,8,0:0:0:0:
193,150,41897,1,0,0:0:0:0:
193,150,41976,1,8,0:0:0:0:
230,114,42134,1,0,0:0:0:0:
230,114,42292,1,8,0:0:0:0:
230,114,42450,1,0,0:0:0:0:
230,114,42529,1,0,0:0:0:0:
230,114,42608,1,8,0:0:0:0:
184,165,42766,1,8,0:0:0:0:
183,170,42924,1,0,0:0:0:0:
211,131,43082,1,8,0:0:0:0:
169,151,43161,1,0,0:0:0:0:
169,151,43240,1,8,0:0:0:0:
169,151,43318,1,8,0:0:0:0:
152,124,43397,1,0,0:0:0:0:
156,163,43555,1,8,0:0:0:0:
187,127,43713,1,0,0:0:0:0:
187,127,43792,1,0,0:0:0:0:
187,127,43871,1,8,0:0:0:0:
196,84,43950,1,0,0:0:0:0:
187,132,44029,1,0,0:0:0:0:
188,132,44108,1,0,0:0:0:0:
188,132,44187,1,8,0:0:0:0:
188,132,44345,1,0,0:0:0:0:
188,132,44424,1,0,0:0:0:0:
163,133,44503,1,8,0:0:0:0:
158,175,44661,1,8,0:0:0:0:
158,175,44818,1,0,0:0:0:0:
156,112,44897,1,0,0:0:0:0:
156,112,44976,1,8,0:0:0:0:
156,112,45055,1,8,0:0:0:0:
156,112,45134,1,0,0:0:0:0:
177,115,45213,1,0,0:0:0:0:
177,115,45292,1,8,0:0:0:0:
156,112,45608,1,8,0:0:0:0:
156,112,45766,1,8,0:0:0:0:
139,177,45924,1,0,0:0:0:0:
156,112,46082,1,8,0:0:0:0:
156,122,46161,1,0,0:0:0:0:
156,122,46240,1,0,0:0:0:0:
156,122,46318,1,0,0:0:0:0:
156,112,46397,1,8,0:0:0:0:
156,122,46555,1,8,0:0:0:0:
156,122,46713,1,4,0:0:0:0:
151,135,47029,1,8,0:0:0:0:
156,122,47187,1,0,0:0:0:0:
156,122,47345,1,8,0:0:0:0:
156,122,47503,1,8,0:0:0:0:
122,132,47661,1,0,0:0:0:0:
123,137,47740,1,8,0:0:0:0:
124,143,47818,1,0,0:0:0:0:
156,122,47976,1,0,0:0:0:0:
156,122,48134,1,8,0:0:0:0:
156,122,48213,1,8,0:0:0:0:
156,127,48292,1,8,0:0:0:0:
156,127,48450,1,0,0:0:0:0:
156,127,48608,1,8,0:0:0:0:
156,127,48687,1,8,0:0:0:0:
156,132,48766,1,0,0:0:0:0:
152,94,48924,1,8,0:0:0:0:
144,178,49082,1,0,0:0:0:0:
153,127,49240,1,0,0:0:0:0:
151,135,49476,1,0,0:0:0:0:
151,135,49555,1,8,0:0:0:0:
151,135,49713,1,0,0:0:0:0:
151,135,49871,1,8,0:0:0:0:
151,135,49950,1,0,0:0:0:0:
151,135,50029,1,0,0:0:0:0:
151,135,50108,1,0,0:0:0:0:
151,135,50187,1,8,0:0:0:0:
180,135,50345,1,0,0:0:0:0:
151,135,50503,1,0,0:0:0:0:
180,135,50661,1,8,0:0:0:0:
205,136,50713,1,8,0:0:0:0:
203,138,50766,1,8,0:0:0:0:
179,117,50818,1,8,0:0:0:0:
217,142,50976,1,0,0:0:0:0:
217,142,51134,1,8,0:0:0:0:
217,142,51213,1,8,0:0:0:0:
217,142,51292,1,0,0:0:0:0:
217,142,51371,1,0,0:0:0:0:
217,142,51450,1,8,0:0:0:0:
217,142,51608,1,0,0:0:0:0:
217,142,51766,1,4,0:0:0:0:
216,183,52003,1,8,0:0:0:0:
216,183,52082,1,0,0:0:0:0:
156,113,52240,1,8,0:0:0:0:
160,174,52318,1,8,0:0:0:0:
216,183,52397,1,0,0:0:0:0:
146,115,52555,1,0,0:0:0:0:
160,173,52634,1,8,0:0:0:0:
216,183,52713,1,0,0:0:0:0:
197,115,52871,1,8,0:0:0:0:
169,124,53029,1,0,0:0:0:0:
178,180,53187,1,0,0:0:0:0:
217,69,53266,1,0,0:0:0:0:
217,69,53345,1,8,0:0:0:0:
161,184,53503,1,8,0:0:0:0:
217,69,53582,1,0,0:0:0:0:
217,69,53661,1,8,0:0:0:0:
217,69,53740,1,8,0:0:0:0:
217,69,53818,1,0,0:0:0:0:
217,69,53897,1,0,0:0:0:0:
217,69,53976,1,8,0:0:0:0:
204,186,54134,1,0,0:0:0:0:
120,230,54292,1,8,0:0:0:0:
120,252,54371,1,8,0:0:0:0:
120,230,54450,1,0,0:0:0:0:
120,230,54529,1,0,0:0:0:0:
120,230,54608,1,8,0:0:0:0:
120,230,54687,1,0,0:0:0:0:
123,178,54766,1,8,0:0:0:0:
120,237,54845,1,8,0:0:0:0:
120,239,54924,1,0,0:0:0:0:
149,118,55003,1,8,0:0:0:0:
142,117,55082,1,0,0:0:0:0:
120,246,55161,1,0,0:0:0:0:
120,252,55240,1,8,0:0:0:0:
120,252,55318,1,8,0:0:0:0:
142,117,55397,1,8,0:0:0:0:
123,185,55476,1,8,0:0:0:0:
123,185,55555,1,0,0:0:0:0:
108,152,56503,1,8,0:0:0:0:
151,168,56661,1,0,0:0:0:0:
175,94,56818,1,4,0:0:0:0:
175,94,56976,1,0,0:0:0:0:
175,94,57055,1,0,0:0:0:0:
175,94,57134,1,2,0:0:0:0:
175,94,57292,1,2,0:0:0:0:
175,94,57450,1,0,0:0:0:0:
162,133,57529,1,0,0:0:0:0:
175,94,57608,1,2,0:0:0:0:
175,121,57687,1,2,0:0:0:0:
175,94,57766,1,0,0:0:0:0:
175,94,57924,1,2,0:0:0:0:
175,94,58082,1,0,0:0:0:0:
176,83,58240,1,2,0:0:0:0:
176,83,58318,1,0,0:0:0:0:
176,83,58397,1,0,0:0:0:0:
146,72,58555,1,2,0:0:0:0:
174,112,58713,1,0,0:0:0:0:
174,112,58792,1,0,0:0:0:0:
174,112,58871,1,2,0:0:0:0:
174,112,59029,1,2,0:0:0:0:
175,121,59108,1,2,0:0:0:0:
175,121,59187,1,0,0:0:0:0:
175,121,59345,1,0,0:0:0:0:
175,121,59503,1,0,0:0:0:0:
175,121,59582,1,0,0:0:0:0:
175,121,59661,1,2,0:0:0:0:
175,126,59818,1,2,0:0:0:0:
175,126,59976,1,0,0:0:0:0:
175,126,60055,1,0,0:0:0:0:
175,126,60134,1,2,0:0:0:0:
177,134,60213,1,0,0:0:0:0:
175,126,60292,1,0,0:0:0:0:
175,126,60450,1,2,0:0:0:0:
175,136,60608,1,0,0:0:0:0:
177,104,60766,1,2,0:0:0:0:
177,104,60845,1,2,0:0:0:0:
177,104,60924,1,0,0:0:0:0:
177,104,61082,1,2,0:0:0:0:
183,127,61240,1,0,0:0:0:0:
146,147,61318,1,0,0:0:0:0:
168,118,61397,1,2,0:0:0:0:
162,133,61555,1,2,0:0:0:0:
162,133,61634,1,2,0:0:0:0:
162,133,61713,1,0,0:0:0:0:
168,118,61792,1,0,0:0:0:0:
167,111,61871,1,2,0:0:0:0:
186,108,62029,1,0,0:0:0:0:
186,108,62187,1,2,0:0:0:0:
185,114,62345,1,0,0:0:0:0:
185,114,62424,1,2,0:0:0:0:
185,114,62503,1,0,0:0:0:0:
189,122,62661,1,0,0:0:0:0:
189,122,62818,1,2,0:0:0:0:
189,114,62976,1,4,0:0:0:0:
145,49,63292,1,2,0:0:0:0:
195,137,63450,1,2,0:0:0:0:
195,161,63608,1,4,0:0:0:0:
193,153,63924,1,0,0:0:0:0:
193,153,64082,1,2,0:0:0:0:
193,153,64240,1,2,0:0:0:0:
193,153,64397,1,0,0:0:0:0:
193,143,64555,1,0,0:0:0:0:
193,143,64713,1,2,0:0:0:0:
193,143,64871,1,0,0:0:0:0:
193,143,64950,1,0,0:0:0:0:
193,143,65029,1,2,0:0:0:0:
193,143,65187,1,2,0:0:0:0:
193,143,65345,1,0,0:0:0:0:
195,134,65661,1,4,0:0:0:0:
195,134,65818,1,4,0:0:0:0:
167,158,65976,1,6,0:0:0:0:
195,134,66134,1,4,0:0:0:0:
195,122,66450,1,12,0:0:0:0:
195,122,66608,1,12,0:0:0:0:
195,122,66924,1,4,0:0:0:0:
163,161,67082,1,0,0:0:0:0:
163,161,67161,1,0,0:0:0:0:
163,161,67240,1,2,0:0:0:0:
163,161,67397,1,0,0:0:0:0:
163,161,67555,1,2,0:0:0:0:
171,124,67634,1,0,0:0:0:0:
163,161,67713,1,0,0:0:0:0:
163,161,67871,1,2,0:0:0:0:
163,161,68029,1,0,0:0:0:0:
172,149,68187,1,2,0:0:0:0:
163,161,68345,1,0,0:0:0:0:
163,161,68424,1,0,0:0:0:0:
172,149,68503,1,2,0:0:0:0:
182,133,68661,1,0,0:0:0:0:
182,133,68818,1,2,0:0:0:0:
180,206,68897,1,8,0:0:0:0:
182,143,68976,1,0,0:0:0:0:
169,101,69055,1,0,0:0:0:0:
172,149,69134,1,2,0:0:0:0:
169,94,69292,1,2,0:0:0:0:
163,157,69450,1,0,0:0:0:0:
163,157,69608,1,0,0:0:0:0:
163,157,69687,1,0,0:0:0:0:
164,163,69766,1,2,0:0:0:0:
183,140,69924,1,0,0:0:0:0:
168,132,70082,1,2,0:0:0:0:
168,140,70161,1,0,0:0:0:0:
168,141,70240,1,2,0:0:0:0:
168,142,70318,1,2,0:0:0:0:
169,119,70397,1,0,0:0:0:0:
181,113,70555,1,2,0:0:0:0:
181,121,70713,1,0,0:0:0:0:
146,154,70871,1,0,0:0:0:0:
119,162,70950,1,2,0:0:0:0:
117,171,71029,1,0,0:0:0:0:
115,181,71187,1,2,0:0:0:0:
115,181,71345,1,0,0:0:0:0:
141,242,71503,1,8,0:0:0:0:
141,242,71582,1,8,0:0:0:0:
141,242,71661,1,0,0:0:0:0:
141,242,71740,1,0,0:0:0:0:
141,242,71818,1,8,0:0:0:0:
180,205,71897,1,0,0:0:0:0:
175,124,71976,1,2,0:0:0:0:
161,96,72134,1,0,0:0:0:0:
147,153,72213,1,0,0:0:0:0:
147,153,72292,1,2,0:0:0:0:
147,153,72450,1,2,0:0:0:0:
147,153,72608,1,0,0:0:0:0:
147,153,72766,1,2,0:0:0:0:
147,153,72845,1,2,0:0:0:0:
147,153,72924,1,0,0:0:0:0:
147,153,73082,1,2,0:0:0:0:
147,153,73240,1,0,0:0:0:0:
147,153,73318,1,0,0:0:0:0:
147,153,73397,1,2,0:0:0:0:
147,153,73476,1,0,0:0:0:0:
147,153,73555,1,2,0:0:0:0:
147,153,73713,1,2,0:0:0:0:
147,153,73871,1,0,0:0:0:0:
147,153,74029,1,2,0:0:0:0:
147,153,74108,1,0,0:0:0:0:
147,153,74187,1,0,0:0:0:0:
147,153,74345,1,0,0:0:0:0:
147,153,74503,1,2,0:0:0:0:
147,140,74582,1,0,0:0:0:0:
147,140,74661,1,2,0:0:0:0:
147,140,74740,1,2,0:0:0:0:
149,148,74818,1,0,0:0:0:0:
147,153,74897,1,0,0:0:0:0:
149,149,74976,1,2,0:0:0:0:
153,161,75134,1,0,0:0:0:0:
164,131,75213,1,2,0:0:0:0:
164,131,75292,1,0,0:0:0:0:
147,153,75371,1,0,0:0:0:0:
153,161,75450,1,2,0:0:0:0:
153,161,75529,1,2,0:0:0:0:
153,160,75608,1,0,0:0:0:0:
153,161,75687,1,0,0:0:0:0:
153,161,75766,1,2,0:0:0:0:
161,79,75924,1,2,0:0:0:0:
174,101,75976,1,2,0:0:0:0:
178,108,76029,1,2,0:0:0:0:
180,112,76082,1,0,0:0:0:0:
301,88,76397,1,2,0:0:0:0:
301,88,76476,1,2,0:0:0:0:
126,99,76555,1,0,0:0:0:0:
126,99,76634,1,0,0:0:0:0:
301,88,76713,1,2,0:0:0:0:
161,97,76871,1,8,0:0:0:0:
161,97,76950,1,8,0:0:0:0:
161,97,77029,1,0,0:0:0:0:
197,81,77187,1,0,0:0:0:0:
197,81,77345,1,2,0:0:0:0:
197,81,77503,1,2,0:0:0:0:
197,81,77582,1,0,0:0:0:0:
197,81,77661,1,0,0:0:0:0:
197,81,77818,1,2,0:0:0:0:
197,81,77976,1,0,0:0:0:0:
197,81,78055,1,0,0:0:0:0:
197,81,78134,1,2,0:0:0:0:
197,81,78292,1,0,0:0:0:0:
197,81,78450,1,2,0:0:0:0:
186,122,78529,1,8,0:0:0:0:
197,81,78608,1,0,0:0:0:0:
197,81,78766,1,2,0:0:0:0:
153,87,78924,1,0,0:0:0:0:
197,81,79082,1,2,0:0:0:0:
237,56,79161,1,2,0:0:0:0:
197,81,79240,1,0,0:0:0:0:
197,81,79318,1,0,0:0:0:0:
197,81,79397,1,2,0:0:0:0:
197,81,79476,1,0,0:0:0:0:
197,81,79555,1,2,0:0:0:0:
197,81,79713,1,0,0:0:0:0:
197,81,79871,1,2,0:0:0:0:
197,81,80029,1,2,0:0:0:0:
172,56,80108,1,0,0:0:0:0:
197,81,80187,1,0,0:0:0:0:
163,108,80345,1,2,0:0:0:0:
159,85,80503,1,0,0:0:0:0:
168,102,80582,1,0,0:0:0:0:
169,104,80661,1,2,0:0:0:0:
169,108,80818,1,0,0:0:0:0:
151,57,80976,1,8,0:0:0:0:
152,62,81055,1,8,0:0:0:0:
170,119,81134,1,0,0:0:0:0:
112,212,81213,1,0,0:0:0:0:
112,212,81292,1,8,0:0:0:0:
158,162,81450,5,0,0:0:0:0:
157,167,81529,1,0,0:0:0:0:
149,122,81608,1,2,0:0:0:0:
149,181,81687,1,8,0:0:0:0:
157,167,81766,1,0,0:0:0:0:
163,121,81924,1,2,0:0:0:0:
163,121,82082,1,0,0:0:0:0:
182,190,82240,1,8,0:0:0:0:
156,183,82318,1,0,0:0:0:0:
182,190,82397,1,0,0:0:0:0:
155,126,82555,1,2,0:0:0:0:
155,126,82713,1,0,0:0:0:0:
216,82,82792,1,0,0:0:0:0:
155,126,82871,1,2,0:0:0:0:
168,80,83029,1,0,0:0:0:0:
163,162,83187,1,8,0:0:0:0:
152,137,83266,1,8,0:0:0:0:
166,171,83345,1,0,0:0:0:0:
181,180,83424,1,8,0:0:0:0:
178,179,83503,1,0,0:0:0:0:
168,101,83582,1,0,0:0:0:0:
191,144,83661,1,8,0:0:0:0:
186,179,83818,1,0,0:0:0:0:
152,72,83897,1,8,0:0:0:0:
155,121,83976,1,0,0:0:0:0:
209,29,84134,1,8,0:0:0:0:
161,89,84292,1,0,0:0:0:0:
161,89,84371,1,0,0:0:0:0:
161,89,84450,1,8,0:0:0:0:
161,89,84608,1,0,0:0:0:0:
163,81,84766,1,8,0:0:0:0:
164,82,84845,1,8,0:0:0:0:
164,85,84924,1,0,0:0:0:0:
148,112,85082,1,2,0:0:0:0:
148,112,85240,1,0,0:0:0:0:
148,112,85318,1,0,0:0:0:0:
148,112,85397,1,2,0:0:0:0:
148,112,85476,1,2,0:0:0:0:
148,112,85555,1,0,0:0:0:0:
155,90,85713,5,8,0:0:0:0:
148,112,85871,1,0,0:0:0:0:
161,94,86029,1,2,0:0:0:0:
161,94,86187,1,0,0:0:0:0:
161,94,86345,1,2,0:0:0:0:
159,101,86503,1,0,0:0:0:0:
161,94,86661,1,2,0:0:0:0:
159,101,86818,1,0,0:0:0:0:
151,119,86976,1,2,0:0:0:0:
151,119,87134,1,12,0:0:0:0:
151,168,87450,1,6,0:0:0:0:
151,168,87608,1,0,0:0:0:0:
151,168,87687,1,0,0:0:0:0:
151,168,87766,1,8,0:0:0:0:
200,179,87845,1,8,0:0:0:0:
200,179,87924,1,8,0:0:0:0:
200,179,88003,1,8,0:0:0:0:
151,168,88082,1,0,0:0:0:0:
141,137,88240,1,0,0:0:0:0:
256,192,88397,1,4,0:0:0:0:
192,61,88713,1,8,0:0:0:0:
192,61,88871,1,0,0:0:0:0:
191,66,89187,1,0,0:0:0:0:
191,72,89345,1,8,0:0:0:0:
191,77,89503,1,0,0:0:0:0:
191,77,89818,1,0,0:0:0:0:
191,77,89976,1,8,0:0:0:0:
115,157,90134,1,0,0:0:0:0:
186,169,90213,1,8,0:0:0:0:
168,101,90450,1,0,0:0:0:0:
168,106,90608,1,8,0:0:0:0:
168,106,90766,1,8,0:0:0:0:
168,106,90924,1,0,0:0:0:0:
168,106,91240,1,8,0:0:0:0:
168,106,91397,1,0,0:0:0:0:
168,106,91713,1,0,0:0:0:0:
168,106,91871,1,8,0:0:0:0:
168,106,92029,1,0,0:0:0:0:
168,106,92345,1,0,0:0:0:0:
168,106,92503,1,8,0:0:0:0:
168,106,92661,1,8,0:0:0:0:
153,88,92818,1,0,0:0:0:0:
153,128,92976,1,0,0:0:0:0:
153,133,93134,1,6,0:0:0:0:
153,133,93450,1,4,0:0:0:0:
153,133,93608,1,8,0:0:0:0:
190,108,93687,1,8,0:0:0:0:
153,133,93766,1,0,0:0:0:0:
153,138,93924,1,8,0:0:0:0:
153,138,94082,1,0,0:0:0:0:
190,109,94161,1,0,0:0:0:0:
153,138,94240,1,8,0:0:0:0:
153,138,94397,1,0,0:0:0:0:
166,109,94555,1,0,0:0:0:0:
166,109,94634,1,8,0:0:0:0:
166,109,94713,1,0,0:0:0:0:
153,138,94871,1,8,0:0:0:0:
166,122,95029,1,0,0:0:0:0:
166,122,95108,1,0,0:0:0:0:
166,122,95187,1,8,0:0:0:0:
166,122,95345,1,0,0:0:0:0:
166,122,95503,1,8,0:0:0:0:
166,122,95582,1,8,0:0:0:0:
166,122,95661,1,0,0:0:0:0:
166,122,95740,1,0,0:0:0:0:
166,127,95818,1,8,0:0:0:0:
186,166,95976,1,8,0:0:0:0:
186,180,96055,1,8,0:0:0:0:
186,173,96134,1,0,0:0:0:0:
186,176,96213,1,0,0:0:0:0:
186,188,96292,1,8,0:0:0:0:
185,190,96371,1,0,0:0:0:0:
185,191,96450,1,8,0:0:0:0:
186,188,96529,1,8,0:0:0:0:
185,190,96608,1,0,0:0:0:0:
185,191,96687,1,0,0:0:0:0:
186,188,96766,1,8,0:0:0:0:
185,190,96845,1,8,0:0:0:0:
185,191,96924,1,0,0:0:0:0:
182,200,97003,1,0,0:0:0:0:
182,200,97082,1,8,0:0:0:0:
182,200,97397,1,0,0:0:0:0:
182,200,97476,1,0,0:0:0:0:
182,200,97555,1,8,0:0:0:0:
180,205,97713,1,0,0:0:0:0:
177,210,97871,1,8,0:0:0:0:
153,53,97950,1,0,0:0:0:0:
184,102,98029,1,0,0:0:0:0:
209,144,98108,1,0,0:0:0:0:
184,104,98187,1,8,0:0:0:0:
185,112,98266,1,8,0:0:0:0:
185,120,98345,1,0,0:0:0:0:
185,120,98503,1,4,0:0:0:0:
196,118,98818,1,0,0:0:0:0:
196,118,98976,1,0,0:0:0:0:
185,120,99134,1,8,0:0:0:0:
196,117,99292,1,8,0:0:0:0:
196,117,99371,1,8,0:0:0:0:
196,117,99450,1,8,0:0:0:0:
182,130,99608,1,0,0:0:0:0:
182,130,99766,1,0,0:0:0:0:
175,110,99924,1,0,0:0:0:0:
174,110,100003,1,0,0:0:0:0:
170,116,100082,1,8,0:0:0:0:
197,122,100240,1,0,0:0:0:0:
185,120,100397,1,8,0:0:0:0:
178,112,100555,1,8,0:0:0:0:
246,121,100713,1,0,0:0:0:0:
170,143,100792,1,8,0:0:0:0:
170,143,100871,1,8,0:0:0:0:
246,121,101029,1,0,0:0:0:0:
197,122,101345,1,0,0:0:0:0:
197,122,101503,1,0,0:0:0:0:
152,78,101582,1,0,0:0:0:0:
152,78,101661,1,8,0:0:0:0:
161,158,101818,1,0,0:0:0:0:
161,158,101976,1,8,0:0:0:0:
170,145,102134,1,0,0:0:0:0:
182,130,102292,1,0,0:0:0:0:
171,94,102450,1,8,0:0:0:0:
151,89,102529,1,0,0:0:0:0:
171,94,102608,1,0,0:0:0:0:
155,102,102766,1,0,0:0:0:0:
182,130,102924,1,8,0:0:0:0:
182,76,103003,1,8,0:0:0:0:
156,104,103082,1,0,0:0:0:0:
156,104,103240,1,8,0:0:0:0:
161,160,103397,1,8,0:0:0:0:
161,160,103555,1,0,0:0:0:0:
142,76,103871,1,0,0:0:0:0:
172,140,104029,1,0,0:0:0:0:
184,119,104187,1,8,0:0:0:0:
171,140,104345,1,8,0:0:0:0:
171,140,104424,1,8,0:0:0:0:
178,210,104503,1,8,0:0:0:0:
190,198,104661,1,0,0:0:0:0:
183,119,104818,1,0,0:0:0:0:
171,141,104976,1,0,0:0:0:0:
171,141,105055,1,0,0:0:0:0:
171,141,105134,1,8,0:0:0:0:
171,141,105292,1,0,0:0:0:0:
183,119,105450,1,8,0:0:0:0:
171,141,105608,1,8,0:0:0:0:
171,141,105766,1,0,0:0:0:0:
174,118,105845,1,8,0:0:0:0:
174,120,105924,1,8,0:0:0:0:
173,123,106003,1,8,0:0:0:0:
183,119,106082,1,0,0:0:0:0:
168,141,106240,1,0,0:0:0:0:
168,147,106318,1,0,0:0:0:0:
167,148,106397,1,8,0:0:0:0:
147,152,106555,1,0,0:0:0:0:
178,210,106713,1,8,0:0:0:0:
246,121,106871,1,0,0:0:0:0:
187,141,107029,1,8,0:0:0:0:
187,141,107108,1,8,0:0:0:0:
147,152,107187,1,0,0:0:0:0:
187,141,107345,1,0,0:0:0:0:
168,147,107503,1,8,0:0:0:0:
168,147,107661,1,8,0:0:0:0:
168,147,107818,1,0,0:0:0:0:
141,135,107976,1,8,0:0:0:0:
141,135,108292,1,8,0:0:0:0:
141,135,108450,1,0,0:0:0:0:
156,122,108608,1,4,0:0:0:0:
161,148,108924,1,8,0:0:0:0:
156,122,109082,1,0,0:0:0:0:
156,122,109240,1,8,0:0:0:0:
156,122,109397,1,8,0:0:0:0:
156,122,109476,1,8,0:0:0:0:
156,122,109555,1,0,0:0:0:0:
129,165,109634,1,8,0:0:0:0:
166,99,109713,1,0,0:0:0:0:
156,122,109871,1,0,0:0:0:0:
156,122,110029,1,8,0:0:0:0:
156,122,110108,1,8,0:0:0:0:
156,127,110187,1,8,0:0:0:0:
156,127,110345,1,0,0:0:0:0:
156,127,110503,1,8,0:0:0:0:
156,127,110582,1,8,0:0:0:0:
156,132,110661,1,0,0:0:0:0:
152,94,110818,1,8,0:0:0:0:
144,178,110976,1,0,0:0:0:0:
153,127,111134,1,0,0:0:0:0:
151,135,111450,1,8,0:0:0:0:
151,135,111608,1,0,0:0:0:0:
151,135,111766,1,8,0:0:0:0:
151,135,111845,1,0,0:0:0:0:
151,135,111924,1,0,0:0:0:0:
151,135,112003,1,0,0:0:0:0:
151,135,112082,1,8,0:0:0:0:
180,135,112240,1,0,0:0:0:0:
151,135,112397,1,0,0:0:0:0:
180,135,112555,1,8,0:0:0:0:
205,136,112608,1,8,0:0:0:0:
203,138,112661,1,8,0:0:0:0:
179,117,112713,1,8,0:0:0:0:
217,142,112871,1,0,0:0:0:0:
217,142,113029,1,8,0:0:0:0:
217,142,113108,1,8,0:0:0:0:
217,142,113187,1,0,0:0:0:0:
217,142,113266,1,0,0:0:0:0:
217,142,113345,1,8,0:0:0:0:
217,142,113503,1,0,0:0:0:0:
217,142,113661,1,4,0:0:0:0:
216,183,113897,1,8,0:0:0:0:
216,183,113976,1,0,0:0:0:0:
156,113,114134,1,8,0:0:0:0:
160,174,114213,1,8,0:0:0:0:
216,183,114292,1,0,0:0:0:0:
146,115,114450,1,0,0:0:0:0:
160,173,114529,1,8,0:0:0:0:
216,183,114608,1,0,0:0:0:0:
197,115,114766,1,8,0:0:0:0:
152,59,114924,1,0,0:0:0:0:
178,87,115003,1,0,0:0:0:0:
217,69,115161,1,0,0:0:0:0:
217,69,115240,1,8,0:0:0:0:
161,184,115397,1,8,0:0:0:0:
217,69,115476,1,0,0:0:0:0:
217,69,115555,1,8,0:0:0:0:
217,69,115634,1,8,0:0:0:0:
217,69,115713,1,0,0:0:0:0:
217,69,115792,1,0,0:0:0:0:
217,69,115871,1,8,0:0:0:0:
165,96,116029,1,0,0:0:0:0:
204,111,116187,1,8,0:0:0:0:
194,137,116266,1,8,0:0:0:0:
196,144,116345,1,0,0:0:0:0:
149,179,116424,1,0,0:0:0:0:
171,136,116503,1,8,0:0:0:0:
194,186,116582,1,0,0:0:0:0:
194,186,116661,1,8,0:0:0:0:
194,186,116740,1,8,0:0:0:0:
194,186,116818,1,0,0:0:0:0:
194,186,116897,1,8,0:0:0:0:
194,186,116976,1,0,0:0:0:0:
194,186,117055,1,0,0:0:0:0:
194,186,117134,1,8,0:0:0:0:
137,95,117213,1,8,0:0:0:0:
179,109,117292,1,0,0:0:0:0:
191,156,117608,1,0,0:0:0:0:
191,156,117687,1,0,0:0:0:0:
191,156,117766,1,8,0:0:0:0:
191,156,117845,1,0,0:0:0:0:
191,156,117924,1,0,0:0:0:0:
142,146,118082,1,8,0:0:0:0:
141,153,118161,1,8,0:0:0:0:
141,153,118240,1,0,0:0:0:0:
141,153,118318,1,0,0:0:0:0:
108,152,118397,1,8,0:0:0:0:
146,195,118555,1,0,0:0:0:0:
175,94,118713,1,4,0:0:0:0:
175,94,118871,1,0,0:0:0:0:
175,94,118950,1,0,0:0:0:0:
175,94,119029,1,2,0:0:0:0:
175,94,119187,1,2,0:0:0:0:
175,94,119345,1,0,0:0:0:0:
162,133,119424,1,0,0:0:0:0:
175,94,119503,1,2,0:0:0:0:
175,121,119582,1,2,0:0:0:0:
175,94,119661,1,0,0:0:0:0:
175,94,119818,1,2,0:0:0:0:
175,94,119976,1,0,0:0:0:0:
176,83,120134,1,2,0:0:0:0:
176,83,120213,1,0,0:0:0:0:
176,83,120292,1,0,0:0:0:0:
146,72,120450,1,2,0:0:0:0:
174,112,120608,1,0,0:0:0:0:
174,112,120687,1,0,0:0:0:0:
174,112,120766,1,2,0:0:0:0:
174,112,120924,1,2,0:0:0:0:
175,121,121003,1,2,0:0:0:0:
175,121,121082,1,0,0:0:0:0:
175,121,121240,1,0,0:0:0:0:
175,121,121397,1,0,0:0:0:0:
175,121,121476,1,0,0:0:0:0:
175,121,121555,1,2,0:0:0:0:
175,126,121713,1,2,0:0:0:0:
175,126,121871,1,0,0:0:0:0:
175,126,121950,1,0,0:0:0:0:
175,126,122029,1,2,0:0:0:0:
177,134,122108,1,0,0:0:0:0:
175,126,122187,1,0,0:0:0:0:
175,126,122345,1,2,0:0:0:0:
175,136,122503,1,0,0:0:0:0:
177,104,122661,1,2,0:0:0:0:
177,104,122740,1,2,0:0:0:0:
177,104,122818,1,0,0:0:0:0:
177,104,122976,1,2,0:0:0:0:
183,127,123134,1,0,0:0:0:0:
146,147,123213,1,0,0:0:0:0:
168,118,123292,1,2,0:0:0:0:
184,110,123371,1,0,0:0:0:0:
162,133,123450,1,2,0:0:0:0:
162,133,123529,1,2,0:0:0:0:
162,133,123608,1,0,0:0:0:0:
168,118,123687,1,0,0:0:0:0:
167,111,123766,1,2,0:0:0:0:
186,108,123924,1,0,0:0:0:0:
186,108,124082,1,2,0:0:0:0:
185,114,124240,1,0,0:0:0:0:
185,114,124318,1,2,0:0:0:0:
185,114,124397,1,0,0:0:0:0:
189,122,124555,1,0,0:0:0:0:
189,122,124713,1,2,0:0:0:0:
170,135,124871,1,4,0:0:0:0:
141,142,125187,1,0,0:0:0:0:
195,137,125345,1,2,0:0:0:0:
156,106,125503,1,0,0:0:0:0:
179,110,125555,1,0,0:0:0:0:
179,110,125608,1,0,0:0:0:0:
179,110,125661,1,8,0:0:0:0:
129,122,125818,1,0,0:0:0:0:
129,122,125897,1,0,0:0:0:0:
193,153,125976,1,2,0:0:0:0:
128,127,126055,1,8,0:0:0:0:
126,112,126134,1,0,0:0:0:0:
141,142,126292,1,8,0:0:0:0:
193,143,126450,1,0,0:0:0:0:
193,143,126608,1,2,0:0:0:0:
193,143,126766,1,0,0:0:0:0:
193,143,126845,1,0,0:0:0:0:
193,143,126924,1,2,0:0:0:0:
193,143,127082,1,2,0:0:0:0:
193,143,127240,1,0,0:0:0:0:
190,132,127397,1,2,0:0:0:0:
195,134,127555,1,4,0:0:0:0:
195,134,127713,1,4,0:0:0:0:
171,214,127871,1,6,0:0:0:0:
195,134,128029,1,4,0:0:0:0:
195,122,128345,1,12,0:0:0:0:
195,122,128503,1,12,0:0:0:0:
195,122,128818,1,4,0:0:0:0:
163,161,128976,1,0,0:0:0:0:
163,161,129055,1,0,0:0:0:0:
163,161,129134,1,2,0:0:0:0:
163,161,129292,1,0,0:0:0:0:
163,161,129450,1,2,0:0:0:0:
171,124,129529,1,0,0:0:0:0:
163,161,129608,1,0,0:0:0:0:
163,161,129766,1,2,0:0:0:0:
163,161,129924,1,0,0:0:0:0:
172,149,130082,1,2,0:0:0:0:
163,161,130240,1,0,0:0:0:0:
163,161,130318,1,0,0:0:0:0:
172,149,130397,1,2,0:0:0:0:
177,122,130555,1,0,0:0:0:0:
177,122,130713,1,8,0:0:0:0:
181,282,130792,1,8,0:0:0:0:
181,282,130871,1,0,0:0:0:0:
181,282,130950,1,0,0:0:0:0:
181,282,131029,1,8,0:0:0:0:
158,37,131108,1,0,0:0:0:0:
158,37,131187,1,8,0:0:0:0:
163,157,131345,1,0,0:0:0:0:
163,157,131503,1,0,0:0:0:0:
163,157,131582,1,0,0:0:0:0:
164,163,131661,1,2,0:0:0:0:
183,140,131818,1,0,0:0:0:0:
168,132,131976,1,2,0:0:0:0:
168,140,132055,1,0,0:0:0:0:
168,141,132134,1,2,0:0:0:0:
168,142,132213,1,2,0:0:0:0:
169,119,132292,1,0,0:0:0:0:
181,113,132450,1,2,0:0:0:0:
181,121,132608,1,0,0:0:0:0:
146,154,132766,1,0,0:0:0:0:
119,162,132845,5,2,0:0:0:0:
117,171,132924,1,0,0:0:0:0:
115,181,133082,1,2,0:0:0:0:
156,118,133240,1,0,0:0:0:0:
191,295,133397,1,8,0:0:0:0:
141,242,133476,1,8,0:0:0:0:
141,242,133555,1,0,0:0:0:0:
141,242,133634,1,0,0:0:0:0:
141,242,133713,1,8,0:0:0:0:
180,205,133792,1,0,0:0:0:0:
175,124,133871,1,2,0:0:0:0:
161,96,134029,5,0,0:0:0:0:
147,153,134108,1,0,0:0:0:0:
147,153,134187,1,2,0:0:0:0:
147,153,134345,1,2,0:0:0:0:
147,153,134503,1,0,0:0:0:0:
147,153,134661,1,2,0:0:0:0:
147,153,134740,1,2,0:0:0:0:
147,153,134818,1,0,0:0:0:0:
147,153,134976,1,2,0:0:0:0:
147,153,135134,1,0,0:0:0:0:
147,153,135213,1,0,0:0:0:0:
147,153,135292,1,2,0:0:0:0:
147,153,135371,1,0,0:0:0:0:
147,153,135450,1,2,0:0:0:0:
147,153,135608,1,2,0:0:0:0:
147,153,135766,1,0,0:0:0:0:
147,153,135924,1,2,0:0:0:0:
147,153,136003,1,0,0:0:0:0:
147,153,136082,1,0,0:0:0:0:
147,153,136240,1,0,0:0:0:0:
147,153,136397,1,2,0:0:0:0:
147,140,136476,1,0,0:0:0:0:
147,140,136555,1,2,0:0:0:0:
147,140,136634,1,2,0:0:0:0:
149,148,136713,1,0,0:0:0:0:
147,153,136792,1,0,0:0:0:0:
149,149,136871,1,2,0:0:0:0:
141,142,136950,1,8,0:0:0:0:
153,161,137029,1,0,0:0:0:0:
164,131,137108,1,2,0:0:0:0:
164,131,137187,1,0,0:0:0:0:
147,153,137266,1,0,0:0:0:0:
153,161,137345,1,2,0:0:0:0:
153,161,137424,1,2,0:0:0:0:
153,160,137503,1,0,0:0:0:0:
153,161,137582,1,0,0:0:0:0:
153,161,137661,1,2,0:0:0:0:
161,79,137818,1,2,0:0:0:0:
174,101,137871,1,2,0:0:0:0:
178,108,137924,1,2,0:0:0:0:
180,112,137976,1,0,0:0:0:0:
301,88,138292,1,2,0:0:0:0:
301,88,138371,1,2,0:0:0:0:
156,180,138450,1,0,0:0:0:0:
156,180,138529,1,0,0:0:0:0:
301,88,138608,1,2,0:0:0:0:
301,88,138766,1,2,0:0:0:0:
301,88,138845,1,2,0:0:0:0:
301,88,138924,1,0,0:0:0:0:
141,145,139082,1,8,0:0:0:0:
173,139,139240,1,0,0:0:0:0:
203,125,139397,1,0,0:0:0:0:
160,143,139476,1,0,0:0:0:0:
160,143,139555,1,8,0:0:0:0:
167,160,139713,1,0,0:0:0:0:
161,167,139871,1,8,0:0:0:0:
163,131,140029,1,8,0:0:0:0:
176,181,140187,1,0,0:0:0:0:
157,189,140345,1,0,0:0:0:0:
157,195,140424,1,0,0:0:0:0:
157,195,140503,1,8,0:0:0:0:
157,195,140661,1,0,0:0:0:0:
156,107,140740,1,0,0:0:0:0:
156,107,140818,1,8,0:0:0:0:
171,138,140976,1,8,0:0:0:0:
171,138,141055,1,8,0:0:0:0:
171,138,141134,1,0,0:0:0:0:
172,184,141292,1,8,0:0:0:0:
195,62,141450,1,0,0:0:0:0:
159,120,141608,1,0,0:0:0:0:
152,109,141687,1,8,0:0:0:0:
136,122,141766,1,0,0:0:0:0:
136,122,141924,1,0,0:0:0:0:
157,69,142003,1,8,0:0:0:0:
136,122,142082,1,8,0:0:0:0:
145,34,142161,1,0,0:0:0:0:
141,142,142240,1,8,0:0:0:0:
162,39,142318,1,8,0:0:0:0:
162,40,142397,1,0,0:0:0:0:
162,39,142555,1,8,0:0:0:0:
176,181,142713,1,0,0:0:0:0:
141,141,142871,1,8,0:0:0:0:
141,141,142950,1,0,0:0:0:0:
180,173,143029,1,0,0:0:0:0:
141,141,143187,1,8,0:0:0:0:
152,109,143266,1,8,0:0:0:0:
141,141,143345,1,0,0:0:0:0:
152,109,143424,1,0,0:0:0:0:
153,115,143503,1,8,0:0:0:0:
155,118,143661,1,0,0:0:0:0:
167,71,143818,1,8,0:0:0:0:
159,60,143897,1,0,0:0:0:0:
221,273,143976,1,0,0:0:0:0:
168,158,144134,1,8,0:0:0:0:
168,158,144292,1,0,0:0:0:0:
146,148,144371,1,0,0:0:0:0:
146,148,144450,1,8,0:0:0:0:
176,181,144608,1,0,0:0:0:0:
158,106,144766,1,8,0:0:0:0:
200,113,144924,1,0,0:0:0:0:
153,123,145082,1,0,0:0:0:0:
153,123,145161,1,0,0:0:0:0:
119,175,145240,1,8,0:0:0:0:
131,79,145397,1,0,0:0:0:0:
146,152,145476,1,0,0:0:0:0:
146,152,145555,1,8,0:0:0:0:
151,222,145713,1,8,0:0:0:0:
151,222,145871,1,0,0:0:0:0:
153,164,146029,1,8,0:0:0:0:
163,138,146108,1,8,0:0:0:0:
153,164,146187,1,0,0:0:0:0:
153,122,146345,1,0,0:0:0:0:
192,92,146503,1,8,0:0:0:0:
216,115,146661,1,0,0:0:0:0:
171,107,146740,1,8,0:0:0:0:
148,115,146818,1,8,0:0:0:0:
176,121,146976,1,0,0:0:0:0:
171,107,147055,1,8,0:0:0:0:
150,124,147134,1,8,0:0:0:0:
162,106,147292,1,0,0:0:0:0:
136,72,147608,1,12,0:0:0:0:
176,113,147924,1,12,0:0:0:0:
159,119,148240,1,0,0:0:0:0:
176,127,148397,1,8,0:0:0:0:
176,127,148476,1,8,0:0:0:0:
176,131,148555,1,0,0:0:0:0:
116,126,148634,1,0,0:0:0:0:
206,175,148713,1,8,0:0:0:0:
150,82,148871,1,0,0:0:0:0:
131,176,149029,1,0,0:0:0:0:
191,198,149345,1,0,0:0:0:0:
162,138,149503,1,8,0:0:0:0:
162,138,149582,1,8,0:0:0:0:
162,138,149661,1,0,0:0:0:0:
191,198,149818,1,8,0:0:0:0:
191,198,150134,1,8,0:0:0:0:
176,113,150292,1,0,0:0:0:0:
191,198,150608,1,8,0:0:0:0:
191,198,150766,1,8,0:0:0:0:
176,113,150924,1,0,0:0:0:0:
191,205,151082,1,8,0:0:0:0:
191,205,151397,1,8,0:0:0:0:
176,113,151555,1,0,0:0:0:0:
189,194,151871,1,0,0:0:0:0:
154,112,152029,1,8,0:0:0:0:
153,124,152108,1,0,0:0:0:0:
152,93,152187,1,0,0:0:0:0:
152,93,152345,1,8,0:0:0:0:
191,205,152661,1,8,0:0:0:0:
176,113,152818,1,0,0:0:0:0:
186,97,153134,1,0,0:0:0:0:
188,210,153292,1,8,0:0:0:0:
176,113,153450,1,0,0:0:0:0:
188,210,153608,1,8,0:0:0:0:
153,124,153687,1,8,0:0:0:0:
188,210,153766,1,0,0:0:0:0:
188,210,153924,1,8,0:0:0:0:
176,113,154082,1,0,0:0:0:0:
177,90,154397,1,0,0:0:0:0:
153,124,154555,1,0,0:0:0:0:
186,215,154634,1,8,0:0:0:0:
176,113,154713,1,0,0:0:0:0:
132,149,154871,1,8,0:0:0:0:
186,215,155187,1,8,0:0:0:0:
176,113,155345,1,0,0:0:0:0:
164,108,155661,1,0,0:0:0:0:
133,153,155818,1,0,0:0:0:0:
133,163,155897,1,8,0:0:0:0:
176,113,155976,1,0,0:0:0:0:
164,108,156134,1,8,0:0:0:0:
164,108,156450,1,8,0:0:0:0:
176,113,156608,1,0,0:0:0:0:
164,113,156766,1,8,0:0:0:0:
164,110,157082,1,8,0:0:0:0:
176,113,157240,1,0,0:0:0:0:
164,110,157397,1,8,0:0:0:0:
164,115,157713,1,8,0:0:0:0:
176,113,157871,1,4,0:0:0:0:
191,177,158187,1,8,0:0:0:0:
158,94,158345,1,0,0:0:0:0:
158,100,158424,1,0,0:0:0:0:
157,103,158503,1,8,0:0:0:0:
157,105,158582,1,0,0:0:0:0:
157,107,158661,1,0,0:0:0:0:
157,105,158740,1,0,0:0:0:0:
157,105,158818,1,8,0:0:0:0:
169,119,158976,1,0,0:0:0:0:
169,119,159134,1,8,0:0:0:0:
153,124,159450,1,8,0:0:0:0:
169,119,159608,1,0,0:0:0:0:
169,119,159766,1,8,0:0:0:0:
181,160,160082,1,8,0:0:0:0:
150,168,160397,1,0,0:0:0:0:
181,160,160713,1,0,0:0:0:0:
141,112,160871,1,8,0:0:0:0:
150,168,161029,1,0,0:0:0:0:
166,117,161345,1,0,0:0:0:0:
166,117,161661,1,8,0:0:0:0:
146,131,161976,1,8,0:0:0:0:
158,63,162134,1,0,0:0:0:0:
158,67,162292,1,8,0:0:0:0:
137,136,162608,1,8,0:0:0:0:
138,138,162924,1,0,0:0:0:0:
139,141,163240,1,0,0:0:0:0:
131,139,163397,1,8,0:0:0:0:
157,79,163713,1,8,0:0:0:0:
183,222,163871,1,0,0:0:0:0:
139,148,164187,1,0,0:0:0:0:
139,148,164345,1,0,0:0:0:0:
139,148,164503,1,8,0:0:0:0:
139,153,164661,1,8,0:0:0:0:
139,153,164818,1,0,0:0:0:0:
139,153,164976,1,8,0:0:0:0:
139,153,165134,1,0,0:0:0:0:
176,143,165292,1,8,0:0:0:0:
176,143,165450,1,0,0:0:0:0:
180,169,165608,1,8,0:0:0:0:
138,162,165766,1,8,0:0:0:0:
138,162,165924,1,0,0:0:0:0:
138,162,166082,1,8,0:0:0:0:
166,127,166240,1,0,0:0:0:0:
166,127,166397,1,8,0:0:0:0:
166,127,166555,1,8,0:0:0:0:
138,169,166713,1,0,0:0:0:0:
138,169,166792,1,0,0:0:0:0:
138,169,166871,1,8,0:0:0:0:
138,169,166950,1,0,0:0:0:0:
137,173,167029,1,8,0:0:0:0:
137,173,167108,1,8,0:0:0:0:
137,173,167187,1,0,0:0:0:0:
137,173,167266,1,0,0:0:0:0:
137,173,167345,1,8,0:0:0:0:
137,173,167424,1,0,0:0:0:0:
137,173,167503,1,8,0:0:0:0:
137,173,167582,1,8,0:0:0:0:
137,173,167661,1,0,0:0:0:0:
137,173,167740,1,0,0:0:0:0:
137,173,167818,1,8,0:0:0:0:
134,183,167897,1,8,0:0:0:0:
134,185,167976,1,0,0:0:0:0:
155,148,168292,1,8,0:0:0:0:
155,148,168450,1,0,0:0:0:0:
155,148,168529,1,0,0:0:0:0:
155,148,168608,1,8,0:0:0:0:
155,154,168687,1,8,0:0:0:0:
155,157,168766,1,0,0:0:0:0:
195,115,168845,1,0,0:0:0:0:
155,154,168924,1,8,0:0:0:0:
155,154,169082,1,0,0:0:0:0:
157,79,169240,1,0,0:0:0:0:
155,157,169555,1,8,0:0:0:0:
166,156,169713,1,8,0:0:0:0:
166,155,169792,1,8,0:0:0:0:
166,156,169871,1,0,0:0:0:0:
166,134,170029,1,0,0:0:0:0:
155,157,170187,1,8,0:0:0:0:
166,159,170345,1,0,0:0:0:0:
166,163,170424,1,0,0:0:0:0:
166,165,170503,1,8,0:0:0:0:
166,134,170661,1,0,0:0:0:0:
155,157,170818,1,8,0:0:0:0:
170,148,170976,1,8,0:0:0:0:
170,148,171134,1,0,0:0:0:0:
170,150,171292,1,0,0:0:0:0:
155,157,171450,1,8,0:0:0:0:
167,149,171608,1,0,0:0:0:0:
167,149,171687,1,0,0:0:0:0:
167,149,171766,1,8,0:0:0:0:
155,157,172082,1,8,0:0:0:0:
167,149,172240,1,8,0:0:0:0:
167,149,172318,1,0,0:0:0:0:
167,149,172397,1,0,0:0:0:0:
166,165,172555,1,0,0:0:0:0:
155,157,172713,1,8,0:0:0:0:
151,173,172871,1,8,0:0:0:0:
166,165,173029,1,0,0:0:0:0:
178,122,173266,1,0,0:0:0:0:
155,158,173345,1,8,0:0:0:0:
151,173,173503,1,0,0:0:0:0:
151,173,173661,1,8,0:0:0:0:
155,158,173976,1,8,0:0:0:0:
142,202,174134,1,0,0:0:0:0:
157,79,174292,1,4,0:0:0:0:
151,173,174608,1,8,0:0:0:0:
206,102,174766,1,0,0:0:0:0:
151,173,174924,1,8,0:0:0:0:
206,102,175082,1,0,0:0:0:0:
162,85,175161,1,0,0:0:0:0:
151,173,175240,1,8,0:0:0:0:
206,102,175397,1,8,0:0:0:0:
206,102,175555,1,0,0:0:0:0:
151,94,175713,1,8,0:0:0:0:
151,102,175792,1,0,0:0:0:0:
151,105,175871,1,8,0:0:0:0:
206,102,176029,1,0,0:0:0:0:
151,173,176187,1,8,0:0:0:0:
151,142,176266,1,8,0:0:0:0:
140,216,176345,1,0,0:0:0:0:
140,216,176424,1,0,0:0:0:0:
151,173,176503,1,8,0:0:0:0:
181,153,176661,1,8,0:0:0:0:
181,153,176818,1,0,0:0:0:0:
151,111,177134,1,8,0:0:0:0:
181,153,177292,1,0,0:0:0:0:
181,153,177450,1,8,0:0:0:0:
181,153,177608,1,0,0:0:0:0:
140,216,177687,1,0,0:0:0:0:
140,216,177766,1,8,0:0:0:0:
148,107,177924,1,8,0:0:0:0:
148,107,178082,1,0,0:0:0:0:
140,216,178240,1,0,0:0:0:0:
140,216,178397,1,8,0:0:0:0:
181,152,178555,1,8,0:0:0:0:
181,152,178634,1,8,0:0:0:0:
181,152,178713,1,0,0:0:0:0:
140,216,178871,1,0,0:0:0:0:
140,223,179029,1,8,0:0:0:0:
209,87,179108,1,0,0:0:0:0:
209,87,179187,1,0,0:0:0:0:
209,87,179266,1,0,0:0:0:0:
209,87,179345,1,8,0:0:0:0:
141,232,179503,1,0,0:0:0:0:
146,175,179582,1,0,0:0:0:0:
141,232,179661,1,8,0:0:0:0:
141,232,179818,1,8,0:0:0:0:
141,232,179976,1,0,0:0:0:0:
136,127,180134,1,0,0:0:0:0:
146,175,180213,1,0,0:0:0:0:
141,153,180292,1,8,0:0:0:0:
143,158,180371,1,8,0:0:0:0:
143,161,180450,1,0,0:0:0:0:
146,175,180608,1,8,0:0:0:0:
146,175,180687,1,0,0:0:0:0:
146,175,180766,1,8,0:0:0:0:
146,175,180845,1,8,0:0:0:0:
146,175,180924,1,0,0:0:0:0:
146,175,181003,1,0,0:0:0:0:
146,175,181082,1,8,0:0:0:0:
146,175,181161,1,0,0:0:0:0:
146,175,181240,1,8,0:0:0:0:
146,175,181318,1,8,0:0:0:0:
146,175,181397,1,0,0:0:0:0:
146,175,181476,1,8,0:0:0:0:
146,175,181555,1,0,0:0:0:0:
146,175,181634,1,0,0:0:0:0:
146,175,181713,1,8,0:0:0:0:
157,79,181871,1,4,0:0:0:0:
157,79,183134,1,4,0:0:0:0:
157,79,184397,1,4,0:0:0:0:
146,177,185661,1,4,0:0:0:0:
146,177,185818,1,8,0:0:0:0:
146,177,185897,1,8,0:0:0:0:
146,177,185976,1,0,0:0:0:0:
146,183,186134,1,8,0:0:0:0:
146,183,186292,1,0,0:0:0:0:
151,155,186371,1,0,0:0:0:0:
151,155,186450,1,8,0:0:0:0:
146,183,186529,1,0,0:0:0:0:
146,183,186608,1,8,0:0:0:0:
196,102,186924,1,6,0:0:0:0:
186,108,187082,1,0,0:0:0:0:
186,108,187240,1,2,0:0:0:0:
185,114,187397,1,0,0:0:0:0:
185,114,187476,1,2,0:0:0:0:
185,114,187555,1,0,0:0:0:0:
189,122,187713,1,0,0:0:0:0:
189,122,187871,1,2,0:0:0:0:
170,135,188029,1,4,0:0:0:0:
210,138,188345,1,8,0:0:0:0:
195,137,188503,1,2,0:0:0:0:
150,137,188661,1,4,0:0:0:0:
129,122,188976,1,0,0:0:0:0:
193,153,189134,1,2,0:0:0:0:
126,112,189292,1,0,0:0:0:0:
178,94,189371,1,0,0:0:0:0:
178,94,189450,1,8,0:0:0:0:
193,143,189608,1,0,0:0:0:0:
193,143,189766,1,2,0:0:0:0:
168,90,189924,1,8,0:0:0:0:
167,110,190003,1,8,0:0:0:0:
167,109,190082,1,0,0:0:0:0:
193,143,190240,1,2,0:0:0:0:
193,143,190397,1,0,0:0:0:0:
190,132,190555,1,2,0:0:0:0:
160,129,190713,1,4,0:0:0:0:
182,186,190871,1,4,0:0:0:0:
195,134,191029,1,6,0:0:0:0:
182,186,191187,1,4,0:0:0:0:
176,97,191503,1,12,0:0:0:0:
176,97,191661,1,12,0:0:0:0:
195,122,191976,1,4,0:0:0:0:
163,161,192134,1,0,0:0:0:0:
163,161,192213,1,0,0:0:0:0:
163,161,192292,1,2,0:0:0:0:
163,161,192450,1,0,0:0:0:0:
163,161,192608,1,2,0:0:0:0:
171,124,192687,1,0,0:0:0:0:
163,161,192766,1,0,0:0:0:0:
163,161,192924,1,2,0:0:0:0:
163,161,193082,1,0,0:0:0:0:
172,149,193240,1,2,0:0:0:0:
163,161,193397,1,0,0:0:0:0:
163,161,193476,1,0,0:0:0:0:
172,149,193555,1,2,0:0:0:0:
182,133,193713,1,0,0:0:0:0:
182,133,193871,1,2,0:0:0:0:
180,206,193950,1,8,0:0:0:0:
182,143,194029,1,0,0:0:0:0:
169,101,194108,1,0,0:0:0:0:
172,149,194187,1,2,0:0:0:0:
151,161,194266,1,0,0:0:0:0:
169,94,194345,1,2,0:0:0:0:
163,157,194503,1,0,0:0:0:0:
163,157,194661,1,0,0:0:0:0:
163,157,194740,1,0,0:0:0:0:
164,163,194818,1,2,0:0:0:0:
183,140,194976,1,0,0:0:0:0:
168,132,195134,1,2,0:0:0:0:
168,140,195213,1,0,0:0:0:0:
168,141,195292,1,2,0:0:0:0:
168,142,195371,1,2,0:0:0:0:
169,119,195450,1,0,0:0:0:0:
181,113,195608,1,2,0:0:0:0:
181,121,195766,1,0,0:0:0:0:
146,154,195924,1,0,0:0:0:0:
119,162,196003,1,2,0:0:0:0:
117,171,196082,1,0,0:0:0:0:
115,181,196240,1,2,0:0:0:0:
115,181,196397,1,0,0:0:0:0:
208,215,196476,1,0,0:0:0:0:
196,105,196555,1,2,0:0:0:0:
132,106,196634,1,8,0:0:0:0:
132,106,196713,1,0,0:0:0:0:
132,106,196792,1,0,0:0:0:0:
132,106,196871,1,8,0:0:0:0:
180,205,196950,1,0,0:0:0:0:
175,124,197029,1,2,0:0:0:0:
161,96,197187,1,0,0:0:0:0:
147,153,197266,1,0,0:0:0:0:
147,153,197345,1,2,0:0:0:0:
147,153,197503,1,2,0:0:0:0:
147,153,197661,1,0,0:0:0:0:
147,153,197818,1,2,0:0:0:0:
147,153,197897,1,2,0:0:0:0:
147,153,197976,1,0,0:0:0:0:
147,153,198134,1,2,0:0:0:0:
147,153,198292,1,0,0:0:0:0:
147,153,198371,1,0,0:0:0:0:
147,153,198450,1,2,0:0:0:0:
147,153,198529,1,0,0:0:0:0:
147,153,198608,1,2,0:0:0:0:
147,153,198766,1,2,0:0:0:0:
147,153,198924,1,0,0:0:0:0:
147,153,199082,1,2,0:0:0:0:
147,153,199161,1,0,0:0:0:0:
147,153,199240,1,0,0:0:0:0:
147,153,199397,1,0,0:0:0:0:
147,153,199555,1,2,0:0:0:0:
147,140,199634,1,0,0:0:0:0:
147,140,199713,1,2,0:0:0:0:
147,140,199792,1,2,0:0:0:0:
149,148,199871,1,0,0:0:0:0:
147,153,199950,1,0,0:0:0:0:
149,149,200029,1,2,0:0:0:0:
146,126,200108,1,8,0:0:0:0:
153,161,200187,1,0,0:0:0:0:
164,131,200266,1,2,0:0:0:0:
149,149,200345,1,0,0:0:0:0:
146,126,200424,1,0,0:0:0:0:
153,161,200503,1,2,0:0:0:0:
153,161,200582,1,2,0:0:0:0:
153,160,200661,1,0,0:0:0:0:
153,161,200740,1,0,0:0:0:0:
153,161,200818,1,2,0:0:0:0:
161,79,200976,1,2,0:0:0:0:
197,83,201055,1,8,0:0:0:0:
180,112,201134,1,0,0:0:0:0:
189,93,201213,1,0,0:0:0:0:
197,83,201292,1,0,0:0:0:0:
183,110,201450,1,8,0:0:0:0:
183,110,201529,1,8,0:0:0:0:
218,196,201608,1,8,0:0:0:0:
218,196,201687,1,8,0:0:0:0:
218,196,201766,1,0,0:0:0:0:
166,133,201924,1,8,0:0:0:0:
168,89,202082,1,0,0:0:0:0:
172,128,202397,1,8,0:0:0:0:
172,128,202555,1,0,0:0:0:0:
181,184,202871,1,0,0:0:0:0:
172,128,203029,1,8,0:0:0:0:
172,128,203187,1,0,0:0:0:0:
151,178,203661,1,0,0:0:0:0:
142,133,203976,1,0,0:0:0:0:
151,178,204292,1,0,0:0:0:0:
154,157,204608,1,6,0:0:0:0:
170,179,205871,1,0,0:0:0:0:
168,112,206503,1,8,0:0:0:0:
168,112,207134,1,0,0:0:0:0:
168,112,208397,1,8,0:0:0:0:
168,112,209029,1,8,0:0:0:0:
151,178,209345,1,8,0:0:0:0:
151,178,209503,1,8,0:0:0:0:
151,178,209582,1,8,0:0:0:0:
151,178,209661,1,0,0:0:0:0:
141,141,209818,1,8,0:0:0:0:
170,179,209897,1,8,0:0:0:0:
170,179,209976,1,0,0:0:0:0:
163,157,210134,1,8,0:0:0:0:
168,176,210213,1,8,0:0:0:0:
164,164,210292,1,0,0:0:0:0:
210,112,210371,1,8,0:0:0:0:
142,156,210529,1,8,0:0:0:0:
142,156,210608,1,0,0:0:0:0:
142,156,210766,1,8,0:0:0:0:
176,151,210924,1,0,0:0:0:0:
176,151,211003,1,0,0:0:0:0:
175,138,211082,1,8,0:0:0:0:
175,138,211240,1,0,0:0:0:0:
146,88,211318,1,0,0:0:0:0:
175,138,211397,1,8,0:0:0:0:
213,82,211476,1,0,0:0:0:0:
176,143,211555,1,8,0:0:0:0:
176,143,211634,1,8,0:0:0:0:
239,178,211713,1,0,0:0:0:0:
239,178,211766,1,0,0:0:0:0:
237,184,211818,1,0,0:0:0:0:
154,53,211871,1,8,0:0:0:0:
222,122,212029,1,8,0:0:0:0:
170,138,212108,1,8,0:0:0:0:
161,97,212187,1,0,0:0:0:0:
197,81,212345,1,0,0:0:0:0:
197,81,212503,1,2,0:0:0:0:
197,81,212661,1,2,0:0:0:0:
197,81,212740,1,0,0:0:0:0:
197,81,212818,1,0,0:0:0:0:
197,81,212976,1,2,0:0:0:0:
197,81,213134,1,0,0:0:0:0:
197,81,213213,1,0,0:0:0:0:
197,81,213292,1,2,0:0:0:0:
197,81,213450,1,0,0:0:0:0:
197,81,213608,1,2,0:0:0:0:
186,122,213687,1,8,0:0:0:0:
197,81,213766,1,0,0:0:0:0:
197,81,213924,1,2,0:0:0:0:
153,87,214082,1,0,0:0:0:0:
197,81,214240,1,2,0:0:0:0:
237,56,214318,1,2,0:0:0:0:
197,81,214397,1,0,0:0:0:0:
197,81,214476,1,0,0:0:0:0:
197,81,214555,1,2,0:0:0:0:
197,81,214634,1,0,0:0:0:0:
197,81,214713,1,2,0:0:0:0:
197,81,214871,1,0,0:0:0:0:
197,81,215029,1,2,0:0:0:0:
197,81,215187,1,2,0:0:0:0:
172,56,215266,1,0,0:0:0:0:
197,81,215345,1,0,0:0:0:0:
163,108,215503,1,2,0:0:0:0:
159,85,215661,1,0,0:0:0:0:
168,102,215740,1,0,0:0:0:0:
169,104,215818,1,2,0:0:0:0:
169,108,215976,1,0,0:0:0:0:
151,57,216134,1,8,0:0:0:0:
154,114,216213,1,8,0:0:0:0:
170,119,216292,1,0,0:0:0:0:
112,212,216371,1,0,0:0:0:0:
112,212,216450,1,8,0:0:0:0:
158,162,216608,5,0,0:0:0:0:
157,167,216687,1,0,0:0:0:0:
149,122,216766,1,2,0:0:0:0:
149,181,216845,1,8,0:0:0:0:
157,167,216924,1,0,0:0:0:0:
163,121,217082,1,2,0:0:0:0:
163,121,217240,1,0,0:0:0:0:
182,190,217397,1,8,0:0:0:0:
154,114,217476,1,0,0:0:0:0:
182,190,217555,1,0,0:0:0:0:
155,126,217713,1,2,0:0:0:0:
155,126,217871,1,0,0:0:0:0:
216,82,217950,1,0,0:0:0:0:
155,126,218029,1,2,0:0:0:0:
168,80,218187,1,0,0:0:0:0:
119,120,218345,1,0,0:0:0:0:
152,137,218424,1,8,0:0:0:0:
166,171,218503,1,0,0:0:0:0:
195,248,218582,1,0,0:0:0:0:
195,248,218661,1,8,0:0:0:0:
227,190,218818,1,8,0:0:0:0:
201,196,218976,1,0,0:0:0:0:
152,72,219055,1,8,0:0:0:0:
155,121,219134,1,0,0:0:0:0:
209,29,219292,1,8,0:0:0:0:
161,89,219450,1,0,0:0:0:0:
161,89,219529,1,0,0:0:0:0:
161,89,219608,1,8,0:0:0:0:
172,102,219766,1,8,0:0:0:0:
168,117,219924,1,0,0:0:0:0:
148,112,220003,1,0,0:0:0:0:
167,112,220082,1,8,0:0:0:0:
167,112,220240,1,0,0:0:0:0:
167,112,220397,1,8,0:0:0:0:
167,112,220476,1,0,0:0:0:0:
148,112,220555,1,2,0:0:0:0:
148,112,220634,1,2,0:0:0:0:
156,142,220713,1,0,0:0:0:0:
148,112,220871,1,2,0:0:0:0:
148,112,221029,1,0,0:0:0:0:
161,94,221187,1,2,0:0:0:0:
154,114,221266,1,8,0:0:0:0:
161,94,221345,1,0,0:0:0:0:
161,94,221503,1,2,0:0:0:0:
159,101,221661,1,0,0:0:0:0:
161,94,221818,1,2,0:0:0:0:
156,118,221976,1,0,0:0:0:0:
156,118,222055,1,0,0:0:0:0:
156,118,222134,1,0,0:0:0:0:
247,102,222213,1,0,0:0:0:0:
177,177,222292,1,8,0:0:0:0:
165,197,222450,1,0,0:0:0:0:
177,177,222608,1,8,0:0:0:0:
166,158,222766,1,8,0:0:0:0:
154,114,222845,1,8,0:0:0:0:
166,158,222924,1,0,0:0:0:0:
166,158,223082,1,8,0:0:0:0:
156,159,223240,1,0,0:0:0:0:
159,158,223318,1,0,0:0:0:0:
171,155,223397,1,8,0:0:0:0:
171,163,223555,1,0,0:0:0:0:
171,160,223713,1,8,0:0:0:0:
154,114,223792,1,0,0:0:0:0:
196,109,223871,1,0,0:0:0:0:
171,93,223950,1,0,0:0:0:0:
171,163,224029,1,8,0:0:0:0:
171,168,224187,1,0,0:0:0:0:
161,142,224345,1,8,0:0:0:0:
159,48,224424,1,8,0:0:0:0:
156,158,224503,1,0,0:0:0:0:
160,55,224582,1,0,0:0:0:0:
160,57,224661,1,8,0:0:0:0:
165,105,224740,1,0,0:0:0:0:
151,142,224818,1,8,0:0:0:0:
162,115,224976,1,0,0:0:0:0:
169,55,225134,1,8,0:0:0:0:
169,55,225292,1,8,0:0:0:0:
187,129,225371,1,8,0:0:0:0:
163,103,225450,1,0,0:0:0:0:
163,103,225608,1,8,0:0:0:0:
171,107,225766,1,0,0:0:0:0:
142,110,225845,1,0,0:0:0:0:
164,178,225924,1,8,0:0:0:0:
164,178,226082,1,0,0:0:0:0:
164,178,226240,1,8,0:0:0:0:
155,158,226318,1,0,0:0:0:0:
154,70,226397,1,0,0:0:0:0:
162,156,226476,1,0,0:0:0:0:
164,178,226555,1,8,0:0:0:0:
164,178,226713,1,0,0:0:0:0:
190,112,226792,1,0,0:0:0:0:
164,178,226871,1,8,0:0:0:0:
164,178,226950,1,8,0:0:0:0:
164,178,227029,1,0,0:0:0:0:
151,79,227187,1,0,0:0:0:0:
139,95,227266,1,0,0:0:0:0:
164,178,227345,1,8,0:0:0:0:
146,94,227503,1,8,0:0:0:0:
205,120,227582,1,8,0:0:0:0:
146,120,227661,1,0,0:0:0:0:
146,122,227818,1,8,0:0:0:0:
146,122,227976,1,0,0:0:0:0:
146,128,228055,1,0,0:0:0:0:
146,129,228134,1,8,0:0:0:0:
147,133,228292,1,0,0:0:0:0:
151,32,228450,1,8,0:0:0:0:
145,158,228529,1,8,0:0:0:0:
145,158,228608,1,0,0:0:0:0:
246,183,228687,1,8,0:0:0:0:
247,188,228766,1,0,0:0:0:0:
164,150,228845,1,0,0:0:0:0:
239,243,228924,1,8,0:0:0:0:
239,243,229082,1,0,0:0:0:0:
205,120,229161,1,8,0:0:0:0:
144,170,229240,1,0,0:0:0:0:
143,175,229397,1,8,0:0:0:0:
143,175,229555,1,0,0:0:0:0:
143,175,229634,1,0,0:0:0:0:
143,175,229713,1,8,0:0:0:0:
143,175,229871,1,8,0:0:0:0:
143,175,229950,1,0,0:0:0:0:
143,175,230029,1,8,0:0:0:0:
143,175,230108,1,8,0:0:0:0:
142,181,230187,1,0,0:0:0:0:
142,183,230266,1,0,0:0:0:0:
142,184,230345,1,8,0:0:0:0:
142,181,230424,1,0,0:0:0:0:
141,188,230503,1,8,0:0:0:0:
142,184,230582,1,8,0:0:0:0:
141,188,230661,1,0,0:0:0:0:
141,188,230740,1,8,0:0:0:0:
142,184,230818,1,0,0:0:0:0:
141,188,230897,1,0,0:0:0:0:
141,188,230976,1,8,0:0:0:0:
159,184,231055,1,8,0:0:0:0:
141,194,231134,1,0,0:0:0:0:
141,194,231292,1,0,0:0:0:0:
141,194,231450,1,8,0:0:0:0:
141,194,231608,1,0,0:0:0:0:
141,194,231766,1,0,0:0:0:0:
141,194,231845,1,0,0:0:0:0:
141,203,231924,1,0,0:0:0:0:
142,209,232003,1,0,0:0:0:0:
142,210,232082,1,8,0:0:0:0:
142,209,232240,1,0,0:0:0:0:
142,209,232397,1,0,0:0:0:0:
142,210,232713,1,8,0:0:0:0:
175,71,232871,1,0,0:0:0:0:
143,177,233187,1,8,0:0:0:0:
142,210,233503,1,8,0:0:0:0:
142,204,233818,1,0,0:0:0:0:
142,198,234134,1,0,0:0:0:0:
142,198,234292,1,8,0:0:0:0:
142,198,234608,1,8,0:0:0:0:
142,198,234766,1,8,0:0:0:0:
142,198,234924,1,0,0:0:0:0:
164,189,235082,1,0,0:0:0:0:
142,198,235240,1,8,0:0:0:0:
142,198,235397,1,0,0:0:0:0:
142,198,235713,1,8,0:0:0:0:
142,198,236029,1,8,0:0:0:0:
175,99,236345,1,0,0:0:0:0:
175,99,236661,1,0,0:0:0:0:
175,99,236818,1,8,0:0:0:0:
175,99,237134,1,8,0:0:0:0:
175,99,237292,1,0,0:0:0:0:
142,209,237450,1,0,0:0:0:0:
142,210,237766,1,8,0:0:0:0:
175,71,237924,1,0,0:0:0:0:
143,177,238240,1,8,0:0:0:0:
142,210,238555,1,8,0:0:0:0:
142,204,238871,1,0,0:0:0:0:
142,198,239187,1,0,0:0:0:0:
142,198,239345,1,8,0:0:0:0:
142,198,239661,1,8,0:0:0:0:
142,198,239818,1,8,0:0:0:0:
142,198,239976,1,0,0:0:0:0:
164,189,240134,1,0,0:0:0:0:
142,198,240292,1,8,0:0:0:0:
142,198,240450,1,0,0:0:0:0:
142,198,240766,1,8,0:0:0:0:
142,198,241082,1,8,0:0:0:0:
181,147,241240,1,0,0:0:0:0:
152,117,241397,1,8,0:0:0:0:
175,99,241713,1,0,0:0:0:0:
175,99,241871,1,8,0:0:0:0:
158,163,242029,1,0,0:0:0:0:
175,99,242187,1,8,0:0:0:0:
160,121,242345,1,0,0:0:0:0:
156,127,242503,1,4,0:0:0:0:
142,210,242818,1,8,0:0:0:0:
175,71,242976,1,0,0:0:0:0:
143,177,243292,1,8,0:0:0:0:
142,210,243608,1,8,0:0:0:0:
142,204,243924,1,0,0:0:0:0:
142,198,244240,1,0,0:0:0:0:
142,198,244397,1,8,0:0:0:0:
248,133,244713,1,8,0:0:0:0:
131,121,244871,1,8,0:0:0:0:
142,198,245029,1,0,0:0:0:0:
142,198,245345,1,8,0:0:0:0:
142,198,245503,1,0,0:0:0:0:
142,198,245818,1,8,0:0:0:0:
142,198,246134,1,8,0:0:0:0:
175,99,246450,1,0,0:0:0:0:
175,99,246766,1,0,0:0:0:0:
175,99,246924,1,8,0:0:0:0:
175,99,247240,1,8,0:0:0:0:
163,80,247397,1,0,0:0:0:0:
117,205,247555,1,4,0:0:0:0:
142,210,247871,1,8,0:0:0:0:
175,71,248029,1,0,0:0:0:0:
205,124,248345,1,8,0:0:0:0:
142,210,248661,1,8,0:0:0:0:
142,204,248976,1,0,0:0:0:0:
142,198,249292,1,0,0:0:0:0:
142,198,249450,1,8,0:0:0:0:
142,198,249766,1,8,0:0:0:0:
131,121,249924,1,8,0:0:0:0:
142,198,250082,1,0,0:0:0:0:
142,198,250397,1,8,0:0:0:0:
142,198,250555,1,0,0:0:0:0:
142,198,250871,1,8,0:0:0:0:
142,198,251187,1,8,0:0:0:0:
166,143,251345,1,0,0:0:0:0:
144,92,251503,1,8,0:0:0:0:
175,99,251818,1,0,0:0:0:0:
175,99,251976,1,8,0:0:0:0:
145,106,252134,1,0,0:0:0:0:
175,99,252292,1,8,0:0:0:0:
175,99,252450,1,0,0:0:0:0:
