osu file format v14

[General]
AudioFilename: audio.mp3
AudioLeadIn: 0
PreviewTime: 153410
Countdown: 0
SampleSet: Normal
StackLeniency: 0.7
Mode: 1
LetterboxInBreaks: 0
WidescreenStoryboard: 0

[Editor]
Bookmarks: 1494,17493,38827,62827,86827,97493,108160,129493,153493,177493,188160,204160,228160,238827
DistanceSpacing: 0.8
BeatDivisor: 4
GridSize: 4
TimelineZoom: 2.8

[Metadata]
Title:PINK,ALL,PINK!
TitleUnicode:PINK,ALL,PINK!
Artist:Natori Sana
ArtistUnicode:名取さな
Creator:komasy
Version:Oni
Source:
Tags:日本語 Japanese POP VTuber Virtual YouTuber バーチャルYouTuber 桃井はるこ Momoi Haruko Haraddy ハンゾー Hanzo オリジナルソング Original Song バーチャルサナトリウム
BeatmapID:2630179
BeatmapSetID:1265594

[Difficulty]
HPDrainRate:5.5
CircleSize:5
OverallDifficulty:5.5
ApproachRate:10
SliderMultiplier:1.4
SliderTickRate:1

[Events]
//Background and Video events
0,0,"bg.jpg",0,40
//Break Periods
2,177693,182377
2,183027,186210
2,204360,212877
//Storyboard Layer 0 (Background)
//Storyboard Layer 1 (Fail)
//Storyboard Layer 2 (Pass)
//Storyboard Layer 3 (Foreground)
//Storyboard Layer 4 (Overlay)
//Storyboard Sound Samples

[TimingPoints]
1494,333.333333333333,4,1,0,50,1,0
1494,-125,4,1,0,50,0,0
6743,-100,4,1,0,100,0,0
38743,-111.111111111111,4,1,0,100,0,0
54285,-109.89010989011,4,1,0,100,0,0
54451,-106.382978723404,4,1,0,100,0,0
54618,-103.092783505155,4,1,0,100,0,0
54785,-100,4,1,0,100,0,0
62827,-100,4,1,0,100,0,1
85577,-90.9090909090909,4,1,0,100,0,1
86410,-95.2380952380952,4,1,0,100,0,1
86743,-100,4,1,0,100,0,1
86827,-100,4,1,0,100,0,0
129410,-111.111111111111,4,1,0,100,0,0
144952,-109.89010989011,4,1,0,100,0,0
145118,-106.382978723404,4,1,0,100,0,0
145285,-103.092783505155,4,1,0,100,0,0
145452,-100,4,1,0,100,0,0
153493,-100,4,1,0,100,0,1
176243,-90.9090909090909,4,1,0,100,0,1
177076,-95.2380952380952,4,1,0,100,0,1
177409,-100,4,1,0,100,0,1
177493,-100,4,1,0,100,0,0
177577,-102.040816326531,4,1,0,50,0,0
180077,-104.166666666667,4,1,0,50,0,0
181410,-106.382978723404,4,1,0,50,0,0
182743,-108.695652173913,4,1,0,100,0,0
182910,-111.111111111111,4,1,0,50,0,0
184077,-113.636363636364,4,1,0,50,0,0
185410,-116.279069767442,4,1,0,50,0,0
186577,-119.047619047619,4,1,0,100,0,0
186952,-117.554858934169,4,1,0,100,0,0
187035,-116.09907120743,4,1,0,100,0,0
187118,-114.678899082569,4,1,0,100,0,0
187201,-113.293051359517,4,1,0,100,0,0
187285,-111.940298507463,4,1,0,100,0,0
187368,-110.619469026549,4,1,0,100,0,0
187451,-109.32944606414,4,1,0,100,0,0
187535,-108.06916426513,4,1,0,100,0,0
187618,-106.837606837607,4,1,0,100,0,0
187701,-105.633802816901,4,1,0,100,0,0
187785,-104.456824512535,4,1,0,100,0,0
187868,-103.305785123967,4,1,0,100,0,0
187951,-102.179836512262,4,1,0,100,0,0
188035,-101.078167115903,4,1,0,100,0,0
188118,-100,4,1,0,100,0,0
204243,-102.040816326531,4,1,0,50,0,0
206743,-104.166666666667,4,1,0,50,0,0
208077,-106.382978723404,4,1,0,50,0,0
209410,-108.695652173913,4,1,0,50,0,0
210743,-111.111111111111,4,1,0,50,0,0
212077,-113.636363636364,4,1,0,50,0,0
213243,-116.279069767442,4,1,0,100,0,0
213618,-113.636363636364,4,1,0,100,0,0
213701,-111.111111111111,4,1,0,100,0,0
213784,-108.695652173913,4,1,0,100,0,0
213951,-105.263157894737,4,1,0,100,0,0
214117,-102.040816326531,4,1,0,100,0,0
214284,-99.009900990099,4,1,0,100,0,0
214451,-96.1538461538461,4,1,0,100,0,0
214785,-90.9090909090909,4,1,0,100,0,0
214827,-90.9090909090909,4,1,0,100,0,1
226910,-86.9565217391304,4,1,0,100,0,1
227743,-93.0232558139535,4,1,0,100,0,1
228076,-100,4,1,0,100,0,1
228160,-100,4,1,0,100,0,0
252410,-80,4,1,0,100,0,0

[HitObjects]
160,96,1494,5,0,0:0:0:0:
352,96,1827,1,8,0:0:0:0:
352,96,2493,1,8,0:0:0:0:
160,96,2827,1,0,0:0:0:0:
160,96,2993,1,0,0:0:0:0:
352,96,3160,1,8,0:0:0:0:
352,96,3827,1,8,0:0:0:0:
160,96,4160,1,0,0:0:0:0:
352,96,4493,1,8,0:0:0:0:
160,96,4660,1,0,0:0:0:0:
352,96,5160,1,8,0:0:0:0:
160,96,5493,1,0,0:0:0:0:
160,96,5660,1,0,0:0:0:0:
352,96,5827,1,8,0:0:0:0:
281,151,6160,2,0,L|324:146,4,28
160,288,6827,1,4,0:0:0:0:
352,96,7160,1,8,0:0:0:0:
160,96,7327,1,0,0:0:0:0:
160,96,7410,1,0,0:0:0:0:
160,96,7493,1,0,0:0:0:0:
352,96,7827,1,8,0:0:0:0:
160,96,8160,1,0,0:0:0:0:
352,96,8493,1,8,0:0:0:0:
160,96,8660,1,0,0:0:0:0:
160,96,8743,1,0,0:0:0:0:
160,96,8827,1,0,0:0:0:0:
160,96,8993,1,0,0:0:0:0:
352,96,9160,1,8,0:0:0:0:
160,96,9493,1,0,0:0:0:0:
352,96,9827,1,8,0:0:0:0:
160,96,9993,1,0,0:0:0:0:
160,96,10077,1,0,0:0:0:0:
160,96,10160,1,0,0:0:0:0:
352,96,10493,1,8,0:0:0:0:
160,96,10827,1,0,0:0:0:0:
352,96,11160,1,8,0:0:0:0:
160,96,11327,1,0,0:0:0:0:
160,96,11410,1,0,0:0:0:0:
160,96,11493,1,0,0:0:0:0:
160,96,11660,1,0,0:0:0:0:
352,96,11827,1,8,0:0:0:0:
352,96,11993,1,8,0:0:0:0:
160,288,12160,1,4,0:0:0:0:
352,96,12493,1,8,0:0:0:0:
160,96,12660,1,0,0:0:0:0:
160,96,12743,1,0,0:0:0:0:
160,96,12827,1,0,0:0:0:0:
352,96,13160,1,8,0:0:0:0:
160,96,13493,1,0,0:0:0:0:
352,96,13827,1,8,0:0:0:0:
160,96,13993,1,0,0:0:0:0:
352,96,14160,1,8,0:0:0:0:
352,96,14327,1,8,0:0:0:0:
352,96,14410,1,8,0:0:0:0:
352,96,14493,1,8,0:0:0:0:
160,288,14660,1,4,0:0:0:0:
352,96,14993,1,8,0:0:0:0:
352,96,15160,1,8,0:0:0:0:
160,96,15327,1,0,0:0:0:0:
352,96,15493,1,8,0:0:0:0:
352,96,15660,1,8,0:0:0:0:
160,96,15827,1,0,0:0:0:0:
352,288,15993,1,12,0:0:0:0:
352,96,16327,1,8,0:0:0:0:
160,96,16493,1,0,0:0:0:0:
352,96,16827,1,8,0:0:0:0:
352,96,16910,1,8,0:0:0:0:
352,96,16993,1,0,0:0:0:0:
352,96,17160,1,8,0:0:0:0:
352,96,17243,1,8,0:0:0:0:
352,96,17327,1,8,0:0:0:0:
352,96,17410,1,8,0:0:0:0:
160,96,17493,1,0,0:0:0:0:
352,96,17827,1,8,0:0:0:0:
160,96,18160,1,0,0:0:0:0:
160,96,18327,1,0,0:0:0:0:
352,96,18493,1,8,0:0:0:0:
160,96,18827,1,0,0:0:0:0:
352,96,19160,1,8,0:0:0:0:
160,96,19327,1,0,0:0:0:0:
160,96,19660,1,0,0:0:0:0:
352,96,19827,1,8,0:0:0:0:
160,96,20160,1,0,0:0:0:0:
352,96,20493,1,8,0:0:0:0:
160,96,20827,1,0,0:0:0:0:
160,96,20993,1,0,0:0:0:0:
352,96,21160,1,8,0:0:0:0:
160,96,21493,1,0,0:0:0:0:
352,96,21827,1,8,0:0:0:0:
160,96,21993,1,0,0:0:0:0:
160,96,22327,1,0,0:0:0:0:
352,288,22493,1,12,0:0:0:0:
160,288,22827,1,4,0:0:0:0:
352,96,23160,1,8,0:0:0:0:
160,96,23493,1,0,0:0:0:0:
160,96,23660,1,0,0:0:0:0:
352,96,23827,1,8,0:0:0:0:
160,96,24160,1,0,0:0:0:0:
352,96,24493,1,8,0:0:0:0:
160,96,24660,1,0,0:0:0:0:
160,96,24993,1,0,0:0:0:0:
352,96,25160,1,8,0:0:0:0:
160,96,25493,1,0,0:0:0:0:
352,96,25827,1,8,0:0:0:0:
160,96,26160,1,0,0:0:0:0:
160,96,26327,1,0,0:0:0:0:
352,96,26493,1,8,0:0:0:0:
352,96,26660,1,8,0:0:0:0:
160,96,26827,1,0,0:0:0:0:
352,96,27160,1,8,0:0:0:0:
160,96,27327,1,0,0:0:0:0:
352,96,27660,1,8,0:0:0:0:
352,96,27743,1,8,0:0:0:0:
352,96,27827,1,8,0:0:0:0:
352,96,27993,1,8,0:0:0:0:
352,96,28077,1,8,0:0:0:0:
160,96,28160,1,0,0:0:0:0:
352,96,28493,1,8,0:0:0:0:
160,96,28827,1,0,0:0:0:0:
160,96,28993,1,0,0:0:0:0:
352,96,29160,1,8,0:0:0:0:
160,96,29493,1,0,0:0:0:0:
160,96,29660,1,0,0:0:0:0:
352,96,29827,1,8,0:0:0:0:
160,96,29993,1,0,0:0:0:0:
160,96,30327,1,0,0:0:0:0:
352,96,30493,1,8,0:0:0:0:
352,96,30660,1,8,0:0:0:0:
352,96,30743,1,8,0:0:0:0:
160,96,30827,1,0,0:0:0:0:
352,96,31160,1,8,0:0:0:0:
352,96,31327,1,8,0:0:0:0:
160,96,31493,1,0,0:0:0:0:
160,96,31660,1,0,0:0:0:0:
352,96,31827,1,8,0:0:0:0:
160,96,32160,1,0,0:0:0:0:
160,96,32327,1,0,0:0:0:0:
352,96,32493,1,8,0:0:0:0:
160,96,32660,1,0,0:0:0:0:
160,96,32993,1,0,0:0:0:0:
352,288,33160,1,12,0:0:0:0:
352,288,33327,1,12,0:0:0:0:
160,288,33493,1,4,0:0:0:0:
352,96,33827,1,8,0:0:0:0:
352,96,33993,1,8,0:0:0:0:
160,96,34160,1,0,0:0:0:0:
160,96,34327,1,0,0:0:0:0:
352,96,34493,1,8,0:0:0:0:
160,96,34827,1,0,0:0:0:0:
160,96,34993,1,0,0:0:0:0:
352,96,35160,1,8,0:0:0:0:
160,96,35327,1,0,0:0:0:0:
160,96,35660,1,0,0:0:0:0:
352,96,35827,1,8,0:0:0:0:
352,96,35993,1,8,0:0:0:0:
352,96,36077,1,8,0:0:0:0:
160,96,36160,1,0,0:0:0:0:
160,96,36327,1,0,0:0:0:0:
352,96,36493,1,8,0:0:0:0:
352,96,36660,1,8,0:0:0:0:
160,96,36827,1,0,0:0:0:0:
160,96,36993,1,0,0:0:0:0:
352,96,37160,1,8,0:0:0:0:
160,96,37327,1,0,0:0:0:0:
352,288,37660,1,12,0:0:0:0:
352,288,37827,1,12,0:0:0:0:
352,288,37993,1,12,0:0:0:0:
352,288,38160,1,12,0:0:0:0:
160,288,38827,1,4,0:0:0:0:
160,96,39327,1,0,0:0:0:0:
160,96,39493,1,0,0:0:0:0:
352,96,39827,1,8,0:0:0:0:
160,96,39993,1,0,0:0:0:0:
160,96,40327,1,0,0:0:0:0:
352,96,40660,1,8,0:0:0:0:
352,96,40743,1,8,0:0:0:0:
352,96,40827,1,8,0:0:0:0:
160,96,40993,1,0,0:0:0:0:
160,96,41160,1,0,0:0:0:0:
160,96,41493,1,0,0:0:0:0:
160,96,41993,1,0,0:0:0:0:
160,96,42160,1,0,0:0:0:0:
352,96,42493,1,8,0:0:0:0:
160,96,42660,1,0,0:0:0:0:
160,96,42993,1,0,0:0:0:0:
352,96,43327,1,8,0:0:0:0:
160,96,43410,1,0,0:0:0:0:
352,96,43493,1,8,0:0:0:0:
160,96,43660,1,0,0:0:0:0:
352,96,43827,1,8,0:0:0:0:
160,96,43993,1,0,0:0:0:0:
160,96,44160,1,0,0:0:0:0:
352,96,44493,1,8,0:0:0:0:
160,96,44660,1,0,0:0:0:0:
160,96,44827,1,0,0:0:0:0:
352,96,45160,1,8,0:0:0:0:
160,96,45327,1,0,0:0:0:0:
160,96,45660,1,0,0:0:0:0:
352,96,45993,1,8,0:0:0:0:
160,96,46327,1,0,0:0:0:0:
160,96,46493,1,0,0:0:0:0:
160,96,46827,1,0,0:0:0:0:
352,96,47160,1,8,0:0:0:0:
160,96,47327,1,0,0:0:0:0:
160,96,47660,1,0,0:0:0:0:
160,96,47743,1,0,0:0:0:0:
352,96,47827,1,8,0:0:0:0:
352,96,47993,1,8,0:0:0:0:
160,96,48160,1,0,0:0:0:0:
352,96,48493,1,8,0:0:0:0:
160,96,48660,1,0,0:0:0:0:
352,96,48827,1,8,0:0:0:0:
160,96,48993,1,0,0:0:0:0:
352,96,49160,1,8,0:0:0:0:
352,96,49243,1,8,0:0:0:0:
352,96,49327,1,8,0:0:0:0:
160,288,49493,1,4,0:0:0:0:
160,96,49993,1,0,0:0:0:0:
160,96,50160,1,0,0:0:0:0:
352,96,50493,1,8,0:0:0:0:
160,96,50660,1,0,0:0:0:0:
160,96,50993,1,0,0:0:0:0:
352,96,51327,1,8,0:0:0:0:
160,96,51660,1,0,0:0:0:0:
160,96,51827,1,0,0:0:0:0:
160,288,52160,1,4,0:0:0:0:
352,96,52410,1,8,0:0:0:0:
352,96,52660,1,8,0:0:0:0:
160,288,52827,1,4,0:0:0:0:
160,96,53077,1,0,0:0:0:0:
352,96,53160,1,8,0:0:0:0:
352,96,53327,1,8,0:0:0:0:
160,288,53493,1,4,0:0:0:0:
160,96,53660,1,0,0:0:0:0:
352,96,53993,1,8,0:0:0:0:
160,96,54327,1,0,0:0:0:0:
352,96,54493,1,8,0:0:0:0:
352,96,54660,1,8,0:0:0:0:
160,288,54827,1,4,0:0:0:0:
352,96,55160,1,8,0:0:0:0:
160,96,55493,1,0,0:0:0:0:
160,96,55660,1,0,0:0:0:0:
352,96,55827,1,8,0:0:0:0:
160,96,56160,1,0,0:0:0:0:
352,96,56493,1,8,0:0:0:0:
352,96,56660,1,8,0:0:0:0:
160,96,56827,1,0,0:0:0:0:
160,96,56993,1,0,0:0:0:0:
352,96,57160,1,8,0:0:0:0:
160,288,57493,1,0,0:0:0:0:
352,96,57827,1,8,0:0:0:0:
160,96,57993,1,0,0:0:0:0:
352,96,58160,1,8,0:0:0:0:
352,96,58243,1,8,0:0:0:0:
160,96,58327,1,0,0:0:0:0:
352,96,58493,1,8,0:0:0:0:
160,96,58660,1,0,0:0:0:0:
160,96,58993,1,0,0:0:0:0:
352,96,59160,1,8,0:0:0:0:
352,96,59493,1,8,0:0:0:0:
160,96,59660,1,0,0:0:0:0:
352,96,59827,1,8,0:0:0:0:
352,96,59910,1,8,0:0:0:0:
352,96,59993,1,8,0:0:0:0:
352,96,60077,1,8,0:0:0:0:
160,96,60160,1,0,0:0:0:0:
352,288,60327,1,12,0:0:0:0:
160,96,60660,1,0,0:0:0:0:
352,288,60827,1,12,0:0:0:0:
160,96,61160,1,0,0:0:0:0:
352,288,61327,1,12,0:0:0:0:
160,288,61493,1,4,0:0:0:0:
352,96,61827,1,8,0:0:0:0:
160,96,61993,1,0,0:0:0:0:
160,96,62077,1,0,0:0:0:0:
352,96,62160,1,8,0:0:0:0:
160,96,62327,1,0,0:0:0:0:
352,96,62493,1,8,0:0:0:0:
352,96,62577,1,8,0:0:0:0:
352,96,62660,1,8,0:0:0:0:
352,96,62743,1,8,0:0:0:0:
160,288,62827,1,4,0:0:0:0:
352,96,63160,1,8,0:0:0:0:
160,96,63493,1,0,0:0:0:0:
160,96,63660,1,0,0:0:0:0:
352,96,63827,1,8,0:0:0:0:
352,96,64077,1,8,0:0:0:0:
160,96,64160,1,0,0:0:0:0:
160,96,64327,1,0,0:0:0:0:
352,96,64493,1,8,0:0:0:0:
160,96,64660,1,0,0:0:0:0:
160,96,64743,1,0,0:0:0:0:
352,96,64827,1,8,0:0:0:0:
160,96,64993,1,0,0:0:0:0:
352,96,65160,1,8,0:0:0:0:
160,288,65327,1,4,0:0:0:0:
160,96,65660,1,0,0:0:0:0:
352,96,65827,1,8,0:0:0:0:
160,96,65993,1,0,0:0:0:0:
352,96,66160,1,8,0:0:0:0:
352,96,66243,1,8,0:0:0:0:
160,96,66327,1,0,0:0:0:0:
352,96,66493,1,8,0:0:0:0:
160,288,66660,1,4,0:0:0:0:
160,96,66993,1,0,0:0:0:0:
352,96,67160,1,8,0:0:0:0:
160,96,67327,1,0,0:0:0:0:
160,96,67410,1,0,0:0:0:0:
352,96,67493,1,8,0:0:0:0:
160,96,67660,1,0,0:0:0:0:
352,96,67827,1,8,0:0:0:0:
352,96,67993,1,8,0:0:0:0:
160,288,68160,1,4,0:0:0:0:
352,96,68493,1,8,0:0:0:0:
160,96,68827,1,0,0:0:0:0:
160,96,68993,1,0,0:0:0:0:
352,96,69160,1,8,0:0:0:0:
352,96,69410,1,8,0:0:0:0:
160,96,69493,1,0,0:0:0:0:
160,96,69660,1,0,0:0:0:0:
352,96,69827,1,8,0:0:0:0:
160,96,69993,1,0,0:0:0:0:
160,96,70077,1,0,0:0:0:0:
352,96,70160,1,8,0:0:0:0:
160,96,70327,1,0,0:0:0:0:
352,96,70493,1,8,0:0:0:0:
160,288,70660,1,4,0:0:0:0:
160,96,70993,1,0,0:0:0:0:
352,96,71160,1,8,0:0:0:0:
160,96,71327,1,0,0:0:0:0:
352,96,71493,1,8,0:0:0:0:
160,96,71577,1,0,0:0:0:0:
160,96,71660,1,0,0:0:0:0:
352,96,71827,1,8,0:0:0:0:
160,288,71993,1,4,0:0:0:0:
160,96,72327,1,0,0:0:0:0:
352,96,72493,1,8,0:0:0:0:
160,96,72660,1,0,0:0:0:0:
352,288,72827,1,12,0:0:0:0:
352,288,73160,1,12,0:0:0:0:
160,288,73493,1,4,0:0:0:0:
352,96,73827,1,8,0:0:0:0:
160,96,74160,1,0,0:0:0:0:
160,96,74327,1,0,0:0:0:0:
352,96,74493,1,8,0:0:0:0:
352,96,74743,1,8,0:0:0:0:
160,96,74827,1,0,0:0:0:0:
160,96,74993,1,0,0:0:0:0:
352,96,75160,1,8,0:0:0:0:
160,96,75327,1,0,0:0:0:0:
160,96,75410,1,0,0:0:0:0:
352,96,75493,1,8,0:0:0:0:
160,96,75660,1,0,0:0:0:0:
352,96,75827,1,8,0:0:0:0:
160,288,75993,1,4,0:0:0:0:
160,96,76327,1,0,0:0:0:0:
352,96,76493,1,8,0:0:0:0:
160,96,76660,1,0,0:0:0:0:
352,96,76827,1,8,0:0:0:0:
352,96,76910,1,8,0:0:0:0:
160,96,76993,1,0,0:0:0:0:
352,96,77160,1,8,0:0:0:0:
160,288,77327,1,4,0:0:0:0:
160,96,77660,1,0,0:0:0:0:
352,96,77827,1,8,0:0:0:0:
160,96,77993,1,0,0:0:0:0:
160,96,78077,1,0,0:0:0:0:
352,96,78160,1,8,0:0:0:0:
160,96,78327,1,0,0:0:0:0:
352,96,78493,1,8,0:0:0:0:
352,96,78660,1,8,0:0:0:0:
160,288,78827,1,4,0:0:0:0:
352,96,79160,1,8,0:0:0:0:
160,96,79493,1,0,0:0:0:0:
160,96,79660,1,0,0:0:0:0:
352,96,79827,1,8,0:0:0:0:
352,96,80077,1,8,0:0:0:0:
160,96,80160,1,0,0:0:0:0:
160,96,80327,1,0,0:0:0:0:
352,96,80493,1,8,0:0:0:0:
160,96,80660,1,0,0:0:0:0:
160,96,80743,1,0,0:0:0:0:
352,96,80827,1,8,0:0:0:0:
160,96,80993,1,0,0:0:0:0:
352,96,81160,1,8,0:0:0:0:
160,288,81327,1,4,0:0:0:0:
160,96,81660,1,0,0:0:0:0:
352,96,81827,1,8,0:0:0:0:
160,96,81993,1,0,0:0:0:0:
352,96,82160,1,8,0:0:0:0:
160,96,82327,1,0,0:0:0:0:
352,96,82493,1,8,0:0:0:0:
160,288,82660,1,4,0:0:0:0:
160,96,82993,1,0,0:0:0:0:
352,96,83160,1,8,0:0:0:0:
160,96,83327,1,0,0:0:0:0:
160,96,83410,1,0,0:0:0:0:
352,96,83493,1,8,0:0:0:0:
160,96,83660,1,0,0:0:0:0:
352,96,83827,1,8,0:0:0:0:
160,288,83993,1,4,0:0:0:0:
160,96,84327,1,0,0:0:0:0:
352,96,84493,1,8,0:0:0:0:
160,96,84660,1,0,0:0:0:0:
352,96,84827,1,8,0:0:0:0:
352,96,84910,1,8,0:0:0:0:
160,96,84993,1,0,0:0:0:0:
352,96,85160,1,8,0:0:0:0:
160,96,85327,1,0,0:0:0:0:
352,288,85660,1,12,0:0:0:0:
352,288,85827,1,12,0:0:0:0:
352,288,86160,1,12,0:0:0:0:
160,96,86493,1,0,0:0:0:0:
160,288,86827,1,4,0:0:0:0:
352,96,87160,1,8,0:0:0:0:
160,96,87493,1,0,0:0:0:0:
160,96,87660,1,0,0:0:0:0:
352,96,87827,1,8,0:0:0:0:
160,96,88160,1,0,0:0:0:0:
352,96,88493,1,8,0:0:0:0:
160,96,88660,1,0,0:0:0:0:
160,96,88993,1,0,0:0:0:0:
352,96,89160,1,8,0:0:0:0:
160,288,89493,1,4,0:0:0:0:
352,96,89827,1,8,0:0:0:0:
160,96,90160,1,0,0:0:0:0:
160,96,90327,1,0,0:0:0:0:
352,96,90493,1,8,0:0:0:0:
352,96,90743,1,8,0:0:0:0:
160,96,90827,1,0,0:0:0:0:
160,96,90993,1,0,0:0:0:0:
352,96,91160,1,8,0:0:0:0:
160,96,91327,1,0,0:0:0:0:
160,96,91660,1,0,0:0:0:0:
352,96,91827,1,8,0:0:0:0:
160,288,92160,1,4,0:0:0:0:
352,96,92493,1,8,0:0:0:0:
160,96,92827,1,0,0:0:0:0:
160,96,92993,1,0,0:0:0:0:
352,96,93160,1,8,0:0:0:0:
160,96,93493,1,0,0:0:0:0:
352,96,93827,1,8,0:0:0:0:
160,96,93993,1,0,0:0:0:0:
160,96,94327,1,0,0:0:0:0:
352,96,94493,1,8,0:0:0:0:
160,288,94827,1,4,0:0:0:0:
352,96,95160,1,8,0:0:0:0:
352,96,95410,1,8,0:0:0:0:
160,96,95493,1,0,0:0:0:0:
160,96,95660,1,0,0:0:0:0:
352,96,95827,1,8,0:0:0:0:
160,96,96160,1,0,0:0:0:0:
352,96,96493,1,8,0:0:0:0:
160,96,96743,1,0,0:0:0:0:
160,96,96827,1,0,0:0:0:0:
352,96,96993,1,8,0:0:0:0:
352,96,97077,1,8,0:0:0:0:
352,96,97160,1,8,0:0:0:0:
352,96,97327,1,8,0:0:0:0:
160,288,97493,1,4,0:0:0:0:
352,96,97827,1,8,0:0:0:0:
160,96,97993,1,0,0:0:0:0:
160,96,98077,1,0,0:0:0:0:
160,96,98160,1,0,0:0:0:0:
352,96,98493,1,8,0:0:0:0:
160,96,98827,1,0,0:0:0:0:
352,96,99160,1,8,0:0:0:0:
160,96,99327,1,0,0:0:0:0:
160,96,99410,1,0,0:0:0:0:
160,96,99493,1,0,0:0:0:0:
160,96,99660,1,0,0:0:0:0:
352,96,99827,1,8,0:0:0:0:
160,96,100160,1,0,0:0:0:0:
352,96,100493,1,8,0:0:0:0:
160,96,100660,1,0,0:0:0:0:
160,96,100743,1,0,0:0:0:0:
160,96,100827,1,0,0:0:0:0:
352,96,101160,1,8,0:0:0:0:
160,96,101493,1,0,0:0:0:0:
352,96,101827,1,8,0:0:0:0:
160,96,101993,1,0,0:0:0:0:
160,96,102077,1,0,0:0:0:0:
160,96,102160,1,0,0:0:0:0:
160,96,102327,1,0,0:0:0:0:
352,96,102493,1,8,0:0:0:0:
352,96,102660,1,8,0:0:0:0:
160,288,102827,1,4,0:0:0:0:
352,96,103160,1,8,0:0:0:0:
160,96,103327,1,0,0:0:0:0:
160,96,103410,1,0,0:0:0:0:
160,96,103493,1,0,0:0:0:0:
352,96,103827,1,8,0:0:0:0:
160,96,104160,1,0,0:0:0:0:
352,96,104493,1,8,0:0:0:0:
160,96,104660,1,0,0:0:0:0:
352,96,104827,1,8,0:0:0:0:
352,96,104993,1,8,0:0:0:0:
352,96,105077,1,8,0:0:0:0:
352,96,105160,1,8,0:0:0:0:
160,288,105327,1,4,0:0:0:0:
352,96,105660,1,8,0:0:0:0:
352,96,105827,1,8,0:0:0:0:
160,96,105993,1,0,0:0:0:0:
352,96,106160,1,8,0:0:0:0:
352,96,106327,1,8,0:0:0:0:
160,96,106493,1,0,0:0:0:0:
352,288,106660,1,12,0:0:0:0:
352,96,106993,1,8,0:0:0:0:
160,96,107160,1,0,0:0:0:0:
352,96,107493,1,8,0:0:0:0:
352,96,107577,1,8,0:0:0:0:
352,96,107660,1,0,0:0:0:0:
352,96,107827,1,8,0:0:0:0:
352,96,107910,1,8,0:0:0:0:
352,96,107993,1,8,0:0:0:0:
352,96,108077,5,8,0:0:0:0:
160,96,108160,1,0,0:0:0:0:
160,96,108493,1,0,0:0:0:0:
160,96,108827,1,0,0:0:0:0:
160,96,109160,1,0,0:0:0:0:
160,96,109493,1,0,0:0:0:0:
160,96,109827,1,0,0:0:0:0:
160,96,110160,1,0,0:0:0:0:
160,96,110493,1,0,0:0:0:0:
160,96,110827,1,0,0:0:0:0:
160,96,111160,1,0,0:0:0:0:
160,96,111493,1,0,0:0:0:0:
160,96,111827,1,0,0:0:0:0:
160,96,112160,1,0,0:0:0:0:
160,96,112493,1,0,0:0:0:0:
160,96,112827,1,0,0:0:0:0:
352,288,113160,1,12,0:0:0:0:
160,288,113493,1,4,0:0:0:0:
160,96,113827,1,0,0:0:0:0:
160,96,114160,1,0,0:0:0:0:
160,96,114493,1,0,0:0:0:0:
160,96,114827,1,0,0:0:0:0:
160,96,115160,1,0,0:0:0:0:
160,96,115493,1,0,0:0:0:0:
160,96,115827,1,0,0:0:0:0:
160,96,116160,1,0,0:0:0:0:
160,96,116493,1,0,0:0:0:0:
160,96,116827,1,0,0:0:0:0:
160,96,117160,1,0,0:0:0:0:
160,288,117493,1,4,0:0:0:0:
160,96,118327,1,0,0:0:0:0:
352,288,118493,1,12,0:0:0:0:
160,288,118827,1,4,0:0:0:0:
352,96,119160,1,8,0:0:0:0:
160,96,119493,1,0,0:0:0:0:
160,96,119660,1,0,0:0:0:0:
352,96,119827,1,8,0:0:0:0:
160,96,120160,1,0,0:0:0:0:
160,96,120327,1,0,0:0:0:0:
352,96,120493,1,8,0:0:0:0:
160,96,120660,1,0,0:0:0:0:
160,96,120993,1,0,0:0:0:0:
352,96,121160,1,8,0:0:0:0:
352,96,121327,1,8,0:0:0:0:
352,96,121410,1,8,0:0:0:0:
160,96,121493,1,0,0:0:0:0:
352,96,121827,1,8,0:0:0:0:
352,96,121993,1,8,0:0:0:0:
160,96,122160,1,0,0:0:0:0:
160,96,122327,1,0,0:0:0:0:
352,96,122493,1,8,0:0:0:0:
160,96,122827,1,0,0:0:0:0:
160,96,122993,1,0,0:0:0:0:
352,96,123160,1,8,0:0:0:0:
160,96,123327,1,0,0:0:0:0:
160,96,123660,1,0,0:0:0:0:
352,288,123827,1,12,0:0:0:0:
352,288,123993,1,12,0:0:0:0:
160,288,124160,1,4,0:0:0:0:
352,96,124493,1,8,0:0:0:0:
352,96,124660,1,8,0:0:0:0:
160,96,124827,1,0,0:0:0:0:
160,96,124993,1,0,0:0:0:0:
352,96,125160,1,8,0:0:0:0:
160,96,125493,1,0,0:0:0:0:
160,96,125660,1,0,0:0:0:0:
352,96,125827,1,8,0:0:0:0:
160,96,125993,1,0,0:0:0:0:
160,96,126327,1,0,0:0:0:0:
352,96,126493,1,8,0:0:0:0:
352,96,126660,1,8,0:0:0:0:
352,96,126743,1,8,0:0:0:0:
160,96,126827,1,0,0:0:0:0:
160,96,126993,1,0,0:0:0:0:
352,96,127160,1,8,0:0:0:0:
352,96,127327,1,8,0:0:0:0:
160,96,127493,1,0,0:0:0:0:
160,96,127660,1,0,0:0:0:0:
352,96,127827,1,8,0:0:0:0:
160,96,127993,1,0,0:0:0:0:
352,288,128327,1,12,0:0:0:0:
352,288,128493,1,12,0:0:0:0:
352,288,128660,1,12,0:0:0:0:
352,288,128827,1,12,0:0:0:0:
160,288,129493,1,4,0:0:0:0:
160,96,129993,1,0,0:0:0:0:
160,96,130160,1,0,0:0:0:0:
352,96,130493,1,8,0:0:0:0:
160,96,130660,1,0,0:0:0:0:
160,96,130993,1,0,0:0:0:0:
352,96,131327,1,8,0:0:0:0:
352,96,131410,1,8,0:0:0:0:
352,96,131493,1,8,0:0:0:0:
160,96,131660,1,0,0:0:0:0:
160,96,131827,1,0,0:0:0:0:
160,96,132160,1,0,0:0:0:0:
160,96,132660,1,0,0:0:0:0:
160,96,132827,1,0,0:0:0:0:
352,96,133160,1,8,0:0:0:0:
160,96,133327,1,0,0:0:0:0:
160,96,133660,1,0,0:0:0:0:
352,96,133993,1,8,0:0:0:0:
160,96,134077,1,0,0:0:0:0:
352,96,134160,1,8,0:0:0:0:
160,96,134327,1,0,0:0:0:0:
352,96,134493,1,8,0:0:0:0:
160,96,134660,1,0,0:0:0:0:
160,96,134827,1,0,0:0:0:0:
352,96,135160,1,8,0:0:0:0:
160,96,135327,1,0,0:0:0:0:
160,96,135493,1,0,0:0:0:0:
352,96,135827,1,8,0:0:0:0:
160,96,135993,1,0,0:0:0:0:
160,96,136327,1,0,0:0:0:0:
352,96,136660,1,8,0:0:0:0:
160,96,136993,1,0,0:0:0:0:
160,96,137160,1,0,0:0:0:0:
160,96,137493,1,0,0:0:0:0:
352,96,137827,1,8,0:0:0:0:
160,96,137993,1,0,0:0:0:0:
160,96,138327,1,0,0:0:0:0:
160,96,138410,1,0,0:0:0:0:
352,96,138493,1,8,0:0:0:0:
352,96,138660,1,8,0:0:0:0:
160,96,138827,1,0,0:0:0:0:
352,96,139160,1,8,0:0:0:0:
160,96,139327,1,0,0:0:0:0:
352,96,139493,1,8,0:0:0:0:
160,96,139660,1,0,0:0:0:0:
352,96,139827,1,8,0:0:0:0:
352,96,139910,1,8,0:0:0:0:
352,96,139993,1,8,0:0:0:0:
160,288,140160,1,4,0:0:0:0:
160,96,140660,1,0,0:0:0:0:
160,96,140827,1,0,0:0:0:0:
352,96,141160,1,8,0:0:0:0:
160,96,141327,1,0,0:0:0:0:
160,96,141660,1,0,0:0:0:0:
352,96,141993,1,8,0:0:0:0:
160,96,142327,1,0,0:0:0:0:
160,96,142493,1,0,0:0:0:0:
160,288,142827,1,4,0:0:0:0:
352,96,143077,1,8,0:0:0:0:
352,96,143327,1,8,0:0:0:0:
160,288,143493,1,4,0:0:0:0:
160,96,143743,1,0,0:0:0:0:
352,96,143827,1,8,0:0:0:0:
352,96,143993,1,8,0:0:0:0:
160,288,144160,1,4,0:0:0:0:
160,96,144327,1,0,0:0:0:0:
352,96,144660,1,8,0:0:0:0:
160,96,144993,1,0,0:0:0:0:
352,96,145160,1,8,0:0:0:0:
352,96,145327,1,8,0:0:0:0:
160,288,145493,1,4,0:0:0:0:
352,96,145827,1,8,0:0:0:0:
160,96,146160,1,0,0:0:0:0:
160,96,146327,1,0,0:0:0:0:
352,96,146493,1,8,0:0:0:0:
160,96,146827,1,0,0:0:0:0:
352,96,147160,1,8,0:0:0:0:
352,96,147327,1,8,0:0:0:0:
160,96,147493,1,0,0:0:0:0:
160,96,147660,1,0,0:0:0:0:
352,96,147827,1,8,0:0:0:0:
160,288,148160,1,0,0:0:0:0:
352,96,148493,1,8,0:0:0:0:
160,96,148660,1,0,0:0:0:0:
352,96,148827,1,8,0:0:0:0:
352,96,148910,1,8,0:0:0:0:
160,96,148993,1,0,0:0:0:0:
352,96,149160,1,8,0:0:0:0:
160,96,149327,1,0,0:0:0:0:
160,96,149660,1,0,0:0:0:0:
352,96,149827,1,8,0:0:0:0:
352,96,150160,1,8,0:0:0:0:
160,96,150327,1,0,0:0:0:0:
352,96,150493,1,8,0:0:0:0:
352,96,150577,1,8,0:0:0:0:
352,96,150660,1,8,0:0:0:0:
352,96,150743,1,8,0:0:0:0:
160,96,150827,1,0,0:0:0:0:
352,288,150993,1,12,0:0:0:0:
160,96,151327,1,0,0:0:0:0:
352,288,151493,1,12,0:0:0:0:
160,96,151827,1,0,0:0:0:0:
352,288,151993,1,12,0:0:0:0:
160,288,152160,1,4,0:0:0:0:
160,96,152410,1,0,0:0:0:0:
352,96,152493,1,8,0:0:0:0:
160,96,152660,1,0,0:0:0:0:
160,96,152743,1,0,0:0:0:0:
352,96,152827,1,8,0:0:0:0:
160,96,152993,1,0,0:0:0:0:
352,96,153160,1,8,0:0:0:0:
352,96,153243,1,8,0:0:0:0:
352,96,153327,1,8,0:0:0:0:
352,96,153410,1,8,0:0:0:0:
160,288,153493,1,4,0:0:0:0:
352,96,153827,1,8,0:0:0:0:
160,96,154160,1,0,0:0:0:0:
160,96,154327,1,0,0:0:0:0:
352,96,154493,1,8,0:0:0:0:
352,96,154743,1,8,0:0:0:0:
160,96,154827,1,0,0:0:0:0:
160,96,154993,1,0,0:0:0:0:
352,96,155160,1,8,0:0:0:0:
160,96,155327,1,0,0:0:0:0:
160,96,155410,1,0,0:0:0:0:
352,96,155493,1,8,0:0:0:0:
160,96,155660,1,0,0:0:0:0:
352,96,155827,1,8,0:0:0:0:
160,288,155993,1,4,0:0:0:0:
160,96,156327,1,0,0:0:0:0:
352,96,156493,1,8,0:0:0:0:
160,96,156660,1,0,0:0:0:0:
352,96,156827,1,8,0:0:0:0:
352,96,156910,1,8,0:0:0:0:
160,96,156993,1,0,0:0:0:0:
352,96,157160,1,8,0:0:0:0:
160,288,157327,1,4,0:0:0:0:
160,96,157660,1,0,0:0:0:0:
352,96,157827,1,8,0:0:0:0:
160,96,157993,1,0,0:0:0:0:
160,96,158077,1,0,0:0:0:0:
352,96,158160,1,8,0:0:0:0:
160,96,158327,1,0,0:0:0:0:
352,96,158493,1,8,0:0:0:0:
352,96,158660,1,8,0:0:0:0:
160,288,158827,1,4,0:0:0:0:
352,96,159160,1,8,0:0:0:0:
160,96,159493,1,0,0:0:0:0:
160,96,159660,1,0,0:0:0:0:
352,96,159827,1,8,0:0:0:0:
352,96,160077,1,8,0:0:0:0:
160,96,160160,1,0,0:0:0:0:
160,96,160327,1,0,0:0:0:0:
352,96,160493,1,8,0:0:0:0:
160,96,160660,1,0,0:0:0:0:
160,96,160743,1,0,0:0:0:0:
352,96,160827,1,8,0:0:0:0:
160,96,160993,1,0,0:0:0:0:
352,96,161160,1,8,0:0:0:0:
160,288,161327,1,4,0:0:0:0:
160,96,161660,1,0,0:0:0:0:
352,96,161827,1,8,0:0:0:0:
160,96,161993,1,0,0:0:0:0:
352,96,162160,1,8,0:0:0:0:
160,96,162243,1,0,0:0:0:0:
160,96,162327,1,0,0:0:0:0:
352,96,162493,1,8,0:0:0:0:
160,288,162660,1,4,0:0:0:0:
160,96,162993,1,0,0:0:0:0:
352,96,163160,1,8,0:0:0:0:
160,96,163327,1,0,0:0:0:0:
352,288,163493,1,12,0:0:0:0:
352,288,163827,1,12,0:0:0:0:
160,288,164160,1,4,0:0:0:0:
352,96,164493,1,8,0:0:0:0:
160,96,164827,1,0,0:0:0:0:
160,96,164993,1,0,0:0:0:0:
352,96,165160,1,8,0:0:0:0:
352,96,165410,1,8,0:0:0:0:
160,96,165493,1,0,0:0:0:0:
160,96,165660,1,0,0:0:0:0:
352,96,165827,1,8,0:0:0:0:
160,96,165993,1,0,0:0:0:0:
160,96,166077,1,0,0:0:0:0:
352,96,166160,1,8,0:0:0:0:
160,96,166327,1,0,0:0:0:0:
352,96,166493,1,8,0:0:0:0:
160,288,166660,1,4,0:0:0:0:
160,96,166993,1,0,0:0:0:0:
352,96,167160,1,8,0:0:0:0:
160,96,167327,1,0,0:0:0:0:
352,96,167493,1,8,0:0:0:0:
352,96,167577,1,8,0:0:0:0:
160,96,167660,1,0,0:0:0:0:
352,96,167827,1,8,0:0:0:0:
160,288,167993,1,4,0:0:0:0:
160,96,168327,1,0,0:0:0:0:
352,96,168493,1,8,0:0:0:0:
160,96,168660,1,0,0:0:0:0:
160,96,168743,1,0,0:0:0:0:
352,96,168827,1,8,0:0:0:0:
160,96,168993,1,0,0:0:0:0:
352,96,169160,1,8,0:0:0:0:
352,96,169327,1,8,0:0:0:0:
160,288,169493,1,4,0:0:0:0:
352,96,169827,1,8,0:0:0:0:
160,96,170160,1,0,0:0:0:0:
160,96,170327,1,0,0:0:0:0:
352,96,170493,1,8,0:0:0:0:
352,96,170743,1,8,0:0:0:0:
160,96,170827,1,0,0:0:0:0:
160,96,170993,1,0,0:0:0:0:
352,96,171160,1,8,0:0:0:0:
160,96,171327,1,0,0:0:0:0:
160,96,171410,1,0,0:0:0:0:
352,96,171493,1,8,0:0:0:0:
160,96,171660,1,0,0:0:0:0:
352,96,171827,1,8,0:0:0:0:
160,288,171993,1,4,0:0:0:0:
160,96,172327,1,0,0:0:0:0:
352,96,172493,1,8,0:0:0:0:
160,96,172660,1,0,0:0:0:0:
352,96,172827,1,8,0:0:0:0:
160,96,172993,1,0,0:0:0:0:
352,96,173160,1,8,0:0:0:0:
160,288,173327,1,4,0:0:0:0:
160,96,173660,1,0,0:0:0:0:
352,96,173827,1,8,0:0:0:0:
160,96,173993,1,0,0:0:0:0:
160,96,174077,1,0,0:0:0:0:
352,96,174160,1,8,0:0:0:0:
160,96,174327,1,0,0:0:0:0:
352,96,174493,1,8,0:0:0:0:
160,288,174660,1,4,0:0:0:0:
160,96,174993,1,0,0:0:0:0:
352,96,175160,1,8,0:0:0:0:
160,96,175327,1,0,0:0:0:0:
352,96,175493,1,8,0:0:0:0:
352,96,175577,1,8,0:0:0:0:
160,96,175660,1,0,0:0:0:0:
352,96,175827,1,8,0:0:0:0:
160,96,175993,1,0,0:0:0:0:
352,288,176327,1,12,0:0:0:0:
352,288,176493,1,12,0:0:0:0:
352,288,176827,1,12,0:0:0:0:
160,96,177160,5,0,0:0:0:0:
352,288,177493,5,12,0:0:0:0:
352,288,182827,5,12,0:0:0:0:
160,96,186660,5,0,0:0:0:0:
160,96,186993,1,0,0:0:0:0:
352,96,187160,1,8,0:0:0:0:
352,96,187243,1,8,0:0:0:0:
352,96,187327,1,8,0:0:0:0:
352,96,187410,1,8,0:0:0:0:
352,96,187493,1,8,0:0:0:0:
160,96,187660,1,0,0:0:0:0:
160,96,187827,1,0,0:0:0:0:
160,96,187993,1,0,0:0:0:0:
160,288,188160,1,4,0:0:0:0:
352,96,188493,1,8,0:0:0:0:
160,96,188827,1,0,0:0:0:0:
160,96,188993,1,0,0:0:0:0:
352,96,189160,1,8,0:0:0:0:
160,96,189327,1,0,0:0:0:0:
160,96,189660,1,0,0:0:0:0:
352,96,189827,1,8,0:0:0:0:
160,96,190160,1,0,0:0:0:0:
160,96,190327,1,0,0:0:0:0:
352,96,190493,1,8,0:0:0:0:
352,96,190660,1,8,0:0:0:0:
160,288,190827,1,4,0:0:0:0:
352,96,191160,1,8,0:0:0:0:
160,96,191493,1,0,0:0:0:0:
160,96,191660,1,0,0:0:0:0:
352,96,191827,1,8,0:0:0:0:
160,96,191993,1,0,0:0:0:0:
160,96,192327,1,0,0:0:0:0:
352,96,192493,1,8,0:0:0:0:
160,96,192827,1,0,0:0:0:0:
160,96,192993,1,0,0:0:0:0:
352,96,193160,1,8,0:0:0:0:
160,96,193327,1,0,0:0:0:0:
352,96,193410,1,8,0:0:0:0:
160,96,193493,1,0,0:0:0:0:
352,96,193827,1,8,0:0:0:0:
352,96,193993,1,8,0:0:0:0:
160,96,194160,1,0,0:0:0:0:
160,96,194327,1,0,0:0:0:0:
352,96,194493,1,8,0:0:0:0:
160,288,194660,1,4,0:0:0:0:
160,96,194993,1,0,0:0:0:0:
352,96,195160,1,8,0:0:0:0:
352,96,195327,1,8,0:0:0:0:
160,96,195493,1,0,0:0:0:0:
160,96,195660,1,0,0:0:0:0:
352,96,195827,1,8,0:0:0:0:
352,96,196077,1,8,0:0:0:0:
160,96,196160,1,0,0:0:0:0:
160,96,196327,1,0,0:0:0:0:
352,96,196493,1,8,0:0:0:0:
160,96,196660,1,0,0:0:0:0:
160,96,196827,1,0,0:0:0:0:
352,96,197160,1,8,0:0:0:0:
160,96,197327,1,0,0:0:0:0:
160,96,197660,1,0,0:0:0:0:
160,96,197743,1,0,0:0:0:0:
352,96,197827,1,8,0:0:0:0:
160,96,197993,1,0,0:0:0:0:
352,96,198160,1,8,0:0:0:0:
352,96,198243,1,8,0:0:0:0:
160,96,198327,1,0,0:0:0:0:
352,96,198493,1,8,0:0:0:0:
160,96,198660,1,0,0:0:0:0:
352,96,198827,1,8,0:0:0:0:
352,96,198993,1,8,0:0:0:0:
160,96,199160,1,0,0:0:0:0:
160,96,199243,1,0,0:0:0:0:
352,96,199327,1,8,0:0:0:0:
352,96,199493,1,8,0:0:0:0:
352,96,199827,1,8,0:0:0:0:
352,96,199993,1,8,0:0:0:0:
160,96,200160,1,0,0:0:0:0:
160,96,200243,1,0,0:0:0:0:
352,96,200327,1,8,0:0:0:0:
160,96,200410,1,0,0:0:0:0:
352,96,200493,1,8,0:0:0:0:
160,96,200660,1,0,0:0:0:0:
352,96,200827,1,8,0:0:0:0:
160,96,200993,1,0,0:0:0:0:
352,96,201160,1,8,0:0:0:0:
160,96,201327,1,0,0:0:0:0:
160,96,201493,1,0,0:0:0:0:
352,288,201660,1,12,0:0:0:0:
160,96,201993,1,0,0:0:0:0:
352,288,202160,1,12,0:0:0:0:
160,96,202493,1,0,0:0:0:0:
352,288,202660,1,12,0:0:0:0:
160,288,202827,1,4,0:0:0:0:
160,96,203077,1,0,0:0:0:0:
352,96,203160,1,8,0:0:0:0:
160,96,203327,1,0,0:0:0:0:
160,96,203410,1,0,0:0:0:0:
352,96,203493,1,8,0:0:0:0:
160,96,203660,1,0,0:0:0:0:
352,96,203827,1,8,0:0:0:0:
352,96,203910,1,8,0:0:0:0:
352,96,203993,1,8,0:0:0:0:
352,96,204077,1,8,0:0:0:0:
160,288,204160,1,4,0:0:0:0:
160,288,213327,5,4,0:0:0:0:
160,96,213660,1,0,0:0:0:0:
160,96,213743,1,0,0:0:0:0:
352,96,213827,1,8,0:0:0:0:
160,96,213993,1,0,0:0:0:0:
352,288,214160,1,12,0:0:0:0:
160,96,214327,1,0,0:0:0:0:
352,288,214493,1,12,0:0:0:0:
160,288,214827,1,4,0:0:0:0:
352,96,215160,1,8,0:0:0:0:
160,96,215493,1,0,0:0:0:0:
160,96,215660,1,0,0:0:0:0:
352,96,215827,1,8,0:0:0:0:
352,96,215993,1,8,0:0:0:0:
352,96,216077,1,8,0:0:0:0:
160,96,216160,1,0,0:0:0:0:
160,96,216327,1,0,0:0:0:0:
352,96,216493,1,8,0:0:0:0:
160,96,216660,1,0,0:0:0:0:
160,96,216743,1,0,0:0:0:0:
352,96,216827,1,8,0:0:0:0:
160,96,216993,1,0,0:0:0:0:
352,96,217160,1,8,0:0:0:0:
160,288,217327,1,4,0:0:0:0:
160,96,217660,1,0,0:0:0:0:
352,96,217827,1,8,0:0:0:0:
160,96,217993,1,0,0:0:0:0:
352,96,218160,1,8,0:0:0:0:
352,96,218243,1,8,0:0:0:0:
160,96,218327,1,0,0:0:0:0:
352,96,218493,1,8,0:0:0:0:
160,288,218660,1,4,0:0:0:0:
160,96,218993,1,0,0:0:0:0:
352,96,219160,1,8,0:0:0:0:
160,96,219327,1,0,0:0:0:0:
160,96,219410,1,0,0:0:0:0:
352,96,219493,1,8,0:0:0:0:
160,96,219660,1,0,0:0:0:0:
352,96,219827,1,8,0:0:0:0:
352,96,219910,1,8,0:0:0:0:
352,96,219993,1,8,0:0:0:0:
160,288,220160,1,4,0:0:0:0:
352,96,220493,1,8,0:0:0:0:
160,96,220827,1,0,0:0:0:0:
160,96,220993,1,0,0:0:0:0:
352,96,221160,1,8,0:0:0:0:
352,96,221327,1,8,0:0:0:0:
352,96,221410,1,8,0:0:0:0:
160,96,221493,1,0,0:0:0:0:
160,96,221660,1,0,0:0:0:0:
352,96,221827,1,8,0:0:0:0:
160,96,221993,1,0,0:0:0:0:
160,96,222077,1,0,0:0:0:0:
352,96,222160,1,8,0:0:0:0:
160,96,222327,1,0,0:0:0:0:
352,96,222493,1,8,0:0:0:0:
160,288,222660,1,4,0:0:0:0:
160,96,222993,1,0,0:0:0:0:
352,96,223160,1,8,0:0:0:0:
160,96,223327,1,0,0:0:0:0:
352,96,223493,1,8,0:0:0:0:
160,96,223660,1,0,0:0:0:0:
352,96,223827,1,8,0:0:0:0:
160,288,223993,1,4,0:0:0:0:
160,96,224327,1,0,0:0:0:0:
352,96,224493,1,8,0:0:0:0:
160,96,224660,1,0,0:0:0:0:
160,96,224743,1,0,0:0:0:0:
352,96,224827,1,8,0:0:0:0:
160,96,224993,1,0,0:0:0:0:
352,96,225160,1,8,0:0:0:0:
160,288,225327,1,4,0:0:0:0:
160,96,225660,1,0,0:0:0:0:
352,96,225827,1,8,0:0:0:0:
160,96,225993,1,0,0:0:0:0:
352,96,226160,1,8,0:0:0:0:
352,96,226243,1,8,0:0:0:0:
160,96,226327,1,0,0:0:0:0:
352,96,226493,1,8,0:0:0:0:
160,96,226660,1,0,0:0:0:0:
352,288,226993,1,12,0:0:0:0:
352,288,227160,1,12,0:0:0:0:
352,288,227493,1,12,0:0:0:0:
160,96,227827,1,0,0:0:0:0:
160,288,228160,1,4,0:0:0:0:
352,96,228493,1,8,0:0:0:0:
352,96,228827,1,8,0:0:0:0:
160,96,228993,1,0,0:0:0:0:
352,96,229160,1,8,0:0:0:0:
160,96,229327,1,0,0:0:0:0:
352,96,229493,1,8,0:0:0:0:
160,96,229743,1,0,0:0:0:0:
352,96,229827,1,8,0:0:0:0:
160,96,229993,1,0,0:0:0:0:
352,96,230160,1,8,0:0:0:0:
160,96,230327,1,0,0:0:0:0:
352,96,230493,1,8,0:0:0:0:
352,96,230660,1,8,0:0:0:0:
160,288,230827,1,4,0:0:0:0:
352,96,231160,1,8,0:0:0:0:
352,96,231493,1,8,0:0:0:0:
160,96,231660,1,0,0:0:0:0:
352,96,231827,1,8,0:0:0:0:
160,96,231993,1,0,0:0:0:0:
352,96,232160,1,8,0:0:0:0:
160,96,232327,1,0,0:0:0:0:
160,96,232410,1,0,0:0:0:0:
352,96,232493,1,8,0:0:0:0:
160,96,232660,1,0,0:0:0:0:
352,96,232827,1,8,0:0:0:0:
160,96,232910,1,0,0:0:0:0:
160,96,233077,1,0,0:0:0:0:
352,96,233160,1,8,0:0:0:0:
352,96,233327,1,8,0:0:0:0:
160,288,233493,1,4,0:0:0:0:
352,96,233827,1,8,0:0:0:0:
352,96,234160,1,8,0:0:0:0:
160,96,234327,1,0,0:0:0:0:
352,96,234493,1,8,0:0:0:0:
160,96,234660,1,0,0:0:0:0:
352,96,234827,1,8,0:0:0:0:
160,96,235077,1,0,0:0:0:0:
352,96,235160,1,8,0:0:0:0:
160,96,235327,1,0,0:0:0:0:
352,96,235493,1,8,0:0:0:0:
160,96,235660,1,0,0:0:0:0:
160,96,235743,1,0,0:0:0:0:
352,96,235827,1,8,0:0:0:0:
352,96,235993,1,8,0:0:0:0:
160,288,236160,1,4,0:0:0:0:
352,96,236493,1,8,0:0:0:0:
160,96,236660,1,0,0:0:0:0:
160,96,236743,1,0,0:0:0:0:
352,96,236827,1,8,0:0:0:0:
160,96,236993,1,0,0:0:0:0:
352,96,237160,1,8,0:0:0:0:
160,96,237327,1,0,0:0:0:0:
352,96,237493,1,8,0:0:0:0:
352,96,237577,1,8,0:0:0:0:
160,96,237660,1,0,0:0:0:0:
352,96,237827,1,8,0:0:0:0:
160,96,237993,1,0,0:0:0:0:
352,96,238077,1,0,0:0:0:0:
352,96,238160,1,8,0:0:0:0:
352,96,238327,1,8,0:0:0:0:
352,96,238410,1,8,0:0:0:0:
352,96,238493,1,8,0:0:0:0:
352,96,238660,1,8,0:0:0:0:
160,96,238827,1,4,0:0:0:0:
352,96,239160,1,8,0:0:0:0:
160,96,239327,1,0,0:0:0:0:
160,96,239410,1,0,0:0:0:0:
160,96,239493,1,0,0:0:0:0:
352,96,239827,1,8,0:0:0:0:
160,96,240160,1,0,0:0:0:0:
352,96,240493,1,8,0:0:0:0:
160,96,240660,1,0,0:0:0:0:
160,96,240743,1,0,0:0:0:0:
160,96,240827,1,0,0:0:0:0:
160,96,240993,1,0,0:0:0:0:
352,96,241160,1,8,0:0:0:0:
160,96,241493,1,0,0:0:0:0:
352,96,241827,1,8,0:0:0:0:
160,96,241993,1,0,0:0:0:0:
160,96,242077,1,0,0:0:0:0:
160,96,242160,1,0,0:0:0:0:
352,96,242493,1,8,0:0:0:0:
160,96,242827,1,0,0:0:0:0:
352,96,243160,1,8,0:0:0:0:
160,96,243327,1,0,0:0:0:0:
160,96,243410,1,0,0:0:0:0:
160,96,243493,1,0,0:0:0:0:
160,96,243660,1,0,0:0:0:0:
352,96,243827,1,8,0:0:0:0:
352,96,243993,1,8,0:0:0:0:
160,288,244160,1,4,0:0:0:0:
352,96,244493,1,8,0:0:0:0:
160,96,244660,1,0,0:0:0:0:
160,96,244743,1,0,0:0:0:0:
160,96,244827,1,0,0:0:0:0:
352,96,245160,1,8,0:0:0:0:
160,96,245493,1,0,0:0:0:0:
352,96,245827,1,8,0:0:0:0:
160,96,245993,1,0,0:0:0:0:
352,96,246160,1,8,0:0:0:0:
352,96,246327,1,8,0:0:0:0:
352,96,246410,1,8,0:0:0:0:
352,96,246493,1,8,0:0:0:0:
160,288,246660,1,4,0:0:0:0:
352,96,246993,1,8,0:0:0:0:
352,96,247160,1,8,0:0:0:0:
160,96,247327,1,0,0:0:0:0:
352,96,247493,1,8,0:0:0:0:
352,96,247660,1,8,0:0:0:0:
160,96,247827,1,0,0:0:0:0:
352,288,247993,1,12,0:0:0:0:
352,96,248327,1,8,0:0:0:0:
160,96,248493,1,0,0:0:0:0:
352,96,248827,1,8,0:0:0:0:
352,96,248910,1,8,0:0:0:0:
352,96,248993,1,0,0:0:0:0:
352,96,249160,1,8,0:0:0:0:
352,96,249243,5,8,0:0:0:0:
352,96,249327,1,8,0:0:0:0:
352,96,249410,1,8,0:0:0:0:
160,96,249493,1,0,0:0:0:0:
160,288,249660,5,4,0:0:0:0:
352,96,249910,1,8,0:0:0:0:
352,96,249993,1,8,0:0:0:0:
160,288,250160,1,4,0:0:0:0:
352,96,250410,1,8,0:0:0:0:
352,96,250493,1,8,0:0:0:0:
160,288,250660,1,4,0:0:0:0:
352,96,250827,1,8,0:0:0:0:
352,96,250910,1,8,0:0:0:0:
160,96,250993,1,0,0:0:0:0:
160,288,251160,1,4,0:0:0:0:
352,96,251493,1,8,0:0:0:0:
160,96,251660,1,0,0:0:0:0:
160,96,251743,1,0,0:0:0:0:
160,96,251827,1,0,0:0:0:0:
160,96,251993,1,0,0:0:0:0:
352,288,252493,1,12,0:0:0:0:
352,288,252660,1,12,0:0:0:0:
