osu file format v14

[General]
AudioFilename: audio.mp3
AudioLeadIn: 0
PreviewTime: 42916
Countdown: 0
SampleSet: Soft
StackLeniency: 0.4
Mode: 0
LetterboxInBreaks: 0
WidescreenStoryboard: 1

[Editor]
Bookmarks: 335,11000,21666,32333,37666,42999,66999,77331,82664,87997,95997,101330,123997,141664,156497,183163,190829,194829
DistanceSpacing: 0.75
BeatDivisor: 4
GridSize: 8
TimelineZoom: 1.5

[Metadata]
Title:Mondainai Tripper!
TitleUnicode:モンダイナイトリッパー!
Artist:Natori Sana
ArtistUnicode:名取さな
Creator:milr_
Version:Normal
Source:
Tags:sasakure.UK japanese jpop j-pop pop Chanmann Delette Maruoko youtuber vtuber バーチャルユーチューバー バーチャルサナトリウム Virtual Sanatorium kishida Yuki 有形ランペイジ Yukei Rampage Kishida Yuki Ryo Uemura オリジナルソング original song さなのばくたん。 Sana no Bakutan. メチャ・ハッピー・ショー Mecha Happy Show
BeatmapID:3891504
BeatmapSetID:1885986

[Difficulty]
HPDrainRate:3.5
CircleSize:2.5
OverallDifficulty:4
ApproachRate:5.5
SliderMultiplier:1.2
SliderTickRate:1

[Events]
//Background and Video events
0,0,"1.jpg",0,0
Video,-720,"video.mp4"
//Break Periods
2,11200,17799
2,77331,81539
2,125530,133539
2,141864,149539
//Storyboard Layer 0 (Background)
//Storyboard Layer 1 (Fail)
//Storyboard Layer 2 (Pass)
//Storyboard Layer 3 (Foreground)
//Storyboard Layer 4 (Overlay)
//Storyboard Sound Samples

[TimingPoints]
335,333.333333333333,4,2,1,80,1,0
1002,333.333333333333,7,2,1,80,1,0
5668,333.333333333333,3,2,1,80,1,0
8667,333.333333333333,7,2,1,80,1,0
11000,333.333333333333,4,2,1,80,1,0
32333,-100,4,2,1,70,0,0
37666,-100,4,2,1,80,0,0
42999,-100,4,2,1,80,0,1
66999,333.333333333333,7,2,1,80,1,0
75998,333.333333333333,4,2,1,80,1,0
77331,333.333333333333,4,2,1,80,1,0
82664,-111.111111111111,4,2,1,80,0,0
87997,-100,4,2,1,80,0,0
101330,-100,4,2,1,80,0,1
123997,-100,4,2,1,80,0,0
134664,333.333333333333,3,2,1,80,1,0
141664,375,4,2,1,65,1,0
141664,-133.333333333333,4,2,1,65,0,0
155164,333.333333333333,4,2,1,80,1,0
156497,333.333333333333,4,2,1,65,1,1
156497,-100,4,2,1,65,0,1
181830,-100,4,2,1,80,0,0
183163,333.333333333333,7,2,1,80,1,0
187829,333.333333333333,3,2,1,80,1,0
195495,-100,3,2,1,70,0,0
196162,-100,3,2,1,60,0,0
196829,-100,3,2,1,50,0,0
197495,-100,3,2,1,40,0,0
198162,-100,3,2,1,30,0,0
198829,-100,3,2,1,20,0,0
199495,-100,3,2,1,10,0,0

[Colours]
Combo1 : 250,135,135
Combo2 : 92,237,168
Combo3 : 216,240,117
Combo4 : 146,205,241

[HitObjects]
76,203,1001,6,0,P|130:195|212:184,1,120,4|8,3:3|0:3,0:0:0:0:
238,236,1501,2,0,P|247:281|328:283,1,120,0|8,3:3|0:3,0:0:0:0:
366,268,2001,1,0,3:3:0:0:
329,141,2335,1,8,0:3:0:0:
329,141,2501,2,0,P|337:100|345:73,2,60,0|0|8,3:3|3:3|0:3,0:0:0:0:
500,242,3335,6,0,P|485:311|476:370,1,120,4|8,3:3|0:3,0:0:0:0:
412,372,3835,2,0,P|403:329|329:311,1,120,0|8,3:3|0:3,0:0:0:0:
275,332,4335,1,0,3:3:0:0:
150,373,4668,1,8,0:3:0:0:
150,373,4835,2,0,P|137:324|130:298,2,60,0|0|8,3:3|3:3|0:3,0:0:0:0:
262,210,5668,6,0,P|278:131|294:73,1,120,4|8,3:3|0:3,0:0:0:0:
252,38,6167,1,0,3:3:0:0:
190,61,6334,2,0,P|143:47|112:41,1,60,0|10,3:3|3:3,0:0:0:0:
82,87,6667,6,0,P|44:94|35:167,1,120,4|8,3:3|0:3,0:0:0:0:
74,219,7167,1,0,3:3:0:0:
74,219,7334,2,0,P|111:212|152:204,1,60,0|10,3:0|3:3,0:0:0:0:
179,251,7667,6,0,P|165:313|152:393,1,120,4|8,3:3|0:3,0:0:0:0:
91,384,8167,1,0,3:3:0:0:
58,325,8334,2,0,P|21:318|-20:310,2,60,0|10|4,3:3|3:3|0:3,0:0:0:0:
256,192,8833,12,4,11000,0:3:0:0:
256,192,18999,12,12,20166,3:0:0:0:
204,244,21666,5,0,3:0:0:0:
259,282,21833,2,0,P|310:282|355:225,1,120,2|2,0:3|0:3,0:0:0:0:
324,174,22333,2,0,P|284:166|190:150,1,120,0|0,3:0|3:0,0:0:0:0:
177,93,22833,5,2,0:3:0:0:
286,22,23166,2,0,P|345:30|416:39,1,120,2|2,0:3|0:3,0:0:0:0:
454,160,23833,2,0,P|486:152|522:144,2,60,2|0|2,0:3|3:0|0:3,0:0:0:0:
391,138,24333,6,0,P|341:126|314:194,1,120,0|0,3:0|3:0,0:0:0:0:
339,243,24833,1,2,0:3:0:0:
339,243,24999,2,0,P|397:265|384:333,1,120,0|0,3:0|3:0,0:0:0:0:
360,369,25499,5,2,0:3:0:0:
237,322,25833,2,0,P|179:333|115:350,1,120,2|2,0:3|0:3,0:0:0:0:
66,231,26499,2,0,P|25:219|-12:212,2,60,2|0|2,0:3|3:0|0:3,0:0:0:0:
117,189,26999,6,0,P|179:178|238:168,1,120,8|8,3:0|3:0,0:0:0:0:
275,224,27499,1,2,0:3:0:0:
393,162,27833,2,0,P|386:202|380:240,2,60,2|8|2,0:3|3:0|0:3,0:0:0:0:
339,124,28333,6,0,P|330:85|318:52,1,60,8|2,3:0|0:3,0:0:0:0:
368,17,28666,2,0,P|418:25|451:29,1,60,8|2,3:0|0:3,0:0:0:0:
463,82,28999,2,0,P|498:88|498:160,1,120,8|8,3:0|3:0,0:0:0:0:
449,201,29499,5,10,3:3:0:0:
194,131,30166,1,8,3:3:0:0:
107,377,30833,1,12,3:3:0:0:
107,377,32333,6,0,P|61:348|73:277,1,120,2|2,3:3|0:3,0:0:0:0:
119,249,32833,1,2,3:3:0:0:
119,249,32999,2,0,P|182:261|251:276,1,120,10|2,0:3|0:3,0:0:0:0:
369,269,33666,6,0,P|358:319|350:359,2,90,2|0|2,3:3|3:3|3:3,0:0:0:0:
331,215,34333,1,10,0:3:0:0:
202,243,34666,1,2,0:3:0:0:
168,115,34999,5,4,3:0:0:0:
40,148,35333,1,0,3:0:0:0:
74,276,35666,1,0,3:0:0:0:
202,243,35999,1,0,3:0:0:0:
256,363,36333,6,0,P|320:354|385:344,1,120,0|0,3:0|3:0,0:0:0:0:
478,263,36999,1,0,3:0:0:0:
356,30,37666,6,0,P|311:13|256:66,1,120,0|0,3:0|3:0,0:0:0:0:
298,115,38166,1,2,0:3:0:0:
298,115,38333,2,0,P|340:143|323:218,1,120,0|0,3:0|3:0,0:0:0:0:
230,289,38999,6,0,P|184:277|88:261,1,120,0|0,3:0|3:0,0:0:0:0:
88,134,39666,2,0,P|41:140|-1:148,2,90,0|0|0,3:0|3:0|3:0,0:0:0:0:
256,192,40333,12,0,42333,0:0:0:0:
229,174,42999,6,0,P|221:214|216:248,2,60,6|2|8,3:0|0:3|3:3,0:0:0:0:
278,129,43499,1,2,0:3:0:0:
278,129,43666,2,0,P|269:74|263:49,1,60,2|2,3:0|0:3,0:0:0:0:
227,17,43999,1,8,3:3:0:0:
168,47,44166,6,0,P|114:36|78:108,1,120,2|2,0:3|0:3,0:0:0:0:
39,139,44666,1,10,3:3:0:0:
96,174,44833,2,0,P|85:226|71:304,1,120,2|2,0:3|0:3,0:0:0:0:
17,328,45333,1,10,3:3:0:0:
139,378,45666,6,0,P|183:365|215:358,1,60,2|2,3:0|0:3,0:0:0:0:
238,309,45999,2,0,P|280:319|315:328,1,60,10|2,3:3|0:3,0:0:0:0:
350,362,46333,2,0,P|387:339|386:263,1,120,2|8,3:0|3:3,0:0:0:0:
348,217,46833,5,2,3:3:0:0:
215,229,47166,2,0,P|223:192|229:154,1,60,2|8,0:3|3:3,0:0:0:0:
184,120,47499,1,2,0:3:0:0:
265,15,47833,2,0,P|321:26|410:41,1,120,2|0,0:3|0:0,0:0:0:0:
432,82,48333,6,0,P|457:77|501:68,2,60,6|2|8,3:0|0:3|3:3,0:0:0:0:
401,143,48833,1,2,0:3:0:0:
401,143,48999,2,0,P|357:135|321:132,1,60,2|2,3:0|0:3,0:0:0:0:
284,100,49333,1,8,3:3:0:0:
241,154,49499,6,0,P|226:191|283:245,1,120,2|2,0:3|0:3,0:0:0:0:
335,272,49999,1,10,3:3:0:0:
313,335,50166,2,0,P|260:343|181:365,1,120,2|2,0:3|0:3,0:0:0:0:
142,322,50666,1,10,3:3:0:0:
23,377,50999,6,0,P|15:327|6:290,1,60,2|2,3:0|0:3,0:0:0:0:
60,271,51333,2,0,P|67:237|76:204,1,60,10|2,3:3|0:3,0:0:0:0:
25,168,51666,2,0,P|17:134|86:96,1,120,2|8,3:0|3:3,0:0:0:0:
134,131,52166,6,0,P|196:141|268:158,1,120,2|2,3:3|0:3,0:0:0:0:
299,107,52666,1,8,3:3:0:0:
299,107,52833,2,0,P|333:60|394:75,1,120,2|2,0:3|0:3,0:0:0:0:
453,259,53666,6,0,P|504:252|538:247,2,60,6|2|8,3:0|0:3|3:3,0:0:0:0:
408,218,54166,1,2,0:3:0:0:
408,218,54333,2,0,P|355:206|329:198,1,60,2|2,3:0|0:3,0:0:0:0:
297,246,54666,1,8,3:3:0:0:
329,304,54833,6,0,P|330:351|252:367,1,120,2|2,0:3|0:3,0:0:0:0:
208,354,55333,1,10,3:3:0:0:
219,289,55499,2,0,P|209:235|195:159,1,120,2|2,0:3|0:3,0:0:0:0:
233,115,55999,1,10,3:3:0:0:
148,12,56333,6,0,P|105:18|76:22,1,60,2|2,3:0|0:3,0:0:0:0:
34,59,56666,2,0,P|44:99|50:134,1,60,10|2,3:3|0:3,0:0:0:0:
105,150,56999,2,0,P|93:205|80:280,1,120,2|8,3:0|3:3,0:0:0:0:
23,296,57499,6,0,P|33:343|160:349,1,180,2|8,3:3|3:3,0:0:0:0:
196,320,58166,1,2,0:3:0:0:
314,379,58499,2,0,P|382:362|449:349,1,120,2|0,0:3|0:0,0:0:0:0:
495,371,58999,6,0,P|514:341|500:305,1,60,6|2,3:0|0:3,0:0:0:0:
415,233,59499,1,2,0:3:0:0:
415,233,59666,2,0,P|424:171|437:103,1,120,2|8,3:0|3:3,0:0:0:0:
492,81,60166,6,0,P|484:44|392:25,1,120,2|2,0:3|0:3,0:0:0:0:
351,36,60666,1,10,3:3:0:0:
351,102,60833,2,0,P|323:141|251:122,1,120,2|2,0:3|0:3,0:0:0:0:
205,91,61333,1,10,3:3:0:0:
102,9,61666,6,0,P|23:12|6:65,1,120,2|10,3:0|3:3,0:0:0:0:
49,99,62166,1,2,0:3:0:0:
49,99,62333,2,0,P|62:146|72:220,1,120,2|8,3:0|3:3,0:0:0:0:
32,272,62833,6,0,P|44:313|185:333,1,180,2|8,3:3|3:3,0:0:0:0:
272,276,63666,1,0,3:0:0:0:
272,276,63833,2,0,P|317:284|349:291,2,60,2|8|2,0:3|3:3|0:3,0:0:0:0:
237,219,64333,6,0,P|180:228|117:241,1,120,0|8,3:0|3:3,0:0:0:0:
63,279,64833,1,2,0:0:0:0:
63,279,64999,2,0,P|24:210|56:162,1,120,2|8,3:0|3:3,0:0:0:0:
77,125,65499,6,0,P|139:116|376:72,1,300,2|0,0:0|0:0,0:0:0:0:
512,296,66999,5,4,3:3:0:0:
463,341,67165,2,0,P|423:332|337:315,1,120,2|0,3:3|3:3,0:0:0:0:
292,354,67665,1,2,3:3:0:0:
292,354,67832,2,0,P|230:325|240:268,1,120,10|2,0:3|3:3,0:0:0:0:
261,222,68332,1,10,0:3:0:0:
326,233,68499,2,0,P|391:217|466:202,1,120,2|10,3:3|0:3,0:0:0:0:
512,21,69332,5,4,3:3:0:0:
453,52,69499,2,0,P|406:42|316:25,1,120,2|0,3:3|3:3,0:0:0:0:
291,78,69999,1,2,3:3:0:0:
291,78,70165,2,0,P|273:133|214:132,1,120,10|2,0:3|3:3,0:0:0:0:
173,87,70665,1,10,0:3:0:0:
118,124,70832,2,0,P|131:202|138:267,1,120,2|10,3:3|0:3,0:0:0:0:
285,373,71665,5,4,3:3:0:0:
347,348,71832,2,0,P|377:328|358:247,1,120,2|0,3:3|3:3,0:0:0:0:
320,216,72332,1,2,3:3:0:0:
320,216,72499,2,0,P|258:228|184:242,1,120,10|2,0:3|3:3,0:0:0:0:
166,294,72999,1,10,0:3:0:0:
103,273,73165,2,0,P|63:268|71:189,1,120,2|10,3:3|0:3,0:0:0:0:
146,23,73999,6,0,P|209:38|260:52,1,90,4|0,3:3|0:0,0:0:0:0:
332,27,74498,2,0,P|319:82|306:127,1,90,4|0,3:3|0:0,0:0:0:0:
328,213,74998,2,0,P|273:200|228:187,1,90,4|0,3:3|0:0,0:0:0:0:
142,209,75498,2,0,P|155:154|168:109,1,90,6|0,3:3|0:0,0:0:0:0:
146,23,75998,5,4,3:3:0:0:
93,140,82664,6,0,P|151:147|212:160,1,107.999996704102,0|2,3:3|0:0,0:0:0:0:
223,212,83164,1,0,3:3:0:0:
223,212,83331,2,0,P|273:230|307:174,1,107.999996704102,0|2,3:3|0:0,0:0:0:0:
271,80,83997,6,0,P|326:70|385:61,1,107.999996704102,0|2,3:3|0:0,0:0:0:0:
428,29,84497,1,0,3:3:0:0:
428,29,84664,2,0,P|482:30|490:91,1,107.999996704102,0|2,3:3|0:0,0:0:0:0:
469,130,85164,5,0,3:3:0:0:
469,130,85330,2,0,P|456:190|445:256,1,107.999996704102,0|2,3:3|0:0,0:0:0:0:
486,290,85830,1,0,3:3:0:0:
486,290,85997,2,0,P|465:340|353:333,1,161.999995056153,0|4,3:3|3:3,0:0:0:0:
103,287,87997,6,0,P|94:233|81:168,1,120,4|0,3:3|3:0,0:0:0:0:
184,86,88664,2,0,P|233:75|267:133,1,120,2|0,3:0|3:0,0:0:0:0:
321,247,89330,2,0,P|308:302|298:381,2,120,2|0|2,3:0|3:0|3:0,0:0:0:0:
267,126,90330,1,2,3:0:0:0:
358,29,90664,6,0,P|412:24|441:98,1,120,2|2,3:0|3:0,0:0:0:0:
508,191,91330,2,0,P|497:237|429:241,1,120,2|2,3:0|3:0,0:0:0:0:
301,262,91997,2,0,P|320:325|330:381,2,120,2|0|0,3:0|0:0|3:0,0:0:0:0:
347,138,92997,1,2,3:0:0:0:
231,74,93330,6,0,P|196:73|154:150,1,120,4|10,3:0|3:0,0:0:0:0:
190,191,93830,2,0,P|181:242|101:244,1,120,2|10,3:0|3:0,0:0:0:0:
35,156,94497,6,0,P|22:98|4:37,1,120,10|2,3:0|3:0,0:0:0:0:
59,0,94997,1,10,3:0:0:0:
59,0,95164,2,0,P|130:17|194:38,1,120,10|10,3:0|3:0,0:0:0:0:
302,65,95830,6,0,P|335:25|404:40,1,120,8|10,3:0|3:0,0:0:0:0:
478,139,96497,2,0,P|492:179|431:236,1,120,10|10,3:0|3:0,0:0:0:0:
380,349,97164,2,0,P|335:328|329:257,1,120,10|10,3:0|3:0,0:0:0:0:
250,156,97830,1,10,3:0:0:0:
307,120,97997,2,0,P|310:76|227:36,1,120,2|10,3:0|3:0,0:0:0:0:
195,4,98497,5,10,3:0:0:0:
256,192,98830,12,0,100664,0:0:0:0:
315,204,101330,6,0,P|324:160|332:128,2,60,6|2|8,3:0|0:3|3:3,0:0:0:0:
254,230,101830,1,2,0:3:0:0:
254,230,101997,2,0,P|266:281|275:313,1,60,2|2,3:0|0:3,0:0:0:0:
309,340,102330,1,8,3:3:0:0:
374,327,102497,6,0,P|424:348|469:302,1,120,2|2,0:3|0:3,0:0:0:0:
508,255,102997,1,10,3:3:0:0:
455,215,103164,2,0,P|466:160|480:84,1,120,2|2,0:3|0:3,0:0:0:0:
512,41,103664,1,10,3:3:0:0:
386,1,103997,6,0,P|374:50|369:83,1,60,2|2,3:0|0:3,0:0:0:0:
313,88,104330,2,0,P|328:139|332:169,1,60,10|2,3:3|0:3,0:0:0:0:
384,184,104664,2,0,P|426:177|457:243,1,120,2|8,3:0|3:3,0:0:0:0:
423,293,105164,5,2,3:3:0:0:
316,373,105497,2,0,P|310:331|303:295,1,60,2|8,0:3|3:3,0:0:0:0:
248,284,105830,1,2,0:3:0:0:
311,168,106164,2,0,P|303:112|296:48,1,120,2|0,0:3|0:0,0:0:0:0:
236,21,106664,6,0,P|195:27|150:33,1,60,6|2,3:0|0:3,0:0:0:0:
126,72,106997,2,0,P|132:115|134:157,1,60,8|2,3:3|0:3,0:0:0:0:
169,187,107330,2,0,P|206:180|237:255,1,120,2|8,3:0|3:3,0:0:0:0:
208,302,107830,6,0,P|157:294|131:287,1,60,2|2,0:3|3:0,0:0:0:0:
104,340,108164,1,2,0:3:0:0:
56,384,108330,1,10,3:3:0:0:
0,349,108497,1,2,0:3:0:0:
35,221,108830,2,0,P|23:172|18:145,1,60,2|10,0:3|3:3,0:0:0:0:
0,31,109330,6,0,P|36:27|51:68,1,60,2|2,3:0|0:3,0:0:0:0:
99,88,109664,2,0,P|135:92|150:51,1,60,10|2,3:3|0:3,0:0:0:0:
203,37,109997,2,0,P|263:48|349:63,1,120,2|8,3:0|3:3,0:0:0:0:
378,25,110497,6,0,P|420:41|413:119,1,120,2|2,3:3|0:3,0:0:0:0:
379,157,110997,1,8,3:3:0:0:
379,157,111164,2,0,P|296:173|250:185,1,120,2|2,0:3|0:3,0:0:0:0:
114,314,111997,6,0,L|41:300,2,60,6|2|8,3:0|0:3|3:3,0:0:0:0:
170,360,112497,1,2,0:3:0:0:
170,360,112664,2,0,L|247:345,1,60,2|2,3:0|0:3,0:0:0:0:
280,306,112997,1,8,3:3:0:0:
331,349,113164,6,0,P|396:365|419:303,1,120,2|2,0:3|0:3,0:0:0:0:
476,291,113664,1,10,3:3:0:0:
450,230,113830,2,0,P|440:163|430:98,1,120,2|2,0:3|0:3,0:0:0:0:
475,60,114330,1,10,3:3:0:0:
350,16,114664,6,0,P|309:22|311:50,1,60,2|2,3:0|0:3,0:0:0:0:
271,89,114997,2,0,P|234:78|194:70,1,60,10|2,3:3|0:3,0:0:0:0:
159,114,115330,2,0,P|151:160|216:194,1,120,2|8,3:0|3:3,0:0:0:0:
271,185,115830,6,0,P|312:212|286:328,1,180,2|8,3:3|3:3,0:0:0:0:
236,360,116497,1,2,0:3:0:0:
129,282,116830,2,0,P|96:274|11:255,1,120,2|0,0:3|0:0,0:0:0:0:
0,190,117330,6,0,P|8:156|50:158,1,60,6|2,3:0|0:3,0:0:0:0:
155,98,117830,1,2,0:3:0:0:
155,98,117997,2,0,P|170:144|252:152,1,120,2|8,3:0|3:3,0:0:0:0:
292,129,118497,6,0,P|292:81|358:41,1,120,2|2,0:3|0:3,0:0:0:0:
403,6,118997,1,10,3:3:0:0:
450,53,119164,2,0,P|441:100|431:183,1,120,2|2,0:3|0:3,0:0:0:0:
382,213,119664,1,10,3:3:0:0:
486,296,119997,6,0,P|485:331|407:360,1,120,2|10,3:0|3:3,0:0:0:0:
366,330,120497,1,2,0:3:0:0:
366,330,120664,2,0,P|304:340|226:358,1,120,2|8,3:0|3:3,0:0:0:0:
190,369,121164,6,0,P|139:347|135:227,1,180,2|8,3:3|3:3,0:0:0:0:
232,153,121997,1,0,3:0:0:0:
232,153,122164,2,0,P|279:162|306:169,2,60,2|8|2,0:3|3:3|0:3,0:0:0:0:
185,105,122664,6,0,P|126:115|67:124,1,120,0|8,3:0|3:3,0:0:0:0:
22,85,123164,1,2,0:0:0:0:
22,85,123330,2,0,P|17:40|70:21,2,90,2|2|2,3:0|0:0|0:0,0:0:0:0:
256,192,123997,12,0,125330,0:0:0:0:
172,81,134664,6,0,P|143:34|77:31,2,120,4|8|0,3:0|0:3|3:0,0:0:0:0:
244,192,135664,2,0,P|304:177|380:164,1,120,0|8,3:0|0:3,0:0:0:0:
410,46,136330,2,0,P|441:41|473:73,1,60,0|8,3:0|0:3,0:0:0:0:
508,105,136664,6,0,P|499:153|489:232,2,120,0|8|0,3:0|0:3|3:0,0:0:0:0:
385,154,137664,2,0,P|329:147|300:204,1,120,0|8,3:0|0:3,0:0:0:0:
386,294,138330,2,0,P|397:339|403:370,1,60,0|8,3:0|0:3,0:0:0:0:
341,384,138664,1,4,3:0:0:0:
256,192,138830,12,2,141664,0:0:0:0:
256,192,150664,12,0,155164,0:0:0:0:
283,210,156497,6,0,P|291:170|296:136,2,60,6|2|8,3:0|0:3|3:3,0:0:0:0:
234,255,156997,1,2,0:3:0:0:
234,255,157163,2,0,P|243:310|249:335,1,60,2|2,3:0|0:3,0:0:0:0:
285,367,157497,1,8,3:3:0:0:
344,337,157663,6,0,P|398:348|434:276,1,120,2|2,0:3|0:3,0:0:0:0:
473,245,158163,1,10,3:3:0:0:
416,210,158330,2,0,P|427:158|441:80,1,120,2|2,0:3|0:3,0:0:0:0:
495,56,158830,1,10,3:3:0:0:
376,0,159163,6,0,P|332:13|300:20,1,60,2|2,3:0|0:3,0:0:0:0:
277,68,159497,2,0,P|235:61|200:52,1,60,10|2,3:3|0:3,0:0:0:0:
162,22,159830,2,0,P|125:45|126:121,1,120,2|8,3:0|3:3,0:0:0:0:
164,167,160330,5,2,3:3:0:0:
297,155,160663,2,0,P|289:192|283:230,1,60,2|8,0:3|3:3,0:0:0:0:
328,264,160997,1,2,0:3:0:0:
247,369,161330,2,0,P|191:358|102:343,1,120,2|0,0:3|0:0,0:0:0:0:
80,302,161830,6,0,P|55:307|11:316,2,60,6|2|8,3:0|0:3|3:3,0:0:0:0:
111,241,162330,1,2,0:3:0:0:
111,241,162497,2,0,P|155:249|191:252,1,60,2|2,3:0|0:3,0:0:0:0:
228,284,162830,1,8,3:3:0:0:
271,230,162997,6,0,P|286:193|229:139,1,120,2|2,0:3|0:3,0:0:0:0:
177,112,163497,1,10,3:3:0:0:
199,49,163663,2,0,P|252:41|331:19,1,120,2|2,0:3|0:3,0:0:0:0:
370,62,164163,1,10,3:3:0:0:
489,7,164497,6,0,P|497:57|506:94,1,60,2|2,3:0|0:3,0:0:0:0:
452,113,164830,2,0,P|445:147|436:180,1,60,10|2,3:3|0:3,0:0:0:0:
487,216,165163,2,0,P|495:250|426:288,1,120,2|8,3:0|3:3,0:0:0:0:
378,253,165663,6,0,P|316:243|244:226,1,120,2|2,3:3|0:3,0:0:0:0:
213,277,166163,1,8,3:3:0:0:
213,277,166330,2,0,P|179:324|118:309,1,120,2|2,0:3|0:3,0:0:0:0:
59,125,167163,6,0,P|8:132|-26:137,2,60,6|2|8,3:0|0:3|3:3,0:0:0:0:
113,174,167663,1,2,0:3:0:0:
113,174,167830,2,0,P|166:186|192:194,1,60,2|2,3:0|0:3,0:0:0:0:
215,138,168163,1,8,3:3:0:0:
183,80,168330,6,0,P|182:33|260:17,1,120,2|2,0:3|0:3,0:0:0:0:
304,30,168830,1,10,3:3:0:0:
293,95,168997,2,0,P|303:149|317:225,1,120,2|2,0:3|0:3,0:0:0:0:
279,269,169497,1,10,3:3:0:0:
364,372,169830,6,0,P|407:366|436:362,1,60,2|2,3:0|0:3,0:0:0:0:
478,325,170163,2,0,P|468:285|462:250,1,60,10|2,3:3|0:3,0:0:0:0:
407,234,170497,2,0,P|419:179|432:104,1,120,2|8,3:0|3:3,0:0:0:0:
489,88,170996,6,0,P|479:41|352:35,1,180,2|8,3:3|3:3,0:0:0:0:
316,64,171663,1,2,0:3:0:0:
198,5,171996,2,0,P|130:22|63:35,1,120,2|2,0:3|0:0,0:0:0:0:
17,13,172496,6,0,P|-2:43|44:120,1,120,6|8,3:0|3:3,0:0:0:0:
92,146,172996,1,2,0:3:0:0:
92,146,173163,2,0,P|83:208|70:276,1,120,2|8,3:0|3:3,0:0:0:0:
20,303,173663,6,0,P|28:340|120:359,1,120,2|2,0:3|0:3,0:0:0:0:
161,348,174163,1,10,3:3:0:0:
161,282,174330,2,0,P|189:243|261:262,1,120,2|2,0:3|0:3,0:0:0:0:
307,293,174830,1,10,3:3:0:0:
417,363,175163,6,0,P|496:360|513:307,1,120,2|10,3:0|3:3,0:0:0:0:
472,286,175663,1,2,0:3:0:0:
472,286,175830,2,0,P|459:239|449:165,1,120,2|8,3:0|3:3,0:0:0:0:
481,111,176330,6,0,P|469:70|328:50,1,180,2|8,3:3|3:3,0:0:0:0:
240,108,177163,1,0,3:0:0:0:
240,108,177330,2,0,P|195:100|163:93,2,60,2|8|2,0:3|3:3|0:3,0:0:0:0:
275,165,177830,6,0,P|332:156|395:143,1,120,0|8,3:0|3:3,0:0:0:0:
449,105,178330,1,2,0:0:0:0:
449,105,178496,2,0,P|488:174|476:195,1,90,2|2,3:0|0:0,0:0:0:0:
431,258,178996,6,0,P|350:272|233:298,1,180,2|8,0:0|3:3,0:0:0:0:
130,324,179830,1,0,3:0:0:0:
130,324,179996,2,0,P|139:359|147:404,2,60,2|8|2,0:3|3:3|0:3,0:0:0:0:
73,291,180496,6,0,P|33:259|45:194,1,120,0|8,3:0|3:3,0:0:0:0:
85,146,180996,1,2,0:0:0:0:
85,146,181163,2,0,P|148:156|197:165,1,90,2|2,3:0|0:0,0:0:0:0:
227,244,181663,6,0,P|321:287|384:21,1,480,2|0,0:0|0:0,0:0:0:0:
340,64,183163,6,0,P|284:72|214:84,1,120,4|8,3:3|0:3,0:0:0:0:
169,42,183663,2,0,P|129:4|64:21,1,120,0|8,3:3|0:3,0:0:0:0:
33,71,184163,1,0,3:3:0:0:
118,171,184496,1,8,0:3:0:0:
118,171,184663,2,0,P|105:223|101:251,2,60,0|0|8,3:3|3:3|0:3,0:0:0:0:
273,47,185496,6,0,P|342:35|406:25,1,120,4|8,3:3|0:3,0:0:0:0:
448,63,185996,2,0,P|469:105|425:166,1,120,0|8,3:3|0:3,0:0:0:0:
371,142,186496,1,0,3:3:0:0:
303,256,186829,1,8,0:3:0:0:
303,256,186996,2,0,P|297:303|294:342,2,60,0|0|8,3:3|3:3|0:3,0:0:0:0:
121,177,187829,6,0,P|112:117|100:56,1,120,4|8,3:3|0:3,0:0:0:0:
148,12,188329,1,0,3:3:0:0:
199,53,188495,2,0,P|241:57|247:84,1,60,0|10,3:3|3:3,0:0:0:0:
284,124,188829,6,0,P|287:177|353:182,1,120,4|8,3:3|0:3,0:0:0:0:
408,164,189329,1,0,3:3:0:0:
408,164,189495,2,0,P|416:102|420:88,1,60,0|10,3:0|3:3,0:0:0:0:
467,64,189829,6,0,P|469:29|393:11,1,120,4|8,3:3|0:3,0:0:0:0:
342,34,190329,1,0,3:3:0:0:
342,34,190495,2,0,P|299:23|268:18,1,60,0|10,3:3|3:3,0:0:0:0:
236,65,190829,6,0,P|249:122|261:184,1,120,4|0,3:3|0:0,0:0:0:0:
318,216,191329,1,0,0:0:0:0:
229,315,191662,1,0,0:0:0:0:
178,358,191829,6,0,P|120:346|102:285,1,120,4|0,3:3|0:0,0:0:0:0:
125,233,192329,2,0,P|135:201|67:140,1,120,0|0,0:0|0:0,0:0:0:0:
23,167,192829,6,0,P|32:96|38:33,1,120,4|0,3:3|0:0,0:0:0:0:
92,11,193329,1,0,0:0:0:0:
213,64,193662,1,0,0:0:0:0:
274,90,193829,6,0,P|332:72|405:51,1,120,4|0,3:3|0:0,0:0:0:0:
438,11,194329,2,0,P|472:17|508:23,2,60,0|0|0,0:0|0:0|0:0,0:0:0:0:
256,192,194829,12,0,199912,0:0:0:0:
