osu file format v14

[General]
AudioFilename: audio.mp3
AudioLeadIn: 0
PreviewTime: 42916
Countdown: 0
SampleSet: Soft
StackLeniency: 0.4
Mode: 0
LetterboxInBreaks: 0
WidescreenStoryboard: 1

[Editor]
Bookmarks: 335,11000,21666,32333,37666,42999,66999,77331,82664,87997,95997,101330,123997,141664,156497,183163,190829,194829
DistanceSpacing: 0.75
BeatDivisor: 4
GridSize: 8
TimelineZoom: 1.5

[Metadata]
Title:Mondainai Tripper!
TitleUnicode:モンダイナイトリッパー!
Artist:Natori Sana
ArtistUnicode:名取さな
Creator:milr_
Version:Chanmann's Light Insane
Source:
Tags:sasakure.UK japanese jpop j-pop pop Chanmann Delette Maruoko youtuber vtuber バーチャルユーチューバー バーチャルサナトリウム Virtual Sanatorium kishida Yuki 有形ランペイジ Yukei Rampage Kishida Yuki Ryo Uemura オリジナルソング original song さなのばくたん。 Sana no Bakutan. メチャ・ハッピー・ショー Mecha Happy Show
BeatmapID:3889129
BeatmapSetID:1885986

[Difficulty]
HPDrainRate:5.5
CircleSize:4
OverallDifficulty:6.5
ApproachRate:8.2
SliderMultiplier:2
SliderTickRate:2

[Events]
//Background and Video events
0,0,"3.jpg",0,0
Video,-720,"video.mp4"
//Break Periods
2,11200,18279
2,77531,81944
2,124196,132444
//Storyboard Layer 0 (Background)
//Storyboard Layer 1 (Fail)
//Storyboard Layer 2 (Pass)
//Storyboard Layer 3 (Foreground)
//Storyboard Layer 4 (Overlay)
//Storyboard Sound Samples

[TimingPoints]
335,333.333333333333,4,2,1,80,1,0
1002,333.333333333333,7,2,1,80,1,0
5668,333.333333333333,3,2,1,80,1,0
8667,333.333333333333,7,2,1,80,1,0
11000,333.333333333333,4,2,1,80,1,0
32333,-100,4,2,1,70,0,0
37666,-100,4,2,1,80,0,0
66999,333.333333333333,7,2,1,80,1,0
75998,333.333333333333,4,2,1,80,1,0
77331,333.333333333333,4,2,1,80,1,0
82664,-133.333333333333,4,2,1,80,0,0
87997,-100,4,2,1,80,0,0
134664,333.333333333333,3,2,1,80,1,0
141664,375,4,2,1,65,1,0
141664,-133.333333333333,4,2,1,65,0,0
155164,333.333333333333,4,2,1,80,1,0
156497,333.333333333333,4,2,1,65,1,0
181830,-100,4,2,1,80,0,0
183163,333.333333333333,7,2,1,80,1,0
187829,333.333333333333,3,2,1,80,1,0
195495,-100,3,2,1,70,0,0
196162,-100,3,2,1,60,0,0
196829,-100,3,2,1,50,0,0
197495,-100,3,2,1,40,0,0
198162,-100,3,2,1,30,0,0
198829,-100,3,2,1,20,0,0
199495,-100,3,2,1,10,0,0

[Colours]
Combo1 : 250,135,135
Combo2 : 92,237,168
Combo3 : 216,240,117
Combo4 : 146,205,241

[HitObjects]
107,370,335,5,2,0:3:0:0:
105,357,418,1,2,0:3:0:0:
104,345,501,1,2,0:3:0:0:
103,332,584,1,2,0:3:0:0:
101,320,668,2,0,L|94:260,3,50,2|2|2|2,0:3|0:3|0:3|0:3,0:0:0:0:
88,216,1002,6,0,P|84:172|77:116,1,100,4|0,3:3|3:3,0:0:0:0:
168,62,1335,1,8,0:3:0:0:
256,108,1501,2,0,P|260:152|267:208,2,100,0|0|8,3:3|3:3|0:3,0:0:0:0:
334,37,2001,2,0,P|338:86|344:136,1,100,0|0,3:3|3:3,0:0:0:0:
425,190,2335,5,8,0:3:0:0:
425,190,2501,1,0,3:3:0:0:
503,181,2668,1,0,3:3:0:0:
475,257,2835,1,8,0:3:0:0:
447,336,3001,6,0,L|397:341,3,50,2|2|2|2,0:3|0:3|0:3|0:3,0:0:0:0:
348,345,3335,6,0,P|298:351|248:355,1,100,4|0,3:3|3:3,0:0:0:0:
161,308,3668,1,8,0:3:0:0:
223,228,3835,2,0,P|272:223|322:217,2,100,0|0|8,3:3|3:3|0:3,0:0:0:0:
133,180,4335,2,0,P|83:186|33:190,1,100,0|0,3:3|3:3,0:0:0:0:
195,112,4668,5,8,0:3:0:0:
195,112,4835,1,0,3:3:0:0:
182,33,5001,1,0,3:3:0:0:
256,61,5168,1,8,0:3:0:0:
267,148,5335,6,0,L|271:187,4,40,2|2|2|2|2,0:3|0:3|0:3|0:3|0:3,0:0:0:0:
272,203,5668,6,0,P|278:252|282:302,1,100,4|0,3:3|3:3,0:0:0:0:
382,348,6001,2,0,P|375:298|371:248,1,100,8|0,0:3|3:3,0:0:0:0:
453,191,6334,6,0,P|456:215|458:240,4,50,0|2|10|2|4,3:3|0:3|3:3|0:3|3:3,0:0:0:0:
363,158,6834,1,0,3:3:0:0:
408,73,7001,2,0,P|457:68|507:62,1,100,8|0,0:3|3:3,0:0:0:0:
333,18,7334,5,0,3:0:0:0:
320,19,7417,1,2,0:3:0:0:
308,21,7500,1,10,3:3:0:0:
295,22,7583,1,2,0:3:0:0:
283,23,7667,1,4,3:3:0:0:
206,32,7834,1,0,3:3:0:0:
254,95,8001,2,0,P|260:144|264:194,1,100,8|0,0:3|3:3,0:0:0:0:
195,249,8334,6,0,P|198:273|200:298,4,50,0|2|10|2|4,3:3|0:3|3:3|0:3|0:3,0:0:0:0:
256,192,8750,12,4,11000,0:3:0:0:
256,192,18999,12,12,20166,3:0:0:0:
218,40,21833,5,2,0:3:0:0:
294,64,21999,2,0,P|345:62|405:52,1,100,0|2,3:0|0:3,0:0:0:0:
218,123,22333,2,0,P|167:125|106:134,2,100,0|2|0,3:0|0:3|3:0,0:0:0:0:
294,178,22833,2,0,P|382:202|397:322,1,200,2|2,0:3|0:3,0:0:0:0:
331,265,23333,1,0,3:0:0:0:
365,365,23499,2,0,P|315:357|265:353,1,100,2|0,0:3|3:0,0:0:0:0:
232,256,23833,6,0,P|285:261|343:267,1,100,2|0,0:3|3:0,0:0:0:0:
394,213,24166,2,0,P|417:124|322:80,1,200,2|2,0:3|0:3,0:0:0:0:
346,153,24666,1,0,3:0:0:0:
255,192,24833,2,0,P|251:241|255:291,2,100,2|0|2,0:3|3:0|0:3,0:0:0:0:
257,105,25333,1,0,3:0:0:0:
168,149,25499,2,0,P|121:69|23:105,1,200,2|2,0:3|0:3,0:0:0:0:
91,141,25999,1,0,3:0:0:0:
50,258,26166,2,0,P|12:211|28:161,1,100,2|0,0:3|3:0,0:0:0:0:
141,249,26499,5,2,0:3:0:0:
205,318,26666,2,0,P|255:320|305:316,1,100,0|2,3:0|0:3,0:0:0:0:
379,362,26999,2,0,P|383:262|380:162,1,200,8|8,3:0|3:0,0:0:0:0:
302,130,27499,2,0,P|300:80|302:30,1,100,2|8,0:3|3:0,0:0:0:0:
208,30,27833,2,0,P|210:80|210:130,1,100,2|8,0:3|3:0,0:0:0:0:
182,213,28166,6,0,P|255:270|330:214,1,200,2|2,0:3|0:3,0:0:0:0:
256,92,28666,2,0,L|256:192,1,100,8|2,3:0|0:3,0:0:0:0:
256,370,28999,2,0,L|256:270,2,100,8|2|8,3:0|0:3|3:0,0:0:0:0:
112,328,29499,5,10,3:3:0:0:
400,328,30166,1,8,3:3:0:0:
256,64,30833,1,12,3:3:0:0:
256,192,30916,12,0,31833,0:0:0:0:
59,192,32333,5,2,3:3:0:0:
71,192,32416,1,0,0:0:0:0:
84,192,32499,1,2,0:3:0:0:
96,192,32582,1,0,3:3:0:0:
107,191,32666,2,0,L|207:191,1,100,2|2,0:3|3:3,0:0:0:0:
305,191,32999,1,10,0:3:0:0:
317,191,33082,1,0,0:0:0:0:
330,191,33165,1,2,0:3:0:0:
342,191,33248,1,0,0:0:0:0:
353,190,33332,2,0,L|453:190,1,100,2|0,0:3|0:0,0:0:0:0:
331,117,33666,6,0,L|331:61,2,50,2|0|2,3:3|0:0|0:3,0:0:0:0:
331,267,33999,2,0,L|387:267,2,50,2|0|2,0:3|0:0|3:3,0:0:0:0:
181,267,34333,2,0,L|181:323,2,50,10|0|2,0:3|0:0|0:3,0:0:0:0:
181,117,34666,2,0,L|125:117,2,50,2|0|0,0:3|0:0|0:0,0:0:0:0:
331,117,34999,5,4,3:0:0:0:
331,267,35333,1,0,3:0:0:0:
181,267,35666,1,0,3:0:0:0:
181,117,35999,1,0,3:0:0:0:
362,192,36333,1,0,3:0:0:0:
181,267,36667,1,0,3:0:0:0:
256,167,36999,5,0,3:0:0:0:
256,180,37082,1,0,3:0:0:0:
256,192,37165,1,0,3:0:0:0:
256,205,37249,1,0,3:0:0:0:
256,217,37332,1,0,0:0:0:0:
181,117,37666,6,0,P|178:67|171:17,1,100,0|2,3:0|0:3,0:0:0:0:
181,267,37999,2,0,P|131:269|81:275,1,100,0|2,3:0|0:3,0:0:0:0:
331,267,38333,2,0,P|333:316|343:381,1,100,0|2,3:0|0:3,0:0:0:0:
331,117,38666,2,0,P|380:115|445:104,1,100,0|2,3:0|0:3,0:0:0:0:
256,138,38999,5,0,3:0:0:0:
202,192,39166,1,2,0:3:0:0:
256,245,39333,1,0,3:0:0:0:
309,191,39499,1,2,0:3:0:0:
202,192,39666,6,0,B|170:223|177:259|177:259|142:252|111:283,1,150,0|0,3:0|3:0,0:0:0:0:
256,320,40166,1,0,3:0:0:0:
256,192,40249,12,0,42333,0:0:0:0:
329,124,42999,6,0,L|426:103,1,100,6|2,3:0|0:3,0:0:0:0:
278,289,43333,2,0,L|246:383,1,100,8|2,3:3|0:3,0:0:0:0:
159,161,43666,2,0,L|92:87,2,100,2|2|8,3:0|0:3|3:3,0:0:0:0:
196,247,44166,6,0,B|99:199|132:372|20:293,1,200,2|2,0:3|0:3,0:0:0:0:
256,192,44666,1,10,3:3:0:0:
316,137,44833,2,0,B|413:185|380:12|492:91,1,200,2|2,0:3|0:3,0:0:0:0:
509,163,45333,5,10,3:3:0:0:
405,143,45499,1,2,0:3:0:0:
446,233,45666,6,0,L|467:330,1,100,2|2,3:0|0:3,0:0:0:0:
344,261,45999,2,0,L|290:344,1,100,10|2,3:3|0:3,0:0:0:0:
252,208,46333,2,0,L|155:229,1,100,2|2,3:0|0:3,0:0:0:0:
224,105,46666,5,8,3:3:0:0:
139,50,46833,1,2,3:3:0:0:
176,304,47166,1,2,0:3:0:0:
252,304,47333,1,8,3:3:0:0:
328,304,47499,1,2,0:3:0:0:
373,50,47833,1,2,0:3:0:0:
161,251,48333,6,0,L|64:231,1,100,6|2,3:0|0:3,0:0:0:0:
256,192,48666,2,0,L|256:92,1,100,8|2,3:3|0:3,0:0:0:0:
350,252,48999,2,0,L|448:232,2,100,2|2|8,3:0|0:3|3:3,0:0:0:0:
167,341,49499,6,0,P|146:300|165:246,1,100,2|0,0:3|3:0,0:0:0:0:
256,192,49833,1,2,0:3:0:0:
256,192,49916,1,0,0:0:0:0:
256,192,49999,1,10,3:3:0:0:
351,133,50166,2,0,P|366:86|345:43,1,100,2|0,0:3|3:0,0:0:0:0:
256,0,50499,6,0,L|256:100,2,100,2|10|2,0:3|3:3|0:3,0:0:0:0:
163,161,50999,6,0,L|66:141,1,100,2|2,3:0|0:3,0:0:0:0:
65,140,51249,1,2,0:3:0:0:
65,140,51333,1,10,3:3:0:0:
256,192,51499,1,2,0:3:0:0:
349,161,51666,2,0,L|446:141,2,100,2|2|8,3:0|0:3|3:3,0:0:0:0:
256,284,52166,6,0,P|171:308|60:324,1,200,2|2,3:3|0:3,0:0:0:0:
256,192,52666,1,8,3:3:0:0:
256,100,52833,2,0,P|341:76|452:60,1,200,2|2,0:3|0:3,0:0:0:0:
119,209,53666,6,0,P|123:159|139:111,1,100,6|2,3:0|0:3,0:0:0:0:
393,175,53999,2,0,P|388:224|372:272,1,100,8|2,3:3|0:3,0:0:0:0:
119,209,54333,2,0,P|123:159|139:111,2,100,2|2|8,3:0|0:3|3:3,0:0:0:0:
190,244,54833,6,0,B|99:199|132:372|33:302,1,200,2|2,0:3|0:3,0:0:0:0:
256,192,55333,1,10,3:3:0:0:
321,244,55500,2,0,B|413:199|380:372|479:301,1,200,2|2,0:3|0:3,0:0:0:0:
498,219,55999,5,10,3:3:0:0:
512,128,56165,1,2,0:3:0:0:
415,232,56333,6,0,P|402:192|394:134,1,100,2|2,3:0|0:3,0:0:0:0:
326,357,56666,2,0,P|313:316|305:259,1,100,10|2,3:3|0:3,0:0:0:0:
205,243,56999,2,0,P|189:196|184:145,1,100,2|2,3:0|0:3,0:0:0:0:
116,368,57332,6,0,L|96:271,1,100,8|2,3:3|3:3,0:0:0:0:
200,320,57666,1,2,3:0:0:0:
256,368,57833,1,2,0:3:0:0:
312,320,57999,1,8,3:3:0:0:
395,368,58166,2,0,L|416:271,1,100,2|0,0:3|3:0,0:0:0:0:
256,264,58499,2,0,L|256:52,1,200,2|0,0:3|0:0,0:0:0:0:
330,28,58999,5,6,3:0:0:0:
330,28,59166,1,2,0:3:0:0:
182,200,59499,1,2,0:3:0:0:
256,164,59666,2,0,L|256:64,2,100,2|2|8,3:0|0:3|3:3,0:0:0:0:
339,292,60166,6,0,P|350:244|330:198,1,100,2|0,0:3|3:0,0:0:0:0:
260,324,60499,1,2,0:3:0:0:
260,324,60583,1,0,0:0:0:0:
260,324,60666,1,10,3:3:0:0:
171,293,60833,2,0,P|161:245|181:200,1,100,2|0,0:3|3:0,0:0:0:0:
256,100,61166,6,0,L|256:0,2,100,2|10|2,0:3|3:3|0:3,0:0:0:0:
256,284,61666,2,0,L|256:384,2,100,2|2|10,3:0|0:3|3:3,0:0:0:0:
344,240,62166,1,2,0:3:0:0:
256,192,62333,1,2,3:0:0:0:
168,240,62499,1,2,0:3:0:0:
256,284,62666,1,8,3:3:0:0:
344,240,62833,1,2,3:3:0:0:
256,192,62999,12,0,63666,3:0:0:0:
164,192,63833,6,0,L|64:192,2,100,2|8|2,0:3|3:3|0:3,0:0:0:0:
348,192,64333,2,0,L|448:192,2,100,0|2|8,3:0|0:0|3:3,0:0:0:0:
304,280,64833,1,2,0:0:0:0:
256,192,65000,1,2,3:0:0:0:
304,104,65166,1,2,0:0:0:0:
256,20,65333,2,0,L|156:20,1,100,8|2,3:3|0:0,0:0:0:0:
256,364,66333,6,0,L|306:364,12,33.3333333333333,0|0|0|0|0|0|0|0|0|0|0|0|4,0:0|0:0|0:0|0:0|0:0|0:0|0:0|0:0|0:0|0:0|0:0|0:0|3:3,0:0:0:0:
163,365,67165,5,2,3:3:0:0:
163,365,67332,1,10,0:3:0:0:
256,192,67665,1,2,3:3:0:0:
256,192,67832,1,10,0:3:0:0:
349,19,68165,1,2,3:3:0:0:
349,19,68332,1,10,0:3:0:0:
308,107,68499,5,2,3:3:0:0:
204,277,68832,1,10,0:3:0:0:
256,192,68999,6,0,L|320:192,4,50,2|2|2|2|4,0:3|0:3|0:3|0:3|3:3,0:0:0:0:
152,192,69499,5,2,3:3:0:0:
152,192,69666,1,10,0:3:0:0:
360,192,69999,1,2,3:3:0:0:
360,192,70166,1,10,0:3:0:0:
256,20,70499,1,2,3:3:0:0:
256,20,70666,1,10,0:3:0:0:
204,84,70832,5,2,3:3:0:0:
308,300,71165,1,10,0:3:0:0:
256,364,71332,6,0,L|201:364,5,40,2|2|2|2|2|4,0:3|0:3|0:3|0:3|0:3|3:3,0:0:0:0:
349,365,71832,5,2,3:3:0:0:
349,365,71999,1,10,0:3:0:0:
256,192,72332,1,2,3:3:0:0:
256,192,72499,1,10,0:3:0:0:
163,19,72832,1,2,3:3:0:0:
163,19,72999,1,10,0:3:0:0:
204,107,73165,5,2,3:3:0:0:
308,277,73498,1,10,0:3:0:0:
256,192,73665,6,0,L|192:192,4,50,2|2|2|2|4,0:3|0:3|0:3|0:3|3:3,0:0:0:0:
360,192,74165,5,2,0:0:0:0:
360,192,74332,2,0,L|472:192,1,100,2|4,0:0|3:3,0:0:0:0:
152,192,74665,1,2,0:0:0:0:
152,192,74832,2,0,L|40:192,1,100,2|4,0:0|3:3,0:0:0:0:
256,120,75165,5,2,0:0:0:0:
256,120,75332,2,0,L|256:20,1,100,2|6,0:0|3:3,0:0:0:0:
256,264,75665,1,0,0:0:0:0:
256,264,75832,2,0,L|256:364,1,100,2|4,0:0|3:3,0:0:0:0:
256,20,77331,5,4,3:3:0:0:
95,362,82664,6,0,P|167:374|230:336,1,150.000005722046,0|2,3:3|0:0,0:0:0:0:
282,280,83164,1,0,3:3:0:0:
282,280,83331,2,0,P|344:242|417:254,1,150.000005722046,0|2,3:3|0:0,0:0:0:0:
365,331,83831,6,0,L|144:284,1,225.000008583069,0|2,3:3|0:0,0:0:0:0:
58,240,84497,1,0,3:3:0:0:
58,240,84664,2,0,P|119:249|199:201,1,150.000005722046,0|2,3:3|0:0,0:0:0:0:
135,144,85164,6,0,P|99:143|55:135,1,75.0000028610231,0|0,3:3|3:3,0:0:0:0:
293,90,85497,2,0,P|256:84|219:84,1,75.0000028610231,0|2,0:0|0:0,0:0:0:0:
439,176,85830,1,0,3:3:0:0:
439,176,85997,2,0,P|401:174|365:168,2,75.0000028610231,0|0|2,3:3|0:0|0:0,0:0:0:0:
292,236,86497,5,4,3:3:0:0:
292,236,86830,5,2,0:0:0:0:
210,228,86997,1,2,0:0:0:0:
218,146,87164,1,2,0:0:0:0:
318,239,87997,6,0,P|317:332|228:357,1,200,4|0,3:3|3:0,0:0:0:0:
256,192,88497,1,2,0:0:0:0:
192,143,88664,2,0,P|193:50|283:26,1,200,2|0,3:0|3:0,0:0:0:0:
255,99,89164,5,2,0:0:0:0:
371,39,89330,2,0,P|371:132|461:155,1,200,2|0,3:0|3:0,0:0:0:0:
437,84,89830,5,2,0:0:0:0:
373,132,89997,2,0,L|384:232,1,100,2|2,3:0|0:0,0:0:0:0:
256,192,90330,2,0,L|256:88,1,100,2|2,3:0|0:0,0:0:0:0:
139,132,90664,6,0,L|128:232,1,100,2|2,3:0|0:0,0:0:0:0:
245,291,90997,2,0,L|256:191,1,100,2|2,3:0|0:0,0:0:0:0:
372,250,91330,2,0,L|361:350,1,100,2|0,3:0|0:0,0:0:0:0:
450,325,91664,1,2,3:0:0:0:
459,229,91830,2,0,P|437:187|388:164,1,100,2|2,0:0|3:0,0:0:0:0:
294,224,92164,2,0,P|257:317|40:325,1,300,2|0,0:0|3:0,0:0:0:0:
112,271,92830,5,2,0:0:0:0:
33,230,92997,1,2,3:0:0:0:
167,206,93164,1,2,0:0:0:0:
89,166,93330,5,4,3:0:0:0:
269,46,93664,1,10,3:0:0:0:
221,129,93830,1,2,3:0:0:0:
234,344,94164,1,10,3:0:0:0:
187,261,94330,1,2,3:0:0:0:
283,261,94497,6,0,P|345:333|454:295,1,200,10|2,3:0|3:0,0:0:0:0:
497,256,94997,2,0,L|486:156,1,100,10|10,3:0|3:0,0:0:0:0:
362,153,95330,2,0,L|372:252,2,100,2|10|8,3:0|3:0|3:0,0:0:0:0:
362,153,95747,1,8,3:0:0:0:
362,153,95830,6,0,L|349:43,2,100,8|0|10,3:0|3:0|3:0,0:0:0:0:
161,330,96497,2,0,L|150:231,2,100,10|0|10,3:0|3:0|3:0,0:0:0:0:
394,286,97164,2,0,L|295:298,2,100,10|0|10,3:0|3:0|3:0,0:0:0:0:
217,86,97831,2,0,L|117:97,2,100,10|2|10,3:0|3:0|3:0,0:0:0:0:
357,150,98330,5,10,3:0:0:0:
357,150,98414,1,8,3:0:0:0:
357,150,98497,2,0,L|484:136,2,100,10|0|0,3:0|0:0|3:0,0:0:0:0:
256,160,98997,1,8,3:0:0:0:
206,253,99164,2,0,L|78:266,2,100,0|8|0,3:0|3:0|3:0,0:0:0:0:
307,243,99664,1,8,3:0:0:0:
256,344,99830,2,0,L|383:330,2,100,0|0|0,3:0|3:0|3:0,0:0:0:0:
155,354,100330,1,8,3:0:0:0:
142,355,100413,1,8,3:0:0:0:
130,356,100496,1,8,3:0:0:0:
117,357,100579,1,0,0:0:0:0:
105,358,100663,1,0,0:0:0:0:
183,124,101330,6,0,L|86:103,1,100,6|2,3:0|0:3,0:0:0:0:
234,289,101664,2,0,L|266:383,1,100,8|2,3:3|0:3,0:0:0:0:
353,161,101997,2,0,L|420:87,2,100,2|2|8,3:0|0:3|3:3,0:0:0:0:
316,247,102497,6,0,B|413:199|380:372|492:293,1,200,2|2,0:3|0:3,0:0:0:0:
256,192,102997,1,10,3:3:0:0:
196,137,103164,2,0,B|99:185|132:12|20:91,1,200,2|2,0:3|0:3,0:0:0:0:
52,162,103664,5,10,3:3:0:0:
189,62,103830,1,2,0:3:0:0:
110,58,103997,6,0,P|119:108|130:156,1,100,2|2,3:0|0:3,0:0:0:0:
281,141,104330,2,0,P|253:182|227:225,1,100,10|2,3:3|0:3,0:0:0:0:
343,320,104664,2,0,P|294:330|246:341,1,100,2|2,3:0|0:3,0:0:0:0:
161,291,104997,1,8,3:3:0:0:
66,306,105164,5,2,3:3:0:0:
256,112,105497,1,2,0:3:0:0:
256,192,105664,1,8,3:3:0:0:
256,272,105831,1,2,0:3:0:0:
446,78,106164,1,2,0:3:0:0:
163,326,106664,6,0,L|65:305,1,100,6|2,3:0|0:3,0:0:0:0:
256,292,106997,2,0,L|256:192,1,100,8|2,3:3|0:3,0:0:0:0:
349,326,107330,2,0,L|446:305,2,100,2|2|8,3:0|0:3|3:3,0:0:0:0:
176,240,107830,6,0,P|155:199|174:145,1,100,2|2,0:3|3:0,0:0:0:0:
256,104,108164,1,2,0:3:0:0:
342,149,108330,2,0,P|357:196|335:240,2,100,10|2|0,3:3|0:3|3:0,0:0:0:0:
256,4,108830,5,2,0:3:0:0:
256,4,108914,1,0,0:0:0:0:
256,4,108997,2,0,L|256:132,1,100,10|2,3:3|0:3,0:0:0:0:
336,240,109330,6,0,P|384:223|433:214,1,100,2|2,3:0|0:3,0:0:0:0:
433,214,109580,1,2,0:3:0:0:
433,214,109664,1,10,3:3:0:0:
256,192,109830,1,2,0:3:0:0:
176,144,109997,2,0,P|129:160|80:169,2,100,2|2|8,3:0|0:3|3:3,0:0:0:0:
277,62,110497,6,0,P|377:53|474:28,1,200,2|2,3:3|0:3,0:0:0:0:
256,192,110997,1,8,3:3:0:0:
235,322,111164,2,0,P|136:330|39:355,2,200,2|2|2,0:3|0:3|0:0,0:0:0:0:
343,327,111997,6,0,P|350:280|364:230,1,100,6|2,3:0|0:3,0:0:0:0:
169,57,112330,2,0,P|162:104|148:154,1,100,8|2,3:3|0:3,0:0:0:0:
343,327,112664,2,0,P|350:280|364:230,2,100,2|2|8,3:0|0:3|3:3,0:0:0:0:
311,152,113164,6,0,B|371:165|391:111|391:111|411:58|471:71,1,200,2|2,0:3|0:3,0:0:0:0:
256,68,113664,1,10,3:3:0:0:
202,151,113830,2,0,B|141:164|121:110|121:110|101:57|41:70,1,200,2|2,0:3|0:3,0:0:0:0:
15,150,114330,5,10,3:3:0:0:
152,234,114497,1,2,0:3:0:0:
94,296,114664,6,0,P|91:353|124:384,1,100,2|2,3:0|0:3,0:0:0:0:
235,212,114997,2,0,P|238:269|205:300,1,100,10|2,3:3|0:3,0:0:0:0:
70,98,115330,2,0,P|67:155|100:186,1,100,2|2,3:0|0:3,0:0:0:0:
185,23,115664,6,0,L|164:120,1,100,8|2,3:3|3:3,0:0:0:0:
192,240,115997,1,2,3:0:0:0:
256,192,116164,1,2,0:3:0:0:
320,240,116330,1,8,3:3:0:0:
327,23,116497,2,0,L|347:120,1,100,2|0,0:3|3:0,0:0:0:0:
256,296,116830,2,0,L|256:96,1,200,2|0,0:3|0:0,0:0:0:0:
327,23,117330,5,6,3:0:0:0:
327,23,117497,1,2,0:3:0:0:
185,361,117830,1,2,0:3:0:0:
256,292,117997,2,0,L|256:192,2,100,2|2|8,3:0|0:3|3:3,0:0:0:0:
327,361,118497,6,0,P|367:291|377:147,1,200,2|2,0:3|0:3,0:0:0:0:
256,192,118997,1,10,3:3:0:0:
130,173,119164,2,0,P|138:272|185:361,1,200,2|2,0:3|0:3,0:0:0:0:
200,120,119664,6,0,P|202:73|200:20,1,100,10|2,3:3|0:3,0:0:0:0:
312,264,119997,2,0,P|310:311|312:364,2,100,2|2|10,3:0|0:3|3:3,0:0:0:0:
373,192,120497,1,2,0:3:0:0:
256,127,120664,1,2,3:0:0:0:
138,192,120830,1,2,0:3:0:0:
256,250,120997,1,8,3:3:0:0:
373,192,121164,1,2,3:3:0:0:
256,192,121330,12,0,121996,3:0:0:0:
184,248,122164,6,0,L|84:248,2,100,2|8|2,0:3|3:3|0:3,0:0:0:0:
328,136,122664,2,0,L|428:136,2,100,0|2|8,3:0|0:0|3:3,0:0:0:0:
256,192,123164,1,2,0:0:0:0:
177,137,123330,6,0,B|151:93|125:90|125:90|104:128|43:122,1,150,2|2,3:0|0:0,0:0:0:0:
329,242,123830,2,0,B|364:278|364:278|425:285,1,100,2|4,0:0|3:0,0:0:0:0:
256,192,133164,12,0,134330,0:0:0:0:
185,119,134664,6,0,P|116:188|18:194,2,200,4|8|0,3:0|0:3|3:0,0:0:0:0:
326,264,135664,2,0,P|395:195|493:189,2,200,0|8|0,3:0|0:3|3:0,0:0:0:0:
256,336,136497,1,8,0:3:0:0:
186,264,136664,6,0,P|116:253|85:129,1,200,0|8,3:0|0:3,0:0:0:0:
184,122,137164,2,0,P|195:52|319:21,1,200,0|8,3:0|0:3,0:0:0:0:
326,120,137664,2,0,P|396:131|427:255,1,200,0|8,3:0|0:3,0:0:0:0:
392,310,138164,1,0,3:0:0:0:
328,262,138330,1,0,3:0:0:0:
315,262,138413,1,8,0:3:0:0:
303,262,138496,1,8,0:3:0:0:
290,262,138580,1,8,0:3:0:0:
278,262,138663,1,4,3:0:0:0:
256,192,138830,12,0,141497,0:0:0:0:
98,131,141664,6,0,L|29:101,1,75.0000028610231,2|2,0:0|0:0,0:0:0:0:
180,123,142039,2,0,L|241:80,1,75.0000028610231,2|2,0:0|0:0,0:0:0:0:
146,200,142414,2,0,L|153:275,2,75.0000028610231,2|2|2,0:0|0:0|0:0,0:0:0:0:
55,197,142976,6,0,B|143:199|101:145|191:150,1,150.000005722046,2|2,0:0|0:0,0:0:0:0:
256,192,143539,1,2,0:0:0:0:
320,233,143726,2,0,B|409:236|367:182|457:187,1,150.000005722046,2|2,0:0|0:0,0:0:0:0:
497,261,144289,5,2,0:0:0:0:
497,261,144476,1,2,0:0:0:0:
422,298,144664,6,0,L|431:385,1,75.0000028610231,2|2,0:0|0:0,0:0:0:0:
341,311,145039,2,0,L|285:379,1,75.0000028610231,2|2,0:0|0:0,0:0:0:0:
274,262,145414,2,0,L|186:271,1,75.0000028610231,2|2,0:0|0:0,0:0:0:0:
135,190,145789,6,0,L|222:180,1,75.0000028610231,2|2,0:0|0:0,0:0:0:0:
184,80,146164,1,2,0:0:0:0:
255,41,146351,1,2,0:0:0:0:
325,80,146539,1,2,0:0:0:0:
256,120,146726,2,0,L|256:270,1,150.000005722046,2|2,0:0|0:0,0:0:0:0:
431,349,147664,6,0,P|396:357|356:356,1,75.0000028610231,2|2,0:0|0:0,0:0:0:0:
256,344,148039,2,0,L|256:264,1,75.0000028610231,2|2,0:0|0:0,0:0:0:0:
154,356,148414,2,0,P|117:357|81:349,2,75.0000028610231,2|2|2,0:0|0:0|0:0,0:0:0:0:
168,280,148976,5,2,0:0:0:0:
256,192,149351,1,2,0:0:0:0:
256,192,149539,1,2,0:0:0:0:
344,280,149726,1,2,0:0:0:0:
256,104,150101,6,0,L|256:8,2,75.0000028610231,2|2|2,0:0|0:0|0:0,0:0:0:0:
348,120,150664,6,0,P|346:159|340:194,1,75.0000028610231,2|2,0:0|0:0,0:0:0:0:
340,194,150945,1,2,0:0:0:0:
340,194,151039,1,2,0:0:0:0:
256,256,151226,1,2,0:0:0:0:
164,302,151414,2,0,P|126:307|89:309,2,75.0000028610231,2|2|2,0:0|0:0|0:0,0:0:0:0:
258,349,151976,2,0,P|295:343|332:341,2,75.0000028610231,2|2|2,0:0|0:0|0:0,0:0:0:0:
89,308,152726,2,0,P|73:239|73:158,1,150.000005722046,2|2,0:0|0:0,0:0:0:0:
256,72,153476,5,2,0:0:0:0:
352,112,153664,2,0,P|358:149|360:186,2,75.0000028610231,2|2|2,0:0|0:0|0:0,0:0:0:0:
423,76,154226,2,0,P|439:145|438:225,1,150.000005722046,2|2,0:0|0:0,0:0:0:0:
415,103,156497,6,0,L|318:124,1,100,6|2,3:0|0:3,0:0:0:0:
253,374,156830,2,0,L|283:279,1,100,8|2,3:3|0:3,0:0:0:0:
99,98,157163,2,0,L|166:172,2,100,2|2|8,3:0|0:3|3:3,0:0:0:0:
14,228,157663,6,0,B|33:208|63:205|87:219|98:240|98:240|111:266|139:278|166:271|183:254,1,200,2|2,0:3|0:3,0:0:0:0:
256,192,158163,1,10,3:3:0:0:
498,156,158330,2,0,B|478:175|448:178|424:164|413:143|413:143|400:117|372:105|345:112|328:129,1,200,2|2,0:3|0:3,0:0:0:0:
432,252,158830,5,10,3:3:0:0:
342,352,158997,1,2,0:3:0:0:
342,352,159080,1,2,0:0:0:0:
342,352,159163,6,0,L|439:372,1,100,2|2,3:0|0:3,0:0:0:0:
270,256,159497,2,0,L|353:201,1,100,10|2,3:3|0:3,0:0:0:0:
151,239,159830,2,0,L|170:141,1,100,2|2,3:0|0:3,0:0:0:0:
270,256,160163,5,8,3:3:0:0:
168,332,160330,1,2,3:3:0:0:
216,71,160663,1,2,0:3:0:0:
256,192,160830,1,8,3:3:0:0:
296,313,160997,1,2,0:3:0:0:
344,52,161330,1,2,0:3:0:0:
168,332,161830,6,0,L|71:312,1,100,6|2,3:0|0:3,0:0:0:0:
256,192,162163,2,0,L|256:92,1,100,8|2,3:3|0:3,0:0:0:0:
344,332,162496,2,0,L|442:312,2,100,2|2|8,3:0|0:3|3:3,0:0:0:0:
158,224,162997,6,0,P|129:203|79:150,1,100,2|0,0:3|3:0,0:0:0:0:
256,192,163330,1,2,0:3:0:0:
256,192,163413,1,0,0:0:0:0:
256,192,163497,1,10,3:3:0:0:
354,224,163663,2,0,P|383:203|433:150,1,100,2|0,0:3|3:0,0:0:0:0:
256,4,163997,6,0,L|256:132,2,100,2|10|2,0:3|3:3|0:3,0:0:0:0:
168,192,164497,6,0,P|124:213|70:212,1,100,2|2,3:0|0:3,0:0:0:0:
256,280,164830,2,0,P|277:324|276:377,1,100,10|2,3:3|0:3,0:0:0:0:
344,192,165163,2,0,P|388:171|441:171,2,100,2|2|8,3:0|0:3|3:3,0:0:0:0:
228,76,165663,6,0,P|142:69|36:24,1,200,2|2,3:3|0:3,0:0:0:0:
256,192,166163,1,8,3:3:0:0:
284,308,166330,2,0,P|370:315|476:360,2,200,2|2|2,0:3|0:3|0:0,0:0:0:0:
153,334,167163,6,0,P|133:288|133:236,1,100,6|2,3:0|0:3,0:0:0:0:
359,50,167497,2,0,P|379:96|378:147,1,100,8|2,3:3|0:3,0:0:0:0:
153,334,167830,2,0,P|133:288|133:236,2,100,2|2|8,3:0|0:3|3:3,0:0:0:0:
14,156,168330,6,0,B|33:176|63:179|87:165|98:144|98:144|111:118|139:106|166:113|183:130,1,200,2|2,0:3|0:3,0:0:0:0:
256,192,168830,1,10,3:3:0:0:
498,156,168997,2,0,B|479:176|449:179|425:165|414:144|414:144|401:118|373:106|346:113|329:130,1,200,2|2,0:3|0:3,0:0:0:0:
360,208,169497,5,10,3:3:0:0:
255,100,169663,1,2,0:3:0:0:
256,192,169830,6,0,P|245:246|255:291,1,100,2|2,3:0|0:3,0:0:0:0:
181,131,170163,2,0,P|131:131|85:112,1,100,10|2,3:3|0:3,0:0:0:0:
331,131,170497,2,0,P|380:131|426:112,1,100,2|2,3:0|0:3,0:0:0:0:
255,0,170830,6,0,L|255:112,1,100,8|2,3:3|3:3,0:0:0:0:
256,252,171163,1,2,3:0:0:0:
256,364,171330,1,2,0:3:0:0:
184,308,171496,1,8,3:3:0:0:
328,308,171663,2,0,P|378:311|448:308,1,100,2|0,0:3|3:0,0:0:0:0:
256,176,171996,2,0,P|156:170|16:176,1,200,2|2,0:3|0:0,0:0:0:0:
346,219,172496,6,0,L|443:199,1,100,6|2,3:0|0:3,0:0:0:0:
255,100,172829,2,0,L|255:0,1,100,8|2,3:3|0:3,0:0:0:0:
166,219,173163,2,0,L|69:199,2,100,2|2|8,3:0|0:3|3:3,0:0:0:0:
334,138,173663,6,0,B|333:110|352:87|379:80|401:87|401:87|429:96|457:84|471:60|471:36,1,200,2|2,0:3|0:3,0:0:0:0:
258,192,174163,1,10,3:3:0:0:
178,138,174330,2,0,B|178:110|159:87|132:80|110:87|110:87|82:96|54:84|40:60|40:36,1,200,2|2,0:3|0:3,0:0:0:0:
224,32,174830,5,10,3:3:0:0:
96,174,174996,1,2,0:3:0:0:
160,237,175163,6,0,P|176:293|177:359,1,100,2|2,3:0|0:3,0:0:0:0:
342,252,175496,2,0,P|383:210|440:176,1,100,10|2,3:3|0:3,0:0:0:0:
265,86,175830,2,0,P|208:72|150:40,1,100,2|2,3:0|0:3,0:0:0:0:
256,192,176163,1,8,3:3:0:0:
256,192,176330,1,2,3:3:0:0:
256,192,176496,12,0,177162,3:0:0:0:
160,237,177330,6,0,P|176:293|177:359,2,100,2|8|2,0:3|3:3|0:3,0:0:0:0:
352,147,177830,2,0,P|336:91|335:25,2,100,0|2|8,3:0|0:0|3:3,0:0:0:0:
304,240,178330,5,2,0:0:0:0:
208,144,178496,2,0,B|137:105|137:105|110:129|32:136,2,150,2|2|2,3:0|0:0|0:0,0:0:0:0:
256,192,179163,12,0,179830,3:0:0:0:
211,96,179996,6,0,P|155:112|89:113,2,100,2|8|2,0:3|3:3|0:3,0:0:0:0:
301,288,180496,2,0,P|357:272|423:271,2,100,0|2|8,3:0|0:0|3:3,0:0:0:0:
208,240,180996,5,2,0:0:0:0:
304,144,181163,2,0,B|343:73|343:73|319:46|312:-32,1,150,2|2,3:0|0:0,0:0:0:0:
113,114,181663,2,0,B|92:151|92:151|105:165|108:207,1,100,2|4,0:0|3:0,0:0:0:0:
266,207,183163,6,0,P|262:163|255:107,1,100,4|0,3:3|3:3,0:0:0:0:
174,40,183496,1,8,0:3:0:0:
113,119,183662,2,0,P|117:163|124:219,2,100,0|0|8,3:3|3:3|0:3,0:0:0:0:
26,60,184162,2,0,P|30:109|36:159,1,100,0|0,3:3|3:3,0:0:0:0:
7,231,184496,5,8,0:3:0:0:
7,231,184663,1,0,3:3:0:0:
85,240,184829,1,0,3:3:0:0:
35,307,184996,1,8,0:3:0:0:
68,380,185162,6,0,L|118:385,3,50,2|2|2|2,0:3|0:3|0:3|0:3,0:0:0:0:
155,358,185496,6,0,P|219:366|266:370,1,100,4|0,3:3|3:3,0:0:0:0:
334,300,185829,1,8,0:3:0:0:
269,223,185996,2,0,P|219:218|169:211,2,100,0|0|8,3:3|3:3|0:3,0:0:0:0:
231,129,186496,2,0,P|280:135|330:140,1,100,0|0,3:3|3:3,0:0:0:0:
175,73,186829,5,8,0:3:0:0:
175,73,186996,1,0,3:3:0:0:
198,0,187163,1,0,3:3:0:0:
120,15,187329,1,8,0:3:0:0:
42,34,187496,6,0,P|47:63|51:88,4,40,2|2|2|2|2,0:3|0:3|0:3|0:3|0:3,0:0:0:0:
52,88,187829,6,0,P|61:140|70:207,1,100,4|0,3:3|3:3,0:0:0:0:
168,223,188162,2,0,P|161:174|153:125,1,100,8|0,0:3|3:3,0:0:0:0:
235,64,188495,6,0,P|242:102|245:126,4,50,0|2|10|2|4,3:3|0:3|3:3|0:3|3:3,0:0:0:0:
313,7,188995,1,0,3:3:0:0:
358,98,189162,2,0,P|405:88|465:78,1,100,8|0,0:3|3:3,0:0:0:0:
312,182,189495,5,0,3:0:0:0:
299,183,189578,1,2,0:3:0:0:
287,186,189661,1,10,3:3:0:0:
274,188,189744,1,2,0:3:0:0:
262,190,189828,1,4,3:3:0:0:
186,204,189995,1,0,3:3:0:0:
238,264,190162,2,0,P|247:312|254:362,1,100,8|0,0:3|3:3,0:0:0:0:
341,380,190495,6,0,P|335:341|332:321,4,50,0|2|10|2|4,3:3|0:3|3:3|0:3|3:3,0:0:0:0:
256,192,190912,12,4,191829,3:3:0:0:
256,192,191995,12,4,192828,3:3:0:0:
256,192,192995,12,4,193828,3:3:0:0:
256,192,193995,12,4,194829,0:3:0:0:
