osu file format v14

[General]
AudioFilename: audio.ogg
AudioLeadIn: 0
PreviewTime: 101785
Countdown: 0
SampleSet: Normal
StackLeniency: 0.7
Mode: 1
LetterboxInBreaks: 0
WidescreenStoryboard: 0

[Editor]
DistanceSpacing: 1.7
BeatDivisor: 4
GridSize: 4
TimelineZoom: 2.599999

[Metadata]
Title:Mondainai Tripper!
TitleUnicode:モンダイナイトリッパー!
Artist:Natori Sana
ArtistUnicode:名取さな
Creator:komasy
Version:Oni!
Source:
Tags:Japanese jpop j-pop Pop sasakure.uk 岸田勇気 Kishida Yuki 有形ランペイジ UK Yukei Rampage Ryo Uemura さなのばくたん。 Sana no Bakutan. メチャ・ハッピー・ショー Mecha Happy Show バーチャルYouTuber バーチャルサナトリウム Virtual Sanatorium YouTuber VTuber
BeatmapID:3619269
BeatmapSetID:1767410

[Difficulty]
HPDrainRate:5.5
CircleSize:7
OverallDifficulty:5.5
ApproachRate:10
SliderMultiplier:1.4
SliderTickRate:1

[Events]
//Background and Video events
Video,-330,"output.mp4"
0,0,"oni.jpg",0,0
//Break Periods
//Storyboard Layer 0 (Background)
//Storyboard Layer 1 (Fail)
//Storyboard Layer 2 (Pass)
//Storyboard Layer 3 (Foreground)
//Storyboard Layer 4 (Overlay)
//Storyboard Sound Samples

[TimingPoints]
163,333.333333333333,4,1,0,5,1,0
163,-133.333333333333,4,1,0,5,0,0
746,-111.111111111111,4,1,0,60,0,0
808,-111.111111111111,4,1,0,60,0,0
892,-109.595793624712,4,1,0,60,0,0
975,-108.103727714749,4,1,0,60,0,0
1142,-105.271464646465,4,1,0,60,0,0
1225,-103.894080996885,4,1,0,60,0,0
1308,-102.568045517453,4,1,0,60,0,0
1475,-100,4,1,0,90,0,0
1496,333.333333333333,3,1,0,90,1,0
2496,333.333333333333,4,1,0,90,1,0
3829,333.333333333333,3,1,0,90,1,0
4829,333.333333333333,4,1,0,90,1,0
6162,333.333333333333,3,1,0,90,1,0
9141,-100,4,1,0,20,0,0
9162,333.333333333333,7,1,0,20,1,0
9162,-100,7,1,0,20,0,0
11411,-125,7,1,0,70,0,0
11495,333.333333333333,4,1,0,70,1,0
11495,-125,4,1,0,70,0,0
19474,-120.019203072492,4,1,0,70,0,0
19640,-115.393491807062,4,1,0,70,0,0
19807,-111.111111111111,4,1,0,70,0,0
19974,-107.158165452207,4,1,0,70,0,0
20140,-103.455410717981,4,1,0,70,0,0
20224,-101.708706265256,4,1,0,70,0,0
20307,-100,4,1,0,70,0,0
20474,-96.786682152536,4,1,0,70,0,0
20640,-93.755859741234,4,1,0,70,0,0
20974,-88.245675961878,4,1,0,70,0,0
21307,-83.333333333333,4,1,0,70,0,0
21494,-83.333333333333,4,1,0,30,0,0
22133,-100,4,1,0,90,0,0
30304,-95.282344531808,4,1,0,90,0,0
30638,-90.940100968754,4,1,0,90,0,0
30971,-86.987731662751,4,1,0,90,0,0
31304,-83.364602876798,4,1,0,90,0,0
31408,-71.428571428571,4,1,0,50,0,0
32742,-86.95652173913,4,1,0,90,0,0
35408,-93.023255813953,4,1,0,90,0,0
38138,-100,4,1,0,90,0,0
38307,-98.681613641746,4,1,0,90,0,0
38474,-97.405127405907,4,1,0,90,0,0
38640,-96.153846153846,4,1,0,90,0,0
38807,-94.934305460621,4,1,0,90,0,0
38974,-93.752343808595,4,1,0,90,0,0
39140,-92.592592592593,4,1,0,90,0,0
39307,-91.461183873564,4,1,0,90,0,0
39474,-90.363623219837,4,1,0,90,0,0
39557,-89.818207947115,4,1,0,90,0,0
39640,-89.285714285714,4,1,0,90,0,0
39807,-88.233218041928,4,1,0,90,0,0
39890,-87.719298245614,4,1,0,90,0,0
39974,-87.211330496058,4,1,0,90,0,0
40140,-86.206896551724,4,1,0,90,0,0
40390,-84.745762711864,4,1,0,90,0,0
40640,-83.333333333333,4,1,0,90,0,0
40804,-100,4,1,0,90,0,0
41140,-98.211416943344,4,1,0,90,0,0
41390,-95.650359862314,4,1,0,90,0,0
41474,-94.82936918304,4,1,0,90,0,0
41640,-93.219477482972,4,1,0,90,0,0
41807,-91.663334666134,4,1,0,90,0,0
41890,-90.909090909091,4,1,0,90,0,0
41974,-90.167158308751,4,1,0,90,0,0
42140,-88.710457579569,4,1,0,90,0,0
42307,-87.300076161462,4,1,0,90,0,0
42474,-85.941893158388,4,1,0,90,0,0
42557,-85.270596987168,4,1,0,90,0,0
42640,-84.61751407216,4,1,0,90,0,0
42724,-83.974358974359,4,1,0,90,0,0
42807,-83.333333333333,4,1,0,50,0,0
43471,-90.909090909091,4,1,0,90,0,0
43494,-90.909090909091,4,1,0,90,0,1
66078,-90.909090909091,4,1,0,60,0,1
66161,-90.909090909091,4,1,0,60,0,0
67471,-100,4,1,0,90,0,0
67495,333.333333333333,4,1,0,90,1,0
68828,333.333333333333,3,1,0,90,1,0
69828,333.333333333333,4,1,0,90,1,0
71161,333.333333333333,3,1,0,90,1,0
72161,333.333333333333,4,1,0,90,1,0
73494,333.333333333333,3,1,0,90,1,0
74494,333.333333333333,3,1,0,90,1,0
74639,-99.009900990099,4,1,0,90,0,0
74806,-97.17850064125,4,1,0,90,0,0
74993,-95.413621195904,4,1,0,90,0,0
75139,-93.72171341508,4,1,0,90,0,0
75306,-92.079098541759,4,1,0,90,0,0
75493,-90.493070521624,4,1,0,90,0,0
75639,-88.969775894368,4,1,0,90,0,0
75806,-87.488191455862,4,1,0,90,0,0
75993,-86.055143433843,4,1,0,90,0,0
76306,-83.333333333333,4,1,0,90,0,0
76410,-83.333333333333,3,1,0,50,0,0
76494,333.333333333333,4,1,0,50,1,0
76494,-83.333333333333,4,1,0,50,0,0
76556,-85.099591419816,4,1,0,50,0,0
76639,-86.942342812418,4,1,0,50,0,0
76743,-88.890370765537,4,1,0,50,0,0
76806,-90.902891434806,4,1,0,50,0,0
76993,-95.241497570734,4,1,0,50,0,0
77139,-99.98499849985,4,1,0,50,0,0
77243,-102.570021545091,4,1,0,50,0,0
77306,-105.259001895136,4,1,0,50,0,0
77389,-108.092766785598,4,1,0,50,0,0
77493,-111.120373457819,4,1,0,50,0,0
77639,-117.631486057183,4,1,0,50,0,0
77806,-125,4,1,0,70,0,0
81806,-125,4,1,0,70,0,0
81993,-123.072661804081,4,1,0,70,0,0
82139,-121.214876784578,4,1,0,70,0,0
82306,-119.401648154783,4,1,0,70,0,0
82493,-117.641867443297,4,1,0,70,0,0
82639,-115.943289553797,4,1,0,70,0,0
82806,-114.283264746228,4,1,0,70,0,0
82889,-113.475781050481,4,1,0,70,0,0
82993,-112.670103964162,4,1,0,70,0,0
83056,-111.885177102568,4,1,0,70,0,0
83139,-111.111111111111,4,1,0,70,0,0
87160,-111.111111111111,4,1,0,30,0,0
87973,-111.111111111111,4,1,0,50,0,0
88139,-107.158165452207,4,1,0,50,0,0
88306,-103.455410717981,4,1,0,50,0,0
88473,-100,4,1,0,80,0,0
93758,-100,4,1,0,90,0,0
96639,-98.640150277687,4,1,0,90,0,0
96806,-97.972013790306,4,1,0,90,0,0
96973,-97.316788203537,4,1,0,90,0,0
97306,-96.024647187438,4,1,0,90,0,0
97473,-95.39512657478,4,1,0,90,0,0
97639,-94.770087884495,4,1,0,90,0,0
97973,-93.54788737849,4,1,0,90,0,0
98139,-92.946744651378,4,1,0,90,0,0
98306,-92.353278531829,4,1,0,90,0,0
98473,-91.770829375784,4,1,0,90,0,0
98556,-91.478886574512,4,1,0,90,0,0
98639,-91.192237994564,4,1,0,90,0,0
98806,-90.620896642281,4,1,0,90,0,0
98973,-90.060027590321,4,1,0,90,0,0
99306,-88.952310808323,4,1,0,90,0,0
99473,-88.411844368801,4,1,0,90,0,0
99639,-87.874708963912,4,1,0,90,0,0
99806,-87.344060748508,4,1,0,90,0,0
99973,-86.822903562057,4,1,0,90,0,0
100056,-86.561548109658,4,1,0,90,0,0
100139,-86.304844933543,4,1,0,90,0,0
100306,-85.792931983662,4,1,0,90,0,0
100473,-85.290067441121,4,1,0,90,0,0
100639,-84.790087054198,4,1,0,90,0,0
100806,-84.295934391904,4,1,0,90,0,0
100889,-84.052474076136,4,1,0,90,0,0
100973,-83.810416016099,4,1,0,90,0,0
101056,-83.566856945165,4,1,0,90,0,0
101132,-82.98755186722,4,1,0,50,0,0
101806,-90.909090909091,4,1,0,90,0,0
101827,-90.909090909091,4,1,0,90,0,1
123306,-91.956401766004,4,1,0,90,0,1
123473,-93.021632937893,4,1,0,90,0,1
123556,-93.570124947354,4,1,0,90,0,1
123639,-94.118477723646,4,1,0,90,0,1
123806,-95.241497570734,4,1,0,90,0,1
123973,-96.384671005061,4,1,0,90,0,1
124056,-96.973665066201,4,1,0,90,0,1
124139,-97.562760740687,4,1,0,90,0,1
124223,-98.159057437408,4,1,0,90,0,1
124306,-98.770005927682,4,1,0,90,0,1
124473,-100,4,1,0,90,0,1
124493,-100,4,1,0,90,0,0
135160,333.333333333333,3,1,0,80,1,0
139139,-100,3,1,0,20,0,0
140139,-111.111111111111,3,1,0,20,0,0
141139,-125,3,1,0,20,0,0
142136,-125,3,1,0,40,0,0
142160,375,4,1,0,40,1,0
142160,-125,4,1,0,40,0,0
152472,-125,4,1,0,30,0,0
154066,-111.111111111111,4,1,0,50,0,0
155660,333.333333333333,4,1,0,50,1,0
155660,-111.111111111111,4,1,0,50,0,0
155722,-109.222008275636,4,1,0,50,0,0
155805,-107.39606832098,4,1,0,50,0,0
155909,-105.609253684044,4,1,0,50,0,0
155972,-103.901165283137,4,1,0,50,0,0
156159,-100.626556956292,4,1,0,50,0,0
156305,-97.569901917728,4,1,0,50,0,0
156409,-96.092848904268,4,1,0,50,0,0
156472,-94.67665755176,4,1,0,50,0,0
156555,-93.301602855743,4,1,0,50,0,0
156659,-91.950058632821,4,1,0,50,0,0
156805,-89.391094420601,4,1,0,50,0,0
156972,-86.95652173913,4,1,0,90,0,0
156993,-86.95652173913,4,1,0,90,0,1
182298,-86.95652173913,4,1,0,60,0,1
182326,-86.95652173913,4,1,0,60,0,0
183632,-100,4,1,0,90,0,0
183660,333.333333333333,3,1,0,90,1,0
184660,333.333333333333,4,1,0,90,1,0
185993,333.333333333333,3,1,0,90,1,0
186993,333.333333333333,4,1,0,90,1,0
188326,333.333333333333,3,1,0,90,1,0
191325,-100,4,1,0,90,0,0
191638,-98.362268233905,4,1,0,90,0,0
191825,-97.560975609756,4,1,0,90,0,0
191971,-96.777315397271,4,1,0,90,0,0
192138,-96.001536024576,4,1,0,90,0,0
192325,-95.238095238095,4,1,0,90,0,0
192575,-94.117647058824,4,1,0,90,0,0
192638,-93.751464866639,4,1,0,90,0,0
192825,-93.023255813953,4,1,0,90,0,0
192971,-92.310532631773,4,1,0,90,0,0
193138,-91.604451976366,4,1,0,90,0,0
193325,-90.909090909091,4,1,0,90,0,0
193575,-89.887640449438,4,1,0,90,0,0
193638,-89.553575426499,4,1,0,90,0,0
193825,-88.888888888889,4,1,0,90,0,0
193971,-88.237889349687,4,1,0,90,0,0
194075,-87.912087912088,4,1,0,90,0,0
194138,-87.592519598826,4,1,0,90,0,0
194221,-87.275266189562,4,1,0,90,0,0
194325,-86.95652173913,4,1,0,90,0,0
194471,-86.333419666753,4,1,0,90,0,0
194638,-85.715510221575,4,1,0,90,0,0
194825,-85.106382978723,4,1,0,90,0,0
194888,-84.806852393673,4,1,0,90,0,0
194971,-84.509422800642,4,1,0,90,0,0
195075,-84.210526315789,4,1,0,90,0,0
195138,-83.917257584022,4,1,0,90,0,0
195305,-83.333333333333,4,1,0,90,0,0
195326,333.333333333333,4,1,0,90,1,0
195326,-83.333333333333,4,1,0,90,0,0
195346,-66.666666666667,4,1,0,10,0,0
195992,-66.666666666667,4,1,0,5,0,0
196659,-90.909090909091,4,1,0,5,0,0
197992,-100,4,1,0,5,0,0
199326,-125,4,1,0,5,0,0
200659,-166.666666666667,4,1,0,5,0,0

[HitObjects]
160,96,829,5,0,0:0:0:0:
160,96,912,5,0,0:0:0:0:
160,96,996,5,0,0:0:0:0:
352,96,1162,5,8,0:0:0:0:
352,96,1246,5,8,0:0:0:0:
352,96,1329,5,8,0:0:0:0:
160,288,1496,5,4,0:0:0:0:
352,96,1829,5,8,0:0:0:0:
160,96,1995,5,0,0:0:0:0:
352,96,2162,5,8,0:0:0:0:
352,96,2245,5,8,0:0:0:0:
160,96,2329,5,0,0:0:0:0:
352,96,2495,5,8,0:0:0:0:
160,96,2662,5,0,0:0:0:0:
160,96,2829,5,0,0:0:0:0:
352,96,2995,5,8,0:0:0:0:
160,96,3162,5,0,0:0:0:0:
352,96,3329,5,8,0:0:0:0:
160,96,3495,5,0,0:0:0:0:
160,96,3579,5,0,0:0:0:0:
160,96,3662,5,0,0:0:0:0:
160,96,3745,5,0,0:0:0:0:
352,96,3829,5,8,0:0:0:0:
160,96,4162,5,0,0:0:0:0:
352,96,4328,5,8,0:0:0:0:
160,96,4495,5,0,0:0:0:0:
160,96,4578,5,0,0:0:0:0:
352,96,4662,5,8,0:0:0:0:
160,96,4828,5,0,0:0:0:0:
352,96,4995,5,8,0:0:0:0:
352,96,5162,5,8,0:0:0:0:
160,96,5328,5,0,0:0:0:0:
352,96,5495,5,8,0:0:0:0:
160,96,5662,5,0,0:0:0:0:
352,96,5828,5,8,0:0:0:0:
352,96,5912,5,8,0:0:0:0:
352,96,5995,5,8,0:0:0:0:
352,96,6078,5,8,0:0:0:0:
160,96,6162,5,0,0:0:0:0:
352,96,6495,5,8,0:0:0:0:
160,96,6661,5,0,0:0:0:0:
352,96,6828,5,8,0:0:0:0:
160,96,6911,5,0,0:0:0:0:
160,96,6995,5,0,0:0:0:0:
160,96,7078,5,0,0:0:0:0:
352,96,7161,5,8,0:0:0:0:
160,96,7328,5,0,0:0:0:0:
160,96,7495,5,0,0:0:0:0:
352,96,7661,5,8,0:0:0:0:
160,96,7828,5,0,0:0:0:0:
352,96,7911,5,8,0:0:0:0:
352,96,7995,5,8,0:0:0:0:
352,96,8078,5,8,0:0:0:0:
160,96,8161,5,0,0:0:0:0:
352,96,8328,5,8,0:0:0:0:
352,96,8495,5,8,0:0:0:0:
160,96,8661,5,0,0:0:0:0:
352,96,8828,5,8,0:0:0:0:
352,96,8911,5,8,0:0:0:0:
352,96,8995,5,8,0:0:0:0:
352,96,9078,5,8,0:0:0:0:
256,192,9162,12,0,11328,0:0:0:0:
352,96,11495,5,8,0:0:0:0:
160,96,11661,5,0,0:0:0:0:
352,96,11828,5,8,0:0:0:0:
160,96,12161,5,0,0:0:0:0:
352,96,12328,5,8,0:0:0:0:
352,96,12661,5,8,0:0:0:0:
160,96,12828,5,0,0:0:0:0:
160,96,12994,5,0,0:0:0:0:
352,96,13328,5,8,0:0:0:0:
160,96,13661,5,0,0:0:0:0:
352,96,13828,5,8,0:0:0:0:
352,96,13994,5,8,0:0:0:0:
160,96,14161,5,0,0:0:0:0:
352,96,14494,5,8,0:0:0:0:
160,96,14661,5,0,0:0:0:0:
352,96,14994,5,8,0:0:0:0:
352,96,15328,5,8,0:0:0:0:
160,96,15494,5,0,0:0:0:0:
352,96,15661,5,8,0:0:0:0:
160,96,15994,5,0,0:0:0:0:
352,96,16328,5,8,0:0:0:0:
352,96,16494,5,8,0:0:0:0:
160,96,16828,5,0,0:0:0:0:
160,96,16994,5,0,0:0:0:0:
352,96,17161,5,8,0:0:0:0:
352,96,17494,5,8,0:0:0:0:
352,96,17661,5,8,0:0:0:0:
160,96,17828,5,0,0:0:0:0:
352,96,17994,5,8,0:0:0:0:
160,96,18161,5,0,0:0:0:0:
160,96,18328,5,0,0:0:0:0:
352,96,18661,5,8,0:0:0:0:
160,96,18994,5,0,0:0:0:0:
160,96,19328,5,0,0:0:0:0:
352,96,19494,5,8,0:0:0:0:
352,96,19828,5,8,0:0:0:0:
160,96,19994,5,0,0:0:0:0:
352,96,20161,5,8,0:0:0:0:
352,96,20244,5,8,0:0:0:0:
352,96,20328,5,8,0:0:0:0:
352,96,20494,5,8,0:0:0:0:
160,288,20661,5,4,0:0:0:0:
352,288,20994,5,12,0:0:0:0:
352,288,21328,5,12,0:0:0:0:
160,96,22161,5,0,0:0:0:0:
352,96,22328,5,8,0:0:0:0:
160,96,22494,5,0,0:0:0:0:
352,96,22661,5,8,0:0:0:0:
160,96,22828,5,0,0:0:0:0:
160,96,22911,5,0,0:0:0:0:
352,96,22994,5,8,0:0:0:0:
160,96,23161,5,0,0:0:0:0:
352,96,23328,5,8,0:0:0:0:
352,96,23411,5,8,0:0:0:0:
160,96,23494,5,0,0:0:0:0:
352,96,23661,5,8,0:0:0:0:
160,96,23828,5,0,0:0:0:0:
352,96,23994,5,8,0:0:0:0:
352,96,24328,5,8,0:0:0:0:
160,96,24494,5,0,0:0:0:0:
352,96,24661,5,8,0:0:0:0:
352,96,24744,5,8,0:0:0:0:
160,96,24828,5,0,0:0:0:0:
352,96,24994,5,8,0:0:0:0:
160,96,25161,5,0,0:0:0:0:
160,96,25244,5,0,0:0:0:0:
352,96,25328,5,8,0:0:0:0:
352,96,25411,5,8,0:0:0:0:
160,96,25494,5,0,0:0:0:0:
352,96,25661,5,8,0:0:0:0:
160,96,25828,5,0,0:0:0:0:
352,96,25994,5,8,0:0:0:0:
352,96,26328,5,8,0:0:0:0:
160,96,26494,5,0,0:0:0:0:
352,96,26661,5,8,0:0:0:0:
352,96,26994,5,8,0:0:0:0:
160,96,27161,5,0,0:0:0:0:
160,96,27244,5,0,0:0:0:0:
160,96,27328,5,0,0:0:0:0:
160,96,27411,5,0,0:0:0:0:
352,96,27494,5,8,0:0:0:0:
352,96,27828,5,8,0:0:0:0:
160,96,27911,5,0,0:0:0:0:
352,96,27994,5,8,0:0:0:0:
352,96,28161,5,8,0:0:0:0:
160,96,28328,5,0,0:0:0:0:
352,96,28494,5,8,0:0:0:0:
352,96,28661,5,8,0:0:0:0:
160,96,28994,5,0,0:0:0:0:
352,96,29161,5,8,0:0:0:0:
160,96,29328,5,0,0:0:0:0:
352,96,29494,5,8,0:0:0:0:
160,96,29578,5,0,0:0:0:0:
160,96,29661,5,0,0:0:0:0:
160,96,29828,5,0,0:0:0:0:
352,288,29994,5,12,0:0:0:0:
352,96,30328,5,8,0:0:0:0:
160,288,30661,5,4,0:0:0:0:
160,96,30994,5,0,0:0:0:0:
352,288,31328,5,12,0:0:0:0:
256,192,31494,12,0,32494,0:0:0:0:
160,288,32828,5,4,0:0:0:0:
352,96,32994,5,8,0:0:0:0:
160,96,33078,5,0,0:0:0:0:
352,96,33161,5,8,0:0:0:0:
160,96,33328,5,0,0:0:0:0:
352,96,33494,5,8,0:0:0:0:
160,96,33828,5,0,0:0:0:0:
352,96,33994,5,8,0:0:0:0:
352,96,34078,5,8,0:0:0:0:
160,96,34161,5,0,0:0:0:0:
352,96,34328,5,8,0:0:0:0:
160,96,34411,5,0,0:0:0:0:
352,96,34494,5,8,0:0:0:0:
160,96,34661,5,0,0:0:0:0:
352,96,34828,5,8,0:0:0:0:
352,96,34911,5,8,0:0:0:0:
352,96,34994,5,8,0:0:0:0:
160,96,35161,5,0,0:0:0:0:
160,96,35494,5,0,0:0:0:0:
352,96,35578,5,8,0:0:0:0:
160,96,35661,5,0,0:0:0:0:
352,96,35744,5,8,0:0:0:0:
160,96,35828,5,0,0:0:0:0:
352,96,35994,5,8,0:0:0:0:
160,96,36161,5,0,0:0:0:0:
160,96,36328,5,0,0:0:0:0:
352,96,36494,5,8,0:0:0:0:
352,96,36661,5,8,0:0:0:0:
160,96,36828,5,0,0:0:0:0:
352,96,36911,5,8,0:0:0:0:
160,96,36994,5,0,0:0:0:0:
352,96,37078,5,8,0:0:0:0:
160,96,37161,5,0,0:0:0:0:
352,96,37328,5,8,0:0:0:0:
160,96,37494,5,0,0:0:0:0:
160,96,37578,5,0,0:0:0:0:
160,96,37661,5,0,0:0:0:0:
160,96,37744,5,0,0:0:0:0:
160,96,38161,5,0,0:0:0:0:
160,96,38328,5,0,0:0:0:0:
160,96,38494,5,0,0:0:0:0:
352,96,38661,5,8,0:0:0:0:
352,96,38828,5,8,0:0:0:0:
160,96,38994,5,0,0:0:0:0:
352,96,39161,5,8,0:0:0:0:
160,96,39328,5,0,0:0:0:0:
160,96,39494,5,0,0:0:0:0:
160,96,39578,5,0,0:0:0:0:
352,96,39661,5,8,0:0:0:0:
160,96,39828,5,0,0:0:0:0:
160,96,39911,5,0,0:0:0:0:
352,96,39994,5,8,0:0:0:0:
160,288,40161,5,4,0:0:0:0:
352,288,40411,5,12,0:0:0:0:
352,288,40661,5,12,0:0:0:0:
160,96,40994,5,0,0:0:0:0:
352,96,41161,5,8,0:0:0:0:
160,96,41411,5,0,0:0:0:0:
352,96,41494,5,8,0:0:0:0:
160,96,41661,5,0,0:0:0:0:
160,96,41828,5,0,0:0:0:0:
160,96,41911,5,0,0:0:0:0:
352,96,41994,5,8,0:0:0:0:
160,96,42161,5,0,0:0:0:0:
160,96,42328,5,0,0:0:0:0:
352,96,42494,5,8,0:0:0:0:
352,96,42578,5,8,0:0:0:0:
352,96,42661,5,8,0:0:0:0:
352,96,42744,5,8,0:0:0:0:
256,192,42828,12,0,43328,0:0:0:0:
160,288,43494,5,4,0:0:0:0:
352,96,43661,5,8,0:0:0:0:
352,96,43744,5,8,0:0:0:0:
160,96,43828,5,0,0:0:0:0:
352,96,43994,5,8,0:0:0:0:
160,96,44161,5,0,0:0:0:0:
160,96,44244,5,0,0:0:0:0:
352,96,44328,5,8,0:0:0:0:
160,96,44494,5,0,0:0:0:0:
352,96,44661,5,8,0:0:0:0:
160,96,44994,5,0,0:0:0:0:
352,96,45161,5,8,0:0:0:0:
352,96,45328,5,8,0:0:0:0:
352,96,45661,5,8,0:0:0:0:
160,96,45828,5,0,0:0:0:0:
160,96,45911,5,0,0:0:0:0:
160,96,45994,5,0,0:0:0:0:
352,96,46161,5,8,0:0:0:0:
160,96,46328,5,0,0:0:0:0:
352,96,46494,5,8,0:0:0:0:
160,96,46661,5,0,0:0:0:0:
352,96,46828,5,8,0:0:0:0:
160,96,46994,5,0,0:0:0:0:
352,96,47078,5,8,0:0:0:0:
160,96,47161,5,0,0:0:0:0:
352,96,47328,5,8,0:0:0:0:
352,96,47661,5,8,0:0:0:0:
160,96,47828,5,0,0:0:0:0:
352,96,47994,5,8,0:0:0:0:
352,96,48078,5,8,0:0:0:0:
160,96,48161,5,0,0:0:0:0:
352,96,48328,5,8,0:0:0:0:
160,288,48828,5,4,0:0:0:0:
352,96,48994,5,8,0:0:0:0:
352,96,49078,5,8,0:0:0:0:
160,96,49161,5,0,0:0:0:0:
352,96,49328,5,8,0:0:0:0:
160,96,49494,5,0,0:0:0:0:
160,96,49578,5,0,0:0:0:0:
352,96,49661,5,8,0:0:0:0:
160,96,49828,5,0,0:0:0:0:
352,96,49994,5,8,0:0:0:0:
352,96,50244,5,8,0:0:0:0:
160,96,50328,5,0,0:0:0:0:
352,96,50494,5,8,0:0:0:0:
160,96,50661,5,0,0:0:0:0:
352,96,50994,5,8,0:0:0:0:
352,96,51078,5,8,0:0:0:0:
160,96,51161,5,0,0:0:0:0:
160,96,51328,5,0,0:0:0:0:
352,96,51494,5,8,0:0:0:0:
160,96,51661,5,0,0:0:0:0:
160,96,51744,5,0,0:0:0:0:
352,96,51828,5,8,0:0:0:0:
160,96,51994,5,0,0:0:0:0:
352,96,52161,5,8,0:0:0:0:
352,96,52328,5,8,0:0:0:0:
160,96,52494,5,0,0:0:0:0:
352,96,52661,5,8,0:0:0:0:
352,96,52994,5,8,0:0:0:0:
160,96,53161,5,0,0:0:0:0:
352,96,53328,5,8,0:0:0:0:
160,96,53494,5,0,0:0:0:0:
160,96,53578,5,0,0:0:0:0:
352,96,53661,5,8,0:0:0:0:
160,96,53744,5,0,0:0:0:0:
352,96,53828,5,8,0:0:0:0:
160,288,54161,5,4,0:0:0:0:
352,96,54328,5,8,0:0:0:0:
352,96,54411,5,8,0:0:0:0:
160,96,54494,5,0,0:0:0:0:
352,96,54661,5,8,0:0:0:0:
160,96,54828,5,0,0:0:0:0:
160,96,54911,5,0,0:0:0:0:
352,96,54994,5,8,0:0:0:0:
160,96,55161,5,0,0:0:0:0:
352,96,55328,5,8,0:0:0:0:
160,96,55661,5,0,0:0:0:0:
352,96,55828,5,8,0:0:0:0:
352,96,55994,5,8,0:0:0:0:
160,96,56328,5,0,0:0:0:0:
352,96,56494,5,8,0:0:0:0:
352,96,56578,5,8,0:0:0:0:
160,96,56661,5,0,0:0:0:0:
352,96,56828,5,8,0:0:0:0:
160,96,56994,5,0,0:0:0:0:
352,96,57161,5,8,0:0:0:0:
160,96,57328,5,0,0:0:0:0:
352,96,57494,5,8,0:0:0:0:
160,96,57661,5,0,0:0:0:0:
352,96,57744,5,8,0:0:0:0:
160,96,57828,5,0,0:0:0:0:
352,96,57994,5,8,0:0:0:0:
352,96,58161,5,8,0:0:0:0:
160,96,58328,5,0,0:0:0:0:
160,96,58494,5,0,0:0:0:0:
352,96,58661,5,8,0:0:0:0:
352,96,58744,5,8,0:0:0:0:
352,96,58828,5,8,0:0:0:0:
160,96,58994,5,0,0:0:0:0:
160,288,59494,5,4,0:0:0:0:
352,288,59661,5,12,0:0:0:0:
352,96,59994,5,8,0:0:0:0:
160,96,60161,5,0,0:0:0:0:
160,96,60244,5,0,0:0:0:0:
352,96,60328,5,8,0:0:0:0:
160,96,60494,5,0,0:0:0:0:
352,96,60661,5,8,0:0:0:0:
160,96,60994,5,0,0:0:0:0:
352,96,61161,5,8,0:0:0:0:
352,96,61244,5,8,0:0:0:0:
160,96,61328,5,0,0:0:0:0:
160,96,61661,5,0,0:0:0:0:
352,96,61828,5,8,0:0:0:0:
160,96,61994,5,0,0:0:0:0:
352,96,62161,5,8,0:0:0:0:
160,96,62328,5,0,0:0:0:0:
160,96,62411,5,0,0:0:0:0:
160,96,62494,5,0,0:0:0:0:
352,96,62661,5,8,0:0:0:0:
160,96,62828,5,0,0:0:0:0:
352,96,62994,5,8,0:0:0:0:
352,96,63078,5,8,0:0:0:0:
160,96,63161,5,0,0:0:0:0:
352,96,63328,5,8,0:0:0:0:
160,96,63661,5,0,0:0:0:0:
352,96,63828,5,8,0:0:0:0:
160,96,63994,5,0,0:0:0:0:
160,96,64078,5,0,0:0:0:0:
352,96,64161,5,8,0:0:0:0:
160,96,64328,5,0,0:0:0:0:
352,96,64494,5,8,0:0:0:0:
352,96,64661,5,8,0:0:0:0:
352,96,64744,5,8,0:0:0:0:
160,96,64828,5,0,0:0:0:0:
352,96,64994,5,8,0:0:0:0:
160,96,65161,5,0,0:0:0:0:
352,96,65244,5,8,0:0:0:0:
160,96,65328,5,0,0:0:0:0:
352,96,65494,5,8,0:0:0:0:
160,96,65661,5,0,0:0:0:0:
160,96,65744,5,0,0:0:0:0:
352,96,65828,5,8,0:0:0:0:
352,96,65911,5,8,0:0:0:0:
160,96,65994,5,0,0:0:0:0:
256,192,66161,12,0,66994,0:0:0:0:
160,288,67494,5,4,0:0:0:0:
352,96,67661,5,8,0:0:0:0:
352,96,67828,5,8,0:0:0:0:
352,96,68161,5,8,0:0:0:0:
352,96,68245,5,8,0:0:0:0:
160,96,68328,5,0,0:0:0:0:
352,96,68495,5,8,0:0:0:0:
160,96,68661,5,0,0:0:0:0:
160,96,68828,5,0,0:0:0:0:
352,96,68994,5,8,0:0:0:0:
352,96,69328,5,8,0:0:0:0:
160,96,69494,5,0,0:0:0:0:
160,96,69578,5,0,0:0:0:0:
160,96,69661,5,0,0:0:0:0:
160,96,69744,5,0,0:0:0:0:
352,96,69828,5,8,0:0:0:0:
160,96,69994,5,0,0:0:0:0:
352,96,70161,5,8,0:0:0:0:
352,96,70494,5,8,0:0:0:0:
160,96,70578,5,0,0:0:0:0:
352,96,70661,5,8,0:0:0:0:
160,96,70828,5,0,0:0:0:0:
352,96,70994,5,8,0:0:0:0:
160,96,71161,5,0,0:0:0:0:
352,96,71327,5,8,0:0:0:0:
160,96,71661,5,0,0:0:0:0:
352,96,71827,5,8,0:0:0:0:
352,96,71911,5,8,0:0:0:0:
352,96,71994,5,8,0:0:0:0:
352,96,72077,5,8,0:0:0:0:
160,96,72161,5,0,0:0:0:0:
352,96,72327,5,8,0:0:0:0:
352,96,72494,5,8,0:0:0:0:
352,96,72827,5,8,0:0:0:0:
352,96,72911,5,8,0:0:0:0:
160,96,72994,5,0,0:0:0:0:
352,96,73161,5,8,0:0:0:0:
160,96,73327,5,0,0:0:0:0:
160,96,73494,5,0,0:0:0:0:
352,96,73660,5,8,0:0:0:0:
352,96,73994,5,8,0:0:0:0:
160,96,74160,5,0,0:0:0:0:
160,96,74244,5,0,0:0:0:0:
160,96,74327,5,0,0:0:0:0:
352,288,74494,5,12,0:0:0:0:
160,96,74660,5,0,0:0:0:0:
160,96,74827,5,0,0:0:0:0:
352,288,74994,5,12,0:0:0:0:
160,96,75160,5,0,0:0:0:0:
160,96,75327,5,0,0:0:0:0:
352,288,75494,5,12,0:0:0:0:
160,96,75660,5,0,0:0:0:0:
160,96,75827,5,0,0:0:0:0:
352,288,75994,5,12,0:0:0:0:
352,96,76327,5,8,0:0:0:0:
160,96,76494,5,0,0:0:0:0:
160,96,76577,5,0,0:0:0:0:
160,96,76660,5,0,0:0:0:0:
160,96,76744,5,0,0:0:0:0:
352,96,76827,5,8,0:0:0:0:
160,96,76994,5,0,0:0:0:0:
352,96,77160,5,8,0:0:0:0:
352,96,77244,5,8,0:0:0:0:
352,96,77327,5,8,0:0:0:0:
352,96,77410,5,8,0:0:0:0:
160,96,77494,5,0,0:0:0:0:
352,96,77660,5,8,0:0:0:0:
160,288,77827,5,4,0:0:0:0:
352,96,78160,5,8,0:0:0:0:
160,96,78327,5,0,0:0:0:0:
160,96,78660,5,0,0:0:0:0:
352,96,78827,5,8,0:0:0:0:
160,96,79160,5,0,0:0:0:0:
352,96,79494,5,8,0:0:0:0:
160,96,79660,5,0,0:0:0:0:
160,96,79994,5,0,0:0:0:0:
352,96,80160,5,8,0:0:0:0:
352,96,80327,5,8,0:0:0:0:
160,96,80494,5,0,0:0:0:0:
352,96,80827,5,8,0:0:0:0:
160,96,80994,5,0,0:0:0:0:
160,96,81327,5,0,0:0:0:0:
352,96,81494,5,8,0:0:0:0:
160,96,81827,5,0,0:0:0:0:
160,96,81994,5,0,0:0:0:0:
352,96,82160,5,8,0:0:0:0:
160,96,82327,5,0,0:0:0:0:
352,96,82494,5,8,0:0:0:0:
160,96,82660,5,0,0:0:0:0:
352,96,82827,5,8,0:0:0:0:
352,96,82910,5,8,0:0:0:0:
352,96,82994,5,8,0:0:0:0:
352,96,83077,5,8,0:0:0:0:
160,96,83160,5,0,0:0:0:0:
352,96,83494,5,8,0:0:0:0:
160,96,83660,5,0,0:0:0:0:
160,96,83827,5,0,0:0:0:0:
352,96,83993,5,8,0:0:0:0:
352,96,84327,5,8,0:0:0:0:
160,96,84493,5,0,0:0:0:0:
352,96,84660,5,8,0:0:0:0:
352,96,84743,5,8,0:0:0:0:
352,96,84827,5,8,0:0:0:0:
160,96,84993,5,0,0:0:0:0:
352,96,85160,5,8,0:0:0:0:
160,96,85327,5,0,0:0:0:0:
160,96,85660,5,0,0:0:0:0:
352,96,85827,5,8,0:0:0:0:
160,96,85993,5,0,0:0:0:0:
352,96,86160,5,8,0:0:0:0:
160,96,86327,5,0,0:0:0:0:
160,96,86410,5,0,0:0:0:0:
352,96,86493,5,8,0:0:0:0:
160,96,86660,5,0,0:0:0:0:
352,96,86827,5,8,0:0:0:0:
160,288,86993,5,4,0:0:0:0:
160,96,87993,5,0,0:0:0:0:
160,96,88160,5,0,0:0:0:0:
160,96,88327,5,0,0:0:0:0:
352,288,88493,5,12,0:0:0:0:
160,96,88827,5,0,0:0:0:0:
352,96,88993,5,8,0:0:0:0:
160,96,89160,5,0,0:0:0:0:
160,96,89493,5,0,0:0:0:0:
160,96,89660,5,0,0:0:0:0:
352,96,89827,5,8,0:0:0:0:
160,96,90160,5,0,0:0:0:0:
352,96,90327,5,8,0:0:0:0:
160,96,90493,5,0,0:0:0:0:
352,96,90660,5,8,0:0:0:0:
352,96,90743,5,8,0:0:0:0:
160,96,90827,5,0,0:0:0:0:
352,96,90993,5,8,0:0:0:0:
160,96,91160,5,0,0:0:0:0:
352,96,91327,5,8,0:0:0:0:
352,96,91493,5,8,0:0:0:0:
352,96,91660,5,8,0:0:0:0:
160,96,91827,5,0,0:0:0:0:
160,96,91910,5,0,0:0:0:0:
160,96,91993,5,0,0:0:0:0:
352,96,92160,5,8,0:0:0:0:
160,96,92327,5,0,0:0:0:0:
352,96,92660,5,8,0:0:0:0:
160,96,92827,5,0,0:0:0:0:
160,96,92993,5,0,0:0:0:0:
352,96,93160,5,8,0:0:0:0:
160,96,93327,5,0,0:0:0:0:
352,96,93493,5,8,0:0:0:0:
352,96,93660,5,8,0:0:0:0:
160,288,93827,5,4,0:0:0:0:
160,96,94160,5,0,0:0:0:0:
352,288,94327,5,12,0:0:0:0:
352,96,94660,5,8,0:0:0:0:
352,96,94743,5,8,0:0:0:0:
160,96,94827,5,0,0:0:0:0:
352,288,94993,5,12,0:0:0:0:
160,96,95327,5,0,0:0:0:0:
160,96,95410,5,0,0:0:0:0:
352,96,95493,5,8,0:0:0:0:
160,288,95660,5,4,0:0:0:0:
352,96,95827,5,8,0:0:0:0:
352,96,95993,5,8,0:0:0:0:
160,96,96160,5,0,0:0:0:0:
352,288,96327,5,12,0:0:0:0:
352,96,96660,5,8,0:0:0:0:
160,96,96827,5,0,0:0:0:0:
352,288,96993,5,12,0:0:0:0:
160,96,97327,5,0,0:0:0:0:
160,96,97493,5,0,0:0:0:0:
352,288,97660,5,12,0:0:0:0:
352,96,97993,5,8,0:0:0:0:
160,96,98160,5,0,0:0:0:0:
352,288,98327,5,12,0:0:0:0:
160,96,98493,5,0,0:0:0:0:
160,96,98577,5,0,0:0:0:0:
352,96,98660,5,8,0:0:0:0:
160,96,98827,5,0,0:0:0:0:
352,288,98993,5,12,0:0:0:0:
160,96,99327,5,0,0:0:0:0:
352,96,99493,5,8,0:0:0:0:
160,96,99660,5,0,0:0:0:0:
352,96,99827,5,8,0:0:0:0:
160,96,99993,5,0,0:0:0:0:
160,96,100077,5,0,0:0:0:0:
160,96,100160,5,0,0:0:0:0:
352,96,100327,5,8,0:0:0:0:
160,96,100493,5,0,0:0:0:0:
352,96,100660,5,8,0:0:0:0:
352,96,100827,5,8,0:0:0:0:
352,96,100910,5,8,0:0:0:0:
352,96,100993,5,8,0:0:0:0:
352,96,101077,5,8,0:0:0:0:
256,192,101160,12,8,101660,0:0:0:0:
160,288,101827,5,4,0:0:0:0:
352,96,101993,5,8,0:0:0:0:
352,96,102077,5,8,0:0:0:0:
160,96,102160,5,0,0:0:0:0:
352,96,102327,5,8,0:0:0:0:
160,96,102493,5,0,0:0:0:0:
160,96,102577,5,0,0:0:0:0:
352,96,102660,5,8,0:0:0:0:
160,96,102827,5,0,0:0:0:0:
352,96,102993,5,8,0:0:0:0:
160,96,103327,5,0,0:0:0:0:
352,96,103493,5,8,0:0:0:0:
352,96,103660,5,8,0:0:0:0:
160,96,103993,5,0,0:0:0:0:
352,96,104160,5,8,0:0:0:0:
160,96,104327,5,0,0:0:0:0:
352,96,104493,5,8,0:0:0:0:
160,96,104577,5,0,0:0:0:0:
160,96,104660,5,0,0:0:0:0:
352,96,104827,5,8,0:0:0:0:
160,96,104993,5,0,0:0:0:0:
160,96,105077,5,0,0:0:0:0:
352,96,105160,5,8,0:0:0:0:
160,96,105327,5,0,0:0:0:0:
352,96,105493,5,8,0:0:0:0:
352,96,105660,5,8,0:0:0:0:
352,96,105993,5,8,0:0:0:0:
160,96,106160,5,0,0:0:0:0:
352,96,106327,5,8,0:0:0:0:
352,96,106410,5,8,0:0:0:0:
160,96,106493,5,0,0:0:0:0:
352,96,106660,5,8,0:0:0:0:
160,288,107160,5,4,0:0:0:0:
352,96,107327,5,8,0:0:0:0:
352,96,107410,5,8,0:0:0:0:
160,96,107493,5,0,0:0:0:0:
352,96,107660,5,8,0:0:0:0:
160,96,107827,5,0,0:0:0:0:
160,96,107910,5,0,0:0:0:0:
352,96,107993,5,8,0:0:0:0:
160,96,108160,5,0,0:0:0:0:
352,96,108327,5,8,0:0:0:0:
352,96,108493,5,8,0:0:0:0:
160,96,108660,5,0,0:0:0:0:
352,96,108827,5,8,0:0:0:0:
160,96,108993,5,0,0:0:0:0:
160,96,109327,5,0,0:0:0:0:
352,96,109493,5,8,0:0:0:0:
160,96,109660,5,0,0:0:0:0:
352,96,109827,5,8,0:0:0:0:
160,96,109993,5,0,0:0:0:0:
160,96,110077,5,0,0:0:0:0:
352,96,110160,5,8,0:0:0:0:
160,96,110327,5,0,0:0:0:0:
352,96,110493,5,8,0:0:0:0:
160,96,110577,5,0,0:0:0:0:
352,96,110660,5,8,0:0:0:0:
160,96,110827,5,0,0:0:0:0:
352,96,110993,5,8,0:0:0:0:
352,96,111327,5,8,0:0:0:0:
160,96,111493,5,0,0:0:0:0:
352,96,111660,5,8,0:0:0:0:
160,96,111827,5,0,0:0:0:0:
160,96,111910,5,0,0:0:0:0:
352,96,111993,5,8,0:0:0:0:
160,96,112077,5,0,0:0:0:0:
352,96,112160,5,8,0:0:0:0:
352,96,112327,5,8,0:0:0:0:
352,96,112410,5,8,0:0:0:0:
160,96,112493,5,0,0:0:0:0:
160,96,112660,5,0,0:0:0:0:
352,96,112827,5,8,0:0:0:0:
160,96,112993,5,0,0:0:0:0:
352,96,113160,5,8,0:0:0:0:
352,96,113243,5,8,0:0:0:0:
160,96,113327,5,0,0:0:0:0:
160,96,113493,5,0,0:0:0:0:
352,96,113660,5,8,0:0:0:0:
160,96,113993,5,0,0:0:0:0:
352,96,114160,5,8,0:0:0:0:
352,96,114327,5,8,0:0:0:0:
352,96,114660,5,8,0:0:0:0:
160,96,114827,5,0,0:0:0:0:
160,96,114993,5,0,0:0:0:0:
352,96,115160,5,8,0:0:0:0:
160,96,115327,5,0,0:0:0:0:
352,96,115493,5,8,0:0:0:0:
160,96,115660,5,0,0:0:0:0:
352,96,115743,5,8,0:0:0:0:
160,96,115827,5,0,0:0:0:0:
352,96,115993,5,8,0:0:0:0:
160,96,116160,5,0,0:0:0:0:
352,96,116327,5,8,0:0:0:0:
352,96,116493,5,8,0:0:0:0:
160,96,116660,5,0,0:0:0:0:
160,96,116827,5,0,0:0:0:0:
352,96,116993,5,8,0:0:0:0:
352,96,117077,5,8,0:0:0:0:
352,96,117160,5,8,0:0:0:0:
160,96,117327,5,0,0:0:0:0:
352,96,117660,5,8,0:0:0:0:
352,96,117743,5,8,0:0:0:0:
160,96,117827,5,0,0:0:0:0:
352,96,117993,5,8,0:0:0:0:
352,96,118327,5,8,0:0:0:0:
160,96,118493,5,0,0:0:0:0:
160,96,118577,5,0,0:0:0:0:
352,96,118660,5,8,0:0:0:0:
160,96,118827,5,0,0:0:0:0:
352,96,118993,5,8,0:0:0:0:
160,96,119327,5,0,0:0:0:0:
352,96,119493,5,8,0:0:0:0:
352,96,119577,5,8,0:0:0:0:
160,96,119660,5,0,0:0:0:0:
160,96,119993,5,0,0:0:0:0:
352,96,120160,5,8,0:0:0:0:
160,96,120327,5,0,0:0:0:0:
352,96,120493,5,8,0:0:0:0:
160,96,120660,5,0,0:0:0:0:
160,96,120743,5,0,0:0:0:0:
160,96,120827,5,0,0:0:0:0:
352,96,120993,5,8,0:0:0:0:
160,96,121160,5,0,0:0:0:0:
352,96,121327,5,8,0:0:0:0:
352,96,121410,5,8,0:0:0:0:
160,96,121493,5,0,0:0:0:0:
352,96,121660,5,8,0:0:0:0:
160,96,121993,5,0,0:0:0:0:
352,96,122160,5,8,0:0:0:0:
160,96,122327,5,0,0:0:0:0:
160,96,122410,5,0,0:0:0:0:
352,96,122493,5,8,0:0:0:0:
160,96,122660,5,0,0:0:0:0:
352,96,122827,5,8,0:0:0:0:
352,96,122993,5,8,0:0:0:0:
352,96,123077,5,8,0:0:0:0:
160,96,123160,5,0,0:0:0:0:
352,96,123327,5,8,0:0:0:0:
160,96,123493,5,0,0:0:0:0:
352,96,123577,5,8,0:0:0:0:
160,96,123660,5,0,0:0:0:0:
352,96,123827,5,8,0:0:0:0:
160,96,123993,5,0,0:0:0:0:
352,96,124077,5,8,0:0:0:0:
160,96,124160,5,0,0:0:0:0:
160,96,124243,5,0,0:0:0:0:
352,96,124327,5,8,0:0:0:0:
160,288,124493,5,4,0:0:0:0:
352,96,124827,5,8,0:0:0:0:
160,96,124910,5,0,0:0:0:0:
160,96,124993,5,0,0:0:0:0:
352,96,125160,5,8,0:0:0:0:
160,96,125243,5,0,0:0:0:0:
160,96,125327,5,0,0:0:0:0:
352,96,125493,5,8,0:0:0:0:
160,96,125577,5,0,0:0:0:0:
352,96,125660,5,8,0:0:0:0:
160,96,125993,5,0,0:0:0:0:
352,96,126160,5,8,0:0:0:0:
160,96,126243,5,0,0:0:0:0:
352,96,126327,5,8,0:0:0:0:
160,96,126660,5,0,0:0:0:0:
160,96,126743,5,0,0:0:0:0:
352,96,126827,5,8,0:0:0:0:
352,96,126910,5,8,0:0:0:0:
160,96,126993,5,0,0:0:0:0:
160,96,127160,5,0,0:0:0:0:
160,96,127327,5,0,0:0:0:0:
160,96,127410,5,0,0:0:0:0:
352,96,127493,5,8,0:0:0:0:
160,96,127660,5,0,0:0:0:0:
160,96,127743,5,0,0:0:0:0:
352,96,127827,5,8,0:0:0:0:
160,96,127993,5,0,0:0:0:0:
352,96,128160,5,8,0:0:0:0:
352,96,128327,5,8,0:0:0:0:
160,96,128410,5,0,0:0:0:0:
352,96,128493,5,8,0:0:0:0:
352,96,128660,5,8,0:0:0:0:
352,96,128743,5,8,0:0:0:0:
352,96,128827,5,8,0:0:0:0:
352,96,128993,5,8,0:0:0:0:
160,96,129077,5,0,0:0:0:0:
352,96,129160,5,8,0:0:0:0:
352,96,129243,5,8,0:0:0:0:
160,96,129327,5,0,0:0:0:0:
160,96,129493,5,0,0:0:0:0:
352,96,129577,5,8,0:0:0:0:
352,96,129660,5,8,0:0:0:0:
352,96,129743,5,8,0:0:0:0:
160,96,129827,5,0,0:0:0:0:
352,96,130160,5,8,0:0:0:0:
160,96,130327,5,0,0:0:0:0:
160,96,130410,5,0,0:0:0:0:
352,96,130493,5,8,0:0:0:0:
160,96,130660,5,0,0:0:0:0:
352,96,130743,5,8,0:0:0:0:
160,96,130993,5,0,0:0:0:0:
160,96,131077,5,0,0:0:0:0:
352,96,131160,5,8,0:0:0:0:
352,96,131327,5,8,0:0:0:0:
352,96,131410,5,8,0:0:0:0:
160,96,131493,5,0,0:0:0:0:
352,96,131577,5,8,0:0:0:0:
160,96,131660,5,0,0:0:0:0:
352,96,131827,5,8,0:0:0:0:
160,96,131910,5,0,0:0:0:0:
352,96,131993,5,8,0:0:0:0:
160,96,132077,5,0,0:0:0:0:
352,96,132160,5,8,0:0:0:0:
160,96,132493,5,0,0:0:0:0:
160,96,132577,5,0,0:0:0:0:
160,96,132660,5,0,0:0:0:0:
160,96,132743,5,0,0:0:0:0:
352,96,132827,5,8,0:0:0:0:
160,96,132993,5,0,0:0:0:0:
352,96,133160,5,8,0:0:0:0:
160,96,133243,5,0,0:0:0:0:
352,96,133327,5,8,0:0:0:0:
160,96,133493,5,0,0:0:0:0:
352,96,133577,5,8,0:0:0:0:
160,96,133660,5,0,0:0:0:0:
85,198,133827,6,0,L|179:186,7,70
160,288,135160,5,4,0:0:0:0:
352,96,135493,5,8,0:0:0:0:
160,96,135660,5,0,0:0:0:0:
160,96,135826,5,0,0:0:0:0:
160,96,135910,5,0,0:0:0:0:
352,96,135993,5,8,0:0:0:0:
160,96,136160,5,0,0:0:0:0:
160,96,136410,5,0,0:0:0:0:
352,96,136493,5,8,0:0:0:0:
160,96,136660,5,0,0:0:0:0:
160,96,136826,5,0,0:0:0:0:
160,96,136910,5,0,0:0:0:0:
352,96,136993,5,8,0:0:0:0:
160,96,137160,5,0,0:0:0:0:
352,96,137493,5,8,0:0:0:0:
160,96,137660,5,0,0:0:0:0:
160,96,137826,5,0,0:0:0:0:
160,96,137910,5,0,0:0:0:0:
352,96,137993,5,8,0:0:0:0:
160,96,138160,5,0,0:0:0:0:
160,96,138410,5,0,0:0:0:0:
352,96,138493,5,8,0:0:0:0:
160,96,138660,5,0,0:0:0:0:
352,96,138826,5,8,0:0:0:0:
352,96,138910,5,8,0:0:0:0:
352,96,138993,5,8,0:0:0:0:
352,96,139076,5,8,0:0:0:0:
256,192,139160,12,0,141993,0:0:0:0:
352,96,142160,5,8,0:0:0:0:
352,96,142910,5,8,0:0:0:0:
352,96,143660,5,8,0:0:0:0:
352,96,144410,5,8,0:0:0:0:
352,96,145160,5,8,0:0:0:0:
352,96,145910,5,8,0:0:0:0:
352,96,146472,5,8,0:0:0:0:
352,96,146847,5,8,0:0:0:0:
352,96,147035,5,8,0:0:0:0:
352,96,147222,5,8,0:0:0:0:
352,96,147597,5,8,0:0:0:0:
352,96,148160,5,8,0:0:0:0:
352,96,148910,5,8,0:0:0:0:
352,96,149660,5,8,0:0:0:0:
352,96,150410,5,8,0:0:0:0:
352,96,151160,5,8,0:0:0:0:
352,96,151910,5,8,0:0:0:0:
256,192,152660,12,0,153972,0:0:0:0:
256,192,154160,12,0,155472,0:0:0:0:
160,96,155660,5,0,0:0:0:0:
160,96,155743,5,0,0:0:0:0:
160,96,155826,5,0,0:0:0:0:
160,96,155910,5,0,0:0:0:0:
352,96,155993,5,8,0:0:0:0:
160,96,156160,5,0,0:0:0:0:
352,96,156326,5,8,0:0:0:0:
352,96,156410,5,8,0:0:0:0:
352,96,156493,5,8,0:0:0:0:
352,96,156576,5,8,0:0:0:0:
160,96,156660,5,0,0:0:0:0:
352,96,156826,5,8,0:0:0:0:
160,288,156993,5,4,0:0:0:0:
352,96,157160,5,8,0:0:0:0:
352,96,157243,5,8,0:0:0:0:
160,96,157326,5,0,0:0:0:0:
352,96,157493,5,8,0:0:0:0:
160,96,157660,5,0,0:0:0:0:
160,96,157743,5,0,0:0:0:0:
352,96,157826,5,8,0:0:0:0:
160,96,157993,5,0,0:0:0:0:
352,96,158160,5,8,0:0:0:0:
160,96,158493,5,0,0:0:0:0:
352,96,158660,5,8,0:0:0:0:
352,96,158826,5,8,0:0:0:0:
160,96,159160,5,0,0:0:0:0:
352,96,159326,5,8,0:0:0:0:
160,96,159493,5,0,0:0:0:0:
160,96,159576,5,0,0:0:0:0:
352,96,159660,5,8,0:0:0:0:
352,96,159743,5,8,0:0:0:0:
160,96,159826,5,0,0:0:0:0:
352,96,159993,5,8,0:0:0:0:
160,96,160160,5,0,0:0:0:0:
160,96,160243,5,0,0:0:0:0:
352,96,160326,5,8,0:0:0:0:
160,96,160410,5,0,0:0:0:0:
352,96,160493,5,8,0:0:0:0:
160,96,160660,5,0,0:0:0:0:
352,96,160826,5,8,0:0:0:0:
352,96,161160,5,8,0:0:0:0:
160,96,161326,5,0,0:0:0:0:
160,96,161410,5,0,0:0:0:0:
352,96,161493,5,8,0:0:0:0:
160,96,161660,5,0,0:0:0:0:
352,96,161826,5,8,0:0:0:0:
352,96,162160,5,8,0:0:0:0:
352,96,162243,5,8,0:0:0:0:
160,96,162326,5,0,0:0:0:0:
352,96,162493,5,8,0:0:0:0:
160,96,162660,5,0,0:0:0:0:
352,96,162826,5,8,0:0:0:0:
352,96,162910,5,8,0:0:0:0:
160,96,162993,5,0,0:0:0:0:
160,96,163076,5,0,0:0:0:0:
352,96,163160,5,8,0:0:0:0:
160,96,163326,5,0,0:0:0:0:
352,96,163493,5,8,0:0:0:0:
352,96,163743,5,8,0:0:0:0:
160,96,163826,5,0,0:0:0:0:
352,96,163993,5,8,0:0:0:0:
160,96,164160,5,0,0:0:0:0:
160,96,164493,5,0,0:0:0:0:
160,96,164576,5,0,0:0:0:0:
352,96,164660,5,8,0:0:0:0:
352,96,164743,5,8,0:0:0:0:
160,96,164826,5,0,0:0:0:0:
352,96,164993,5,8,0:0:0:0:
160,96,165160,5,0,0:0:0:0:
352,96,165326,5,8,0:0:0:0:
160,96,165493,5,0,0:0:0:0:
352,96,165576,5,8,0:0:0:0:
160,96,165660,5,0,0:0:0:0:
352,96,165826,5,8,0:0:0:0:
160,96,165993,5,0,0:0:0:0:
352,96,166160,5,8,0:0:0:0:
352,96,166493,5,8,0:0:0:0:
160,96,166660,5,0,0:0:0:0:
352,96,166826,5,8,0:0:0:0:
160,96,166993,5,0,0:0:0:0:
160,96,167076,5,0,0:0:0:0:
352,96,167160,5,8,0:0:0:0:
160,96,167243,5,0,0:0:0:0:
352,96,167326,5,8,0:0:0:0:
352,96,167493,5,8,0:0:0:0:
352,96,167576,5,8,0:0:0:0:
160,96,167660,5,0,0:0:0:0:
352,96,167826,5,8,0:0:0:0:
160,96,167993,5,0,0:0:0:0:
160,96,168076,5,0,0:0:0:0:
160,96,168160,5,0,0:0:0:0:
352,96,168326,5,8,0:0:0:0:
160,96,168493,5,0,0:0:0:0:
352,96,168576,5,8,0:0:0:0:
160,96,168660,5,0,0:0:0:0:
352,96,168826,5,8,0:0:0:0:
160,96,169160,5,0,0:0:0:0:
352,96,169326,5,8,0:0:0:0:
352,96,169493,5,8,0:0:0:0:
160,96,169660,5,0,0:0:0:0:
160,96,169826,5,0,0:0:0:0:
160,96,169909,5,0,0:0:0:0:
352,96,169993,5,8,0:0:0:0:
352,96,170159,5,8,0:0:0:0:
352,96,170243,5,8,0:0:0:0:
160,96,170326,5,0,0:0:0:0:
160,96,170493,5,0,0:0:0:0:
352,96,170659,5,8,0:0:0:0:
160,96,170826,5,0,0:0:0:0:
160,96,170909,5,0,0:0:0:0:
352,96,170993,5,8,0:0:0:0:
160,96,171159,5,0,0:0:0:0:
352,96,171326,5,8,0:0:0:0:
352,96,171493,5,8,0:0:0:0:
160,96,171659,5,0,0:0:0:0:
160,96,171826,5,0,0:0:0:0:
352,96,171993,5,8,0:0:0:0:
352,96,172159,5,8,0:0:0:0:
352,96,172243,5,8,0:0:0:0:
352,96,172326,5,8,0:0:0:0:
160,96,172493,5,0,0:0:0:0:
352,96,172826,5,8,0:0:0:0:
352,96,172909,5,8,0:0:0:0:
160,96,172993,5,0,0:0:0:0:
352,96,173159,5,8,0:0:0:0:
160,96,173326,5,0,0:0:0:0:
160,96,173493,5,0,0:0:0:0:
352,96,173659,5,8,0:0:0:0:
160,96,173826,5,0,0:0:0:0:
352,96,173909,5,8,0:0:0:0:
160,96,173993,5,0,0:0:0:0:
352,96,174159,5,8,0:0:0:0:
352,96,174243,5,8,0:0:0:0:
160,96,174326,5,0,0:0:0:0:
352,96,174493,5,8,0:0:0:0:
160,96,174659,5,0,0:0:0:0:
352,96,174826,5,8,0:0:0:0:
160,96,175159,5,0,0:0:0:0:
352,96,175326,5,8,0:0:0:0:
352,96,175493,5,8,0:0:0:0:
352,96,175576,5,8,0:0:0:0:
160,96,175659,5,0,0:0:0:0:
160,96,175826,5,0,0:0:0:0:
352,96,175993,5,8,0:0:0:0:
160,96,176159,5,0,0:0:0:0:
160,96,176243,5,0,0:0:0:0:
352,96,176326,5,8,0:0:0:0:
160,96,176493,5,0,0:0:0:0:
352,96,176659,5,8,0:0:0:0:
352,96,176826,5,8,0:0:0:0:
352,96,177159,5,8,0:0:0:0:
160,96,177243,5,0,0:0:0:0:
352,96,177326,5,8,0:0:0:0:
160,96,177493,5,0,0:0:0:0:
352,96,177659,5,8,0:0:0:0:
160,96,177743,5,0,0:0:0:0:
160,96,177826,5,0,0:0:0:0:
160,96,177909,5,0,0:0:0:0:
352,96,177993,5,8,0:0:0:0:
352,96,178159,5,8,0:0:0:0:
160,96,178326,5,0,0:0:0:0:
352,96,178493,5,8,0:0:0:0:
160,96,178659,5,0,0:0:0:0:
352,96,178743,5,8,0:0:0:0:
160,96,178826,5,0,0:0:0:0:
352,96,178993,5,8,0:0:0:0:
352,96,179243,5,8,0:0:0:0:
160,96,179326,5,0,0:0:0:0:
352,96,179493,5,8,0:0:0:0:
160,96,179659,5,0,0:0:0:0:
352,96,179826,5,8,0:0:0:0:
160,96,179909,5,0,0:0:0:0:
352,96,179993,5,8,0:0:0:0:
160,96,180159,5,0,0:0:0:0:
352,96,180326,5,8,0:0:0:0:
160,96,180409,5,0,0:0:0:0:
160,96,180493,5,0,0:0:0:0:
160,96,180576,5,0,0:0:0:0:
352,96,180659,5,8,0:0:0:0:
160,96,180826,5,0,0:0:0:0:
352,96,180993,5,8,0:0:0:0:
160,96,181076,5,0,0:0:0:0:
352,96,181159,5,8,0:0:0:0:
160,96,181326,5,0,0:0:0:0:
352,96,181493,5,8,0:0:0:0:
160,96,181576,5,0,0:0:0:0:
352,96,181659,5,8,0:0:0:0:
160,96,181826,5,0,0:0:0:0:
352,96,181909,5,8,0:0:0:0:
160,96,181993,5,0,0:0:0:0:
160,96,182076,5,0,0:0:0:0:
352,96,182159,5,8,0:0:0:0:
256,192,182326,12,0,183493,0:0:0:0:
160,288,183659,5,4,0:0:0:0:
352,96,183993,5,8,0:0:0:0:
160,96,184160,5,0,0:0:0:0:
352,96,184326,5,8,0:0:0:0:
352,96,184410,5,8,0:0:0:0:
160,96,184493,5,0,0:0:0:0:
352,96,184660,5,8,0:0:0:0:
160,96,184826,5,0,0:0:0:0:
160,96,184993,5,0,0:0:0:0:
352,96,185160,5,8,0:0:0:0:
160,96,185326,5,0,0:0:0:0:
352,96,185493,5,8,0:0:0:0:
160,96,185660,5,0,0:0:0:0:
160,96,185743,5,0,0:0:0:0:
160,96,185826,5,0,0:0:0:0:
160,96,185910,5,0,0:0:0:0:
352,96,185993,5,8,0:0:0:0:
160,96,186326,5,0,0:0:0:0:
352,96,186493,5,8,0:0:0:0:
160,96,186659,5,0,0:0:0:0:
160,96,186743,5,0,0:0:0:0:
352,96,186826,5,8,0:0:0:0:
160,96,186993,5,0,0:0:0:0:
352,96,187159,5,8,0:0:0:0:
352,96,187326,5,8,0:0:0:0:
160,96,187493,5,0,0:0:0:0:
352,96,187659,5,8,0:0:0:0:
160,96,187826,5,0,0:0:0:0:
352,96,187993,5,8,0:0:0:0:
352,96,188076,5,8,0:0:0:0:
352,96,188159,5,8,0:0:0:0:
352,96,188243,5,8,0:0:0:0:
160,96,188326,5,0,0:0:0:0:
352,96,188659,5,8,0:0:0:0:
160,96,188826,5,0,0:0:0:0:
352,96,188992,5,8,0:0:0:0:
352,96,189076,5,0,0:0:0:0:
160,96,189159,5,0,0:0:0:0:
160,96,189242,5,0,0:0:0:0:
352,96,189326,5,8,0:0:0:0:
160,96,189492,5,0,0:0:0:0:
160,96,189659,5,0,0:0:0:0:
352,96,189826,5,8,0:0:0:0:
160,96,189992,5,0,0:0:0:0:
160,96,190076,5,8,0:0:0:0:
352,96,190159,5,8,0:0:0:0:
352,96,190242,5,8,0:0:0:0:
160,96,190326,5,0,0:0:0:0:
352,96,190492,5,8,0:0:0:0:
352,96,190659,5,8,0:0:0:0:
160,96,190826,5,0,0:0:0:0:
352,96,190992,5,8,0:0:0:0:
352,96,191076,5,8,0:0:0:0:
352,96,191159,5,8,0:0:0:0:
352,96,191242,5,8,0:0:0:0:
160,96,191326,5,0,0:0:0:0:
352,96,191659,5,8,0:0:0:0:
160,96,191826,5,0,0:0:0:0:
352,96,191992,5,8,0:0:0:0:
352,96,192159,5,8,0:0:0:0:
160,96,192326,5,0,0:0:0:0:
352,96,192576,5,8,0:0:0:0:
352,96,192659,5,8,0:0:0:0:
160,96,192826,5,0,0:0:0:0:
352,96,192992,5,8,0:0:0:0:
352,96,193159,5,8,0:0:0:0:
160,96,193326,5,0,0:0:0:0:
352,96,193576,5,8,0:0:0:0:
160,96,193659,5,0,0:0:0:0:
352,96,193826,5,8,0:0:0:0:
160,96,193992,5,0,0:0:0:0:
352,96,194076,5,8,0:0:0:0:
352,96,194159,5,8,0:0:0:0:
352,96,194242,5,8,0:0:0:0:
160,96,194326,5,0,0:0:0:0:
160,96,194492,5,0,0:0:0:0:
160,96,194659,5,0,0:0:0:0:
160,96,194826,5,0,0:0:0:0:
352,96,194909,5,8,0:0:0:0:
160,96,194992,5,0,0:0:0:0:
352,96,195076,5,8,0:0:0:0:
160,96,195159,5,0,0:0:0:0:
352,288,195326,5,12,0:0:0:0:
256,192,195409,12,0,200659,0:0:0:0:
