osu file format v14

[General]
AudioFilename: audio.ogg
AudioLeadIn: 0
PreviewTime: 101785
Countdown: 0
SampleSet: Normal
StackLeniency: 0.7
Mode: 1
LetterboxInBreaks: 0
WidescreenStoryboard: 0

[Editor]
DistanceSpacing: 1.7
BeatDivisor: 4
GridSize: 4
TimelineZoom: 2.599999

[Metadata]
Title:Mondainai Tripper!
TitleUnicode:モンダイナイトリッパー!
Artist:Natori Sana
ArtistUnicode:名取さな
Creator:komasy
Version:Night Tripper!
Source:
Tags:Japanese jpop j-pop Pop sasakure.uk 岸田勇気 Kishida Yuki 有形ランペイジ UK Yukei Rampage Ryo Uemura さなのばくたん。 Sana no Bakutan. メチャ・ハッピー・ショー Mecha Happy Show バーチャルYouTuber バーチャルサナトリウム Virtual Sanatorium YouTuber VTuber
BeatmapID:3617769
BeatmapSetID:1767410

[Difficulty]
HPDrainRate:6
CircleSize:7
OverallDifficulty:6
ApproachRate:10
SliderMultiplier:1.4
SliderTickRate:1

[Events]
//Background and Video events
0,0,"bg.jpg",0,0
Video,-330,"output.mp4"
//Break Periods
//Storyboard Layer 0 (Background)
//Storyboard Layer 1 (Fail)
//Storyboard Layer 2 (Pass)
//Storyboard Layer 3 (Foreground)
//Storyboard Layer 4 (Overlay)
//Storyboard Sound Samples

[TimingPoints]
163,333.333333333333,4,1,0,5,1,0
163,-133.333333333333,4,1,0,5,0,0
746,-100,4,1,0,60,0,0
808,-125,4,1,0,60,0,0
892,-121.184593023256,4,1,0,60,0,0
975,-117.636684303351,4,1,0,60,0,0
1058,-114.290610006854,4,1,0,60,0,0
1142,-111.092604930047,4,1,0,60,0,0
1225,-108.103727714749,4,1,0,60,0,0
1308,-105.271464646465,4,1,0,60,0,0
1392,-102.552275522755,4,1,0,60,0,0
1475,-100,4,1,0,90,0,0
1496,333.333333333333,3,1,0,90,1,0
2496,333.333333333333,4,1,0,90,1,0
3475,-111.111111111111,4,1,0,90,0,0
3558,-108.116883116883,4,1,0,90,0,0
3641,-105.279797660449,4,1,0,90,0,0
3725,-102.556205728365,4,1,0,90,0,0
3808,-100,4,1,0,90,0,0
3829,333.333333333333,3,1,0,90,1,0
4829,333.333333333333,4,1,0,90,1,0
5808,-90.909090909091,4,1,0,90,0,0
5891,-92.597726642639,4,1,0,90,0,0
5953,-94.350282485876,4,1,0,90,0,0
6016,-96.142774899252,4,1,0,90,0,0
6078,-98.033460522454,4,1,0,90,0,0
6141,-100,4,1,0,90,0,0
6162,333.333333333333,3,1,0,90,1,0
6307,-101.119050829176,4,1,0,90,0,0
6411,-101.694915254237,4,1,0,90,0,0
6474,-102.270402945388,4,1,0,90,0,0
6641,-103.441141990208,4,1,0,90,0,0
6807,-104.646295521139,4,1,0,90,0,0
6891,-105.255771524805,4,1,0,90,0,0
6974,-105.879861650314,4,1,0,90,0,0
7057,-106.503834138029,4,1,0,90,0,0
7141,-107.135204628241,4,1,0,90,0,0
7307,-108.428509469423,4,1,0,90,0,0
7391,-109.082975783579,4,1,0,90,0,0
7474,-109.753420648277,4,1,0,90,0,0
7641,-111.102881268054,4,1,0,90,0,0
7807,-112.494375281236,4,1,0,90,0,0
7891,-113.199003848766,4,1,0,90,0,0
7974,-113.921166552746,4,1,0,90,0,0
8057,-114.643839804341,4,1,0,90,0,0
8141,-115.375740327667,4,1,0,90,0,0
8307,-116.877045348294,4,1,0,90,0,0
8391,-117.637832326876,4,1,0,90,0,0
8474,-118.417936370096,4,1,0,90,0,0
8641,-119.990400767939,4,1,0,90,0,0
8807,-121.615047835252,4,1,0,90,0,0
8891,-122.438984572688,4,1,0,90,0,0
8974,-123.284293580998,4,1,0,90,0,0
9057,-124.131082423039,4,1,0,90,0,0
9141,-124.989584201317,4,1,0,20,0,0
9162,333.333333333333,7,1,0,20,1,0
9162,-125,7,1,0,20,0,0
11411,-133.333333333333,7,1,0,70,0,0
11495,333.333333333333,4,1,0,70,1,0
11495,-133.333333333333,4,1,0,70,0,0
19474,-128.019207683073,4,1,0,70,0,0
19640,-123.084025854109,4,1,0,70,0,0
19807,-118.51522560569,4,1,0,70,0,0
19974,-114.297963558414,4,1,0,70,0,0
20140,-110.347682119205,4,1,0,70,0,0
20224,-108.484231943032,4,1,0,70,0,0
20307,-106.661332266453,4,1,0,70,0,0
20390,-104.919323101141,4,1,0,70,0,0
20474,-103.23330106486,4,1,0,70,0,0
20557,-101.581253572109,4,1,0,70,0,0
20640,-100,4,1,0,70,0,0
20974,-86.939520333681,4,1,0,70,0,0
21307,-76.923076923077,4,1,0,70,0,0
21494,-76.923076923077,4,1,0,30,0,0
22133,-100,4,1,0,90,0,0
30304,-93.028124781911,4,1,0,90,0,0
30638,-86.96503131524,4,1,0,90,0,0
30971,-81.62890385793,4,1,0,90,0,0
31304,-76.923076923077,4,1,0,90,0,0
31408,-71.428571428571,4,1,0,50,0,0
32742,-83.333333333333,4,1,0,90,0,0
35242,-86.95652173913,4,1,0,90,0,0
35408,-90.909090909091,4,1,0,90,0,0
38138,-100,4,1,0,90,0,0
38304,-98.035371161915,4,1,0,90,0,0
38388,-97.087378640777,4,1,0,90,0,0
38471,-96.146450273056,4,1,0,90,0,0
38638,-94.339622641509,4,1,0,90,0,0
38804,-92.58916336432,4,1,0,90,0,0
38888,-91.743119266055,4,1,0,90,0,0
38971,-90.902479819649,4,1,0,90,0,0
39138,-89.285714285714,4,1,0,90,0,0
39304,-87.716220483492,4,1,0,90,0,0
39388,-86.95652173913,4,1,0,90,0,0
39471,-86.200951658506,4,1,0,90,0,0
39554,-85.467163515777,4,1,0,90,0,0
39638,-84.745762711864,4,1,0,90,0,0
39804,-83.330555648145,4,1,0,90,0,0
39888,-82.644628099174,4,1,0,90,0,0
39971,-81.961838567963,4,1,0,90,0,0
40138,-80.645161290323,4,1,0,90,0,0
40388,-78.740157480315,4,1,0,90,0,0
40638,-76.923076923077,4,1,0,90,0,0
40804,-100,4,1,0,90,0,0
41138,-95.668058455115,4,1,0,90,0,0
41304,-91.672918229557,4,1,0,90,0,0
41388,-89.808917197452,4,1,0,90,0,0
41471,-87.998079692751,4,1,0,90,0,0
41638,-84.626038781163,4,1,0,90,0,0
41721,-83.016304347826,4,1,0,90,0,0
41804,-81.48477439431,4,1,0,90,0,0
41888,-80.008729812309,4,1,0,90,0,0
41971,-78.568366909559,4,1,0,90,0,0
42138,-75.869205298013,4,1,0,90,0,0
42221,-74.572823433686,4,1,0,90,0,0
42304,-73.334666933387,4,1,0,90,0,0
42388,-72.136953955136,4,1,0,90,0,0
42471,-70.963995354239,4,1,0,90,0,0
42554,-69.841874642789,4,1,0,90,0,0
42638,-68.754688672168,4,1,0,90,0,0
42721,-67.688330871492,4,1,0,90,0,0
42804,-66.666666666667,4,1,0,50,0,0
43471,-83.333333333333,4,1,0,90,0,0
43494,-83.333333333333,4,1,0,90,0,1
66133,-83.333333333333,4,1,0,60,0,1
66161,-83.333333333333,4,1,0,60,0,0
67471,-100,4,1,0,90,0,0
67495,333.333333333333,4,1,0,90,1,0
68828,333.333333333333,3,1,0,90,1,0
69473,-111.111111111111,4,1,0,90,0,0
69556,-108.116883116883,4,1,0,90,0,0
69639,-105.279797660449,4,1,0,90,0,0
69723,-102.556205728365,4,1,0,90,0,0
69806,-100,4,1,0,90,0,0
69828,333.333333333333,4,1,0,90,1,0
71161,333.333333333333,3,1,0,90,1,0
71806,-90.909090909091,4,1,0,90,0,0
71889,-92.597726642639,4,1,0,90,0,0
71951,-94.350282485876,4,1,0,90,0,0
72014,-96.142774899252,4,1,0,90,0,0
72076,-98.033460522454,4,1,0,90,0,0
72139,-100,4,1,0,90,0,0
72161,333.333333333333,4,1,0,90,1,0
73494,333.333333333333,3,1,0,90,1,0
74139,-111.111111111111,4,1,0,90,0,0
74222,-108.116883116883,4,1,0,90,0,0
74305,-105.279797660449,4,1,0,90,0,0
74389,-102.556205728365,4,1,0,90,0,0
74472,-100,4,1,0,90,0,0
74473,-100,4,1,0,90,0,0
74494,333.333333333333,3,1,0,90,1,0
74639,-97.355003186743,4,1,0,90,0,0
74723,-96.069182389937,4,1,0,90,0,0
74806,-94.831600186249,4,1,0,90,0,0
74973,-92.435703479576,4,1,0,90,0,0
75139,-90.17119244392,4,1,0,90,0,0
75223,-89.067055393586,4,1,0,90,0,0
75306,-88.002304479332,4,1,0,90,0,0
75473,-85.935302390999,4,1,0,90,0,0
75639,-83.974711379879,4,1,0,90,0,0
75723,-83.016304347826,4,1,0,90,0,0
75806,-82.090554883783,4,1,0,90,0,0
75993,-80.289093298292,4,1,0,90,0,0
76306,-76.923076923077,4,1,0,90,0,0
76410,-76.923076923077,3,1,0,50,0,0
76494,333.333333333333,4,1,0,50,1,0
76494,-76.923076923077,4,1,0,50,0,0
76556,-78.810452879272,4,1,0,50,0,0
76639,-80.792775319716,4,1,0,50,0,0
76723,-82.903165619752,4,1,0,50,0,0
76806,-85.099591419816,4,1,0,50,0,0
76889,-87.415568233983,4,1,0,50,0,0
76973,-89.891428956774,4,1,0,50,0,0
77056,-92.479533786596,4,1,0,50,0,0
77139,-95.221087220516,4,1,0,50,0,0
77223,-98.166286177185,4,1,0,50,0,0
77306,-101.261014889091,4,1,0,50,0,0
77389,-104.557220174131,4,1,0,50,0,0
77473,-108.119068862033,4,1,0,50,0,0
77556,-111.885177102568,4,1,0,50,0,0
77639,-115.923123749891,4,1,0,50,0,0
77723,-120.317718205614,4,1,0,50,0,0
77806,-125,4,1,0,70,0,0
81973,-123.072661804081,4,1,0,70,0,0
82139,-121.214876784578,4,1,0,70,0,0
82306,-119.401648154783,4,1,0,70,0,0
82473,-117.641867443297,4,1,0,70,0,0
82639,-115.943289553797,4,1,0,70,0,0
82723,-115.102322770054,4,1,0,70,0,0
82806,-114.283264746228,4,1,0,70,0,0
82889,-113.475781050481,4,1,0,70,0,0
82973,-112.670103964162,4,1,0,70,0,0
83056,-111.885177102568,4,1,0,70,0,0
83139,-111.111111111111,4,1,0,70,0,0
87160,-111.111111111111,4,1,0,30,0,0
87973,-111.111111111111,4,1,0,50,0,0
88139,-107.135204628241,4,1,0,50,0,0
88223,-105.263157894737,4,1,0,50,0,0
88306,-103.434009102193,4,1,0,50,0,0
88473,-100,4,1,0,80,0,0
93758,-100,4,1,0,90,0,0
96473,-98.311635475997,4,1,0,90,0,0
96639,-96.669666966697,4,1,0,90,0,0
96723,-95.873834556636,4,1,0,90,0,0
96806,-95.081644698013,4,1,0,90,0,0
96973,-93.554006968641,4,1,0,90,0,0
97139,-92.065911039147,4,1,0,90,0,0
97223,-91.343791343791,4,1,0,90,0,0
97306,-90.624414025877,4,1,0,90,0,0
97389,-89.924644152944,4,1,0,90,0,0
97473,-89.235598227474,4,1,0,90,0,0
97639,-87.880716428766,4,1,0,90,0,0
97806,-86.566362170876,4,1,0,90,0,0
97973,-85.298270384751,4,1,0,90,0,0
98056,-84.670637701472,4,1,0,90,0,0
98139,-84.059483433342,4,1,0,90,0,0
98306,-82.856163209326,4,1,0,90,0,0
98473,-81.693711967546,4,1,0,90,0,0
98556,-81.117824773414,4,1,0,90,0,0
98639,-80.556713059422,4,1,0,90,0,0
98723,-80.003310710147,4,1,0,90,0,0
98806,-79.450928818017,4,1,0,90,0,0
98973,-78.38144664288,4,1,0,90,0,0
99139,-77.334186734939,4,1,0,90,0,0
99306,-76.314542870677,4,1,0,90,0,0
99473,-75.327306733167,4,1,0,90,0,0
99639,-74.359566120471,4,1,0,90,0,0
99723,-73.887784742394,4,1,0,90,0,0
99806,-73.416375512684,4,1,0,90,0,0
99889,-72.956449543362,4,1,0,90,0,0
99973,-72.502250225023,4,1,0,90,0,0
100056,-72.048300536673,4,1,0,90,0,0
100139,-71.6053040966,4,1,0,90,0,0
100223,-71.16772198498,4,1,0,90,0,0
100306,-70.730279525831,4,1,0,90,0,0
100389,-70.303294785075,4,1,0,90,0,0
100473,-69.881434355119,4,1,0,90,0,0
100556,-69.459614831848,4,1,0,90,0,0
100639,-69.047789127795,4,1,0,90,0,0
100723,-68.640818065616,4,1,0,90,0,0
100806,-68.233799237611,4,1,0,90,0,0
100889,-67.836339392238,4,1,0,90,0,0
100973,-67.443483114708,4,1,0,90,0,0
101056,-67.050499445061,4,1,0,90,0,0
101139,-66.666666666667,4,1,0,50,0,0
101806,-83.333333333333,4,1,0,90,0,0
101827,-83.333333333333,4,1,0,90,0,1
123306,-83.333333333333,4,1,0,90,0,1
123389,-84.333863734992,4,1,0,90,0,1
123473,-85.358711566618,4,1,0,90,0,1
123556,-86.421583160391,4,1,0,90,0,1
123639,-87.498123968182,4,1,0,90,0,1
123806,-89.747536945813,4,1,0,90,0,1
123889,-90.909090909091,4,1,0,90,0,1
123973,-92.101105845182,4,1,0,90,0,1
124056,-93.339737431956,4,1,0,90,0,1
124139,-94.596787278923,4,1,0,90,0,1
124195,-95.464221385296,4,1,0,90,0,1
124250,-96.331791143424,4,1,0,90,0,1
124306,-97.231487658439,4,1,0,90,0,1
124389,-98.596313208185,4,1,0,90,0,1
124473,-100,4,1,0,90,0,1
124493,-100,4,1,0,90,0,0
133889,-98.770005927682,4,1,0,90,0,0
133973,-97.569901917728,4,1,0,90,0,0
134056,-96.384671005061,4,1,0,90,0,0
134139,-95.241497570734,4,1,0,90,0,0
134223,-94.125123570117,4,1,0,90,0,0
134306,-93.021632937893,4,1,0,90,0,0
134389,-91.956401766004,4,1,0,90,0,0
134473,-90.915291229027,4,1,0,90,0,0
134556,-89.885367498314,4,1,0,90,0,0
134639,-88.890370765537,4,1,0,90,0,0
134723,-87.917161324364,4,1,0,90,0,0
134806,-86.953685583823,4,1,0,90,0,0
134889,-86.022199277233,4,1,0,90,0,0
134973,-85.110458434427,4,1,0,90,0,0
135056,-84.207201516109,4,1,0,90,0,0
135139,-83.333333333333,4,1,0,80,0,0
135160,333.333333333333,3,1,0,80,1,0
135160,-83.333333333333,3,1,0,80,0,0
135389,-85.333333333333,4,1,0,80,0,0
135472,-86.018730578583,4,1,0,80,0,0
135639,-87.431693989071,4,1,0,80,0,0
135805,-88.882963357998,4,1,0,80,0,0
135889,-89.635854341737,4,1,0,80,0,0
135972,-90.392416076291,4,1,0,80,0,0
136139,-91.954022988506,4,1,0,80,0,0
136305,-93.560685799827,4,1,0,80,0,0
136472,-95.234693999024,4,1,0,80,0,0
136639,-96.969696969697,4,1,0,80,0,0
136722,-97.855736180935,4,1,0,80,0,0
136805,-98.758116682715,4,1,0,80,0,0
136889,-99.688473520249,4,1,0,80,0,0
136972,-100.625133642756,4,1,0,80,0,0
137139,-102.564102564103,4,1,0,80,0,0
137389,-105.610561056106,4,1,0,80,0,0
137472,-106.66240017066,4,1,0,80,0,0
137639,-108.843537414966,4,1,0,80,0,0
137805,-111.101852623393,4,1,0,80,0,0
137889,-112.280701754386,4,1,0,80,0,0
137972,-113.470348779485,4,1,0,80,0,0
138139,-115.942028985507,4,1,0,80,0,0
138305,-118.507984475454,4,1,0,80,0,0
138389,-119.850187265918,4,1,0,80,0,0
138472,-121.206611820675,4,1,0,80,0,0
138639,-124.031007751938,4,1,0,80,0,0
138722,-125.484290935329,4,1,0,80,0,0
138805,-126.972034409421,4,1,0,80,0,0
138889,-128.5140562249,4,1,0,80,0,0
138972,-130.074955693218,4,1,0,80,0,0
139055,-131.674237935348,4,1,0,80,0,0
139139,-133.333333333333,4,1,0,20,0,0
142160,375,4,1,0,40,1,0
142160,-133.333333333333,4,1,0,40,0,0
152472,-133.333333333333,4,1,0,30,0,0
154066,-117.647058823529,4,1,0,50,0,0
155660,333.333333333333,4,1,0,50,1,0
155660,-132.870599900843,4,1,0,50,0,0
155722,-127.619047619048,4,1,0,50,0,0
155805,-122.766834631241,4,1,0,50,0,0
155889,-117.184083952777,4,1,0,50,0,0
155972,-114.042553191489,4,1,0,50,0,0
156055,-110.152075626798,4,1,0,50,0,0
156139,-105.636578636184,4,1,0,50,0,0
156222,-103.076923076923,4,1,0,50,0,0
156305,-99.888184867685,4,1,0,50,0,0
156389,-96.16074632221,4,1,0,50,0,0
156472,-94.035087719298,4,1,0,50,0,0
156555,-91.374019774974,4,1,0,50,0,0
156639,-88.2449785973,4,1,0,50,0,0
156722,-86.451612903226,4,1,0,50,0,0
156805,-84.197298146403,4,1,0,50,0,0
156889,-81.533313051415,4,1,0,50,0,0
156972,-80,4,1,0,90,0,0
156993,-80,4,1,0,90,0,1
182298,-80,4,1,0,60,0,1
182326,-80,4,1,0,60,0,0
183632,-100,4,1,0,90,0,0
183660,333.333333333333,3,1,0,90,1,0
184660,333.333333333333,4,1,0,90,1,0
185639,-111.111111111111,4,1,0,90,0,0
185722,-108.116883116883,4,1,0,90,0,0
185805,-105.279797660449,4,1,0,90,0,0
185889,-102.556205728365,4,1,0,90,0,0
185972,-100,4,1,0,90,0,0
185993,333.333333333333,3,1,0,90,1,0
186993,333.333333333333,4,1,0,90,1,0
187972,-90.909090909091,4,1,0,90,0,0
188055,-92.597726642639,4,1,0,90,0,0
188117,-94.350282485876,4,1,0,90,0,0
188180,-96.142774899252,4,1,0,90,0,0
188242,-98.033460522454,4,1,0,90,0,0
188298,-100,4,1,0,90,0,0
188326,333.333333333333,3,1,0,90,1,0
188471,-101.119050829176,4,1,0,90,0,0
188555,-101.694915254237,4,1,0,90,0,0
188638,-102.270402945388,4,1,0,90,0,0
188805,-103.441141990208,4,1,0,90,0,0
188971,-104.646295521139,4,1,0,90,0,0
189055,-105.255771524805,4,1,0,90,0,0
189138,-105.879861650314,4,1,0,90,0,0
189221,-106.503834138029,4,1,0,90,0,0
189305,-107.135204628241,4,1,0,90,0,0
189471,-108.428509469423,4,1,0,90,0,0
189555,-109.082975783579,4,1,0,90,0,0
189638,-109.753420648277,4,1,0,90,0,0
189805,-111.102881268054,4,1,0,90,0,0
189971,-112.494375281236,4,1,0,90,0,0
190055,-113.199003848766,4,1,0,90,0,0
190138,-113.921166552746,4,1,0,90,0,0
190221,-114.643839804341,4,1,0,90,0,0
190305,-115.375740327667,4,1,0,90,0,0
190471,-116.877045348294,4,1,0,90,0,0
190555,-117.637832326876,4,1,0,90,0,0
190638,-118.417936370096,4,1,0,90,0,0
190805,-119.990400767939,4,1,0,90,0,0
190971,-121.615047835252,4,1,0,90,0,0
191055,-122.438984572688,4,1,0,90,0,0
191138,-123.284293580998,4,1,0,90,0,0
191221,-124.131082423039,4,1,0,90,0,0
191305,-124.989584201317,4,1,0,90,0,0
191471,-120.619986731801,4,1,0,90,0,0
191555,-118.518518518519,4,1,0,90,0,0
191638,-116.512772712709,4,1,0,90,0,0
191805,-112.676056338028,4,1,0,90,0,0
191971,-109.104795155747,4,1,0,90,0,0
192055,-107.38255033557,4,1,0,90,0,0
192221,-104.134124752681,4,1,0,90,0,0
192305,-102.564102564103,4,1,0,90,0,0
192471,-99.596633633783,4,1,0,90,0,0
192555,-98.159509202454,4,1,0,90,0,0
192638,-96.779656916116,4,1,0,90,0,0
192805,-94.117647058824,4,1,0,90,0,0
192971,-91.612844120746,4,1,0,90,0,0
193055,-90.395480225989,4,1,0,90,0,0
193138,-89.223974481943,4,1,0,90,0,0
193221,-88.082445168678,4,1,0,90,0,0
193305,-86.95652173913,4,1,0,90,0,0
193471,-84.814045205886,4,1,0,90,0,0
193555,-83.769633507853,4,1,0,90,0,0
193638,-82.762616126296,4,1,0,90,0,0
193805,-80.808080808081,4,1,0,90,0,0
193971,-78.954640558999,4,1,0,90,0,0
194055,-78.048780487805,4,1,0,90,0,0
194138,-77.173892072312,4,1,0,90,0,0
194221,-76.318400366328,4,1,0,90,0,0
194305,-75.471698113208,4,1,0,90,0,0
194471,-73.852516524501,4,1,0,90,0,0
194555,-73.059360730594,4,1,0,90,0,0
194638,-72.292205092986,4,1,0,90,0,0
194805,-70.796460176991,4,1,0,90,0,0
194971,-69.369775588776,4,1,0,90,0,0
195055,-68.669527896996,4,1,0,90,0,0
195138,-67.991365096633,4,1,0,90,0,0
195221,-67.326466033798,4,1,0,90,0,0
195305,-66.666666666667,4,1,0,90,0,0
195326,333.333333333333,4,1,0,90,1,0
195326,-66.666666666667,4,1,0,90,0,0
195346,-50,4,1,0,10,0,0
195992,-50,4,1,0,5,0,0
196659,-83.333333333333,4,1,0,5,0,0
197992,-100,4,1,0,5,0,0
199326,-125,4,1,0,5,0,0
200659,-166.666666666667,4,1,0,5,0,0

[HitObjects]
160,96,829,5,0,0:0:0:0:
160,96,912,5,0,0:0:0:0:
160,96,996,5,0,0:0:0:0:
160,96,1079,5,0,0:0:0:0:
352,96,1162,5,8,0:0:0:0:
352,96,1246,5,8,0:0:0:0:
352,96,1329,5,8,0:0:0:0:
352,96,1412,5,8,0:0:0:0:
160,96,1496,5,0,0:0:0:0:
352,96,1662,5,8,0:0:0:0:
160,96,1745,5,0,0:0:0:0:
352,96,1829,5,8,0:0:0:0:
160,96,1995,5,0,0:0:0:0:
352,96,2162,5,8,0:0:0:0:
352,96,2245,5,8,0:0:0:0:
160,96,2329,5,0,0:0:0:0:
352,96,2495,5,8,0:0:0:0:
160,96,2662,5,0,0:0:0:0:
352,96,2745,5,8,0:0:0:0:
160,96,2829,5,0,0:0:0:0:
352,96,2995,5,8,0:0:0:0:
160,96,3162,5,0,0:0:0:0:
160,96,3245,5,0,0:0:0:0:
352,96,3329,5,8,0:0:0:0:
160,96,3495,5,0,0:0:0:0:
160,96,3579,5,0,0:0:0:0:
160,96,3662,5,0,0:0:0:0:
160,96,3745,5,0,0:0:0:0:
352,96,3829,5,8,0:0:0:0:
160,96,3995,5,0,0:0:0:0:
352,96,4078,5,8,0:0:0:0:
160,96,4162,5,0,0:0:0:0:
352,96,4328,5,8,0:0:0:0:
160,96,4495,5,0,0:0:0:0:
160,96,4578,5,0,0:0:0:0:
352,96,4662,5,8,0:0:0:0:
160,96,4828,5,0,0:0:0:0:
352,96,4995,5,8,0:0:0:0:
160,96,5079,5,0,0:0:0:0:
352,96,5162,5,8,0:0:0:0:
160,96,5328,5,0,0:0:0:0:
352,96,5495,5,8,0:0:0:0:
352,96,5578,5,8,0:0:0:0:
160,96,5662,5,0,0:0:0:0:
352,96,5828,5,8,0:0:0:0:
352,96,5895,5,8,0:0:0:0:
352,96,5962,5,8,0:0:0:0:
352,96,6028,5,8,0:0:0:0:
352,96,6095,5,8,0:0:0:0:
160,96,6162,5,0,0:0:0:0:
352,96,6328,5,8,0:0:0:0:
160,96,6412,5,0,0:0:0:0:
352,96,6495,5,8,0:0:0:0:
160,96,6661,5,0,0:0:0:0:
352,96,6828,5,8,0:0:0:0:
352,96,6911,5,8,0:0:0:0:
160,96,6995,5,0,0:0:0:0:
160,96,7078,5,0,0:0:0:0:
352,96,7161,5,8,0:0:0:0:
160,96,7328,5,0,0:0:0:0:
352,96,7411,5,8,0:0:0:0:
160,96,7495,5,0,0:0:0:0:
352,96,7661,5,8,0:0:0:0:
160,96,7828,5,0,0:0:0:0:
160,96,7911,5,0,0:0:0:0:
352,96,7995,5,8,0:0:0:0:
352,96,8078,5,8,0:0:0:0:
160,96,8161,5,0,0:0:0:0:
352,96,8328,5,8,0:0:0:0:
160,96,8411,5,0,0:0:0:0:
352,96,8495,5,8,0:0:0:0:
160,96,8661,5,0,0:0:0:0:
352,96,8828,5,8,0:0:0:0:
352,96,8911,5,8,0:0:0:0:
352,96,8995,5,8,0:0:0:0:
352,96,9078,5,8,0:0:0:0:
256,192,9162,12,0,11328,0:0:0:0:
352,96,11495,5,8,0:0:0:0:
160,96,11661,5,0,0:0:0:0:
160,96,11828,5,0,0:0:0:0:
352,96,12161,5,8,0:0:0:0:
352,96,12328,5,8,0:0:0:0:
352,96,12661,5,8,0:0:0:0:
160,96,12828,5,0,0:0:0:0:
160,96,12994,5,0,0:0:0:0:
160,96,13328,5,0,0:0:0:0:
352,96,13494,5,8,0:0:0:0:
160,96,13661,5,0,0:0:0:0:
352,96,13828,5,8,0:0:0:0:
352,96,13994,5,8,0:0:0:0:
160,96,14161,5,0,0:0:0:0:
160,96,14328,5,0,0:0:0:0:
352,96,14494,5,8,0:0:0:0:
160,96,14661,5,0,0:0:0:0:
352,96,14994,5,8,0:0:0:0:
160,96,15161,5,0,0:0:0:0:
352,96,15328,5,8,0:0:0:0:
160,96,15494,5,0,0:0:0:0:
352,96,15661,5,8,0:0:0:0:
160,96,15994,5,0,0:0:0:0:
352,96,16328,5,8,0:0:0:0:
352,96,16494,5,8,0:0:0:0:
160,96,16828,5,0,0:0:0:0:
160,96,16994,5,0,0:0:0:0:
352,96,17161,5,8,0:0:0:0:
160,96,17328,5,0,0:0:0:0:
352,96,17494,5,8,0:0:0:0:
352,96,17661,5,8,0:0:0:0:
160,96,17828,5,0,0:0:0:0:
352,96,17994,5,8,0:0:0:0:
160,96,18161,5,0,0:0:0:0:
160,96,18328,5,0,0:0:0:0:
160,96,18661,5,0,0:0:0:0:
352,96,18828,5,8,0:0:0:0:
352,96,18994,5,0,0:0:0:0:
352,96,19328,5,0,0:0:0:0:
160,96,19494,5,8,0:0:0:0:
160,96,19661,5,8,0:0:0:0:
352,96,19828,5,0,0:0:0:0:
160,96,19994,5,8,0:0:0:0:
352,96,20161,5,0,0:0:0:0:
352,96,20244,5,0,0:0:0:0:
352,96,20328,5,8,0:0:0:0:
352,96,20411,5,8,0:0:0:0:
352,96,20494,5,8,0:0:0:0:
352,96,20578,5,8,0:0:0:0:
160,288,20661,5,4,0:0:0:0:
352,288,20994,5,12,0:0:0:0:
352,288,21328,5,12,0:0:0:0:
160,96,22161,5,0,0:0:0:0:
352,96,22328,5,8,0:0:0:0:
160,96,22494,5,0,0:0:0:0:
352,96,22661,5,8,0:0:0:0:
160,96,22828,5,0,0:0:0:0:
160,96,22911,5,0,0:0:0:0:
352,96,22994,5,8,0:0:0:0:
160,96,23161,5,0,0:0:0:0:
352,96,23328,5,8,0:0:0:0:
352,96,23411,5,8,0:0:0:0:
160,96,23494,5,0,0:0:0:0:
160,96,23578,5,0,0:0:0:0:
352,96,23661,5,8,0:0:0:0:
160,96,23828,5,0,0:0:0:0:
352,96,23994,5,8,0:0:0:0:
160,96,24161,5,0,0:0:0:0:
160,96,24244,5,0,0:0:0:0:
352,96,24328,5,8,0:0:0:0:
160,96,24494,5,0,0:0:0:0:
352,96,24661,5,8,0:0:0:0:
352,96,24744,5,8,0:0:0:0:
160,96,24828,5,0,0:0:0:0:
352,96,24911,5,8,0:0:0:0:
352,96,24994,5,8,0:0:0:0:
160,96,25161,5,0,0:0:0:0:
352,96,25244,5,8,0:0:0:0:
160,96,25328,5,0,0:0:0:0:
160,96,25411,5,0,0:0:0:0:
352,96,25494,5,8,0:0:0:0:
352,96,25578,5,8,0:0:0:0:
160,96,25661,5,0,0:0:0:0:
352,288,25828,5,12,0:0:0:0:
160,96,25994,5,0,0:0:0:0:
352,96,26078,5,8,0:0:0:0:
160,96,26161,5,0,0:0:0:0:
352,96,26328,5,8,0:0:0:0:
160,96,26494,5,0,0:0:0:0:
160,96,26578,5,0,0:0:0:0:
352,96,26661,5,8,0:0:0:0:
160,96,26828,5,0,0:0:0:0:
352,96,26994,5,8,0:0:0:0:
352,96,27078,5,8,0:0:0:0:
160,96,27161,5,0,0:0:0:0:
160,96,27228,5,0,0:0:0:0:
160,96,27294,5,0,0:0:0:0:
160,96,27361,5,0,0:0:0:0:
160,96,27428,5,0,0:0:0:0:
352,96,27494,5,8,0:0:0:0:
160,96,27661,5,0,0:0:0:0:
352,96,27828,5,8,0:0:0:0:
160,96,27911,5,0,0:0:0:0:
352,96,27994,5,8,0:0:0:0:
352,96,28161,5,8,0:0:0:0:
160,96,28328,5,0,0:0:0:0:
352,96,28494,5,8,0:0:0:0:
160,96,28550,5,0,0:0:0:0:
160,96,28606,5,0,0:0:0:0:
352,96,28661,5,8,0:0:0:0:
352,96,28828,5,8,0:0:0:0:
352,96,28911,5,8,0:0:0:0:
160,96,28994,5,0,0:0:0:0:
160,96,29078,5,0,0:0:0:0:
352,96,29161,5,8,0:0:0:0:
160,96,29328,5,0,0:0:0:0:
352,96,29494,5,8,0:0:0:0:
160,96,29578,5,0,0:0:0:0:
160,96,29661,5,0,0:0:0:0:
160,96,29828,5,0,0:0:0:0:
352,288,29994,5,12,0:0:0:0:
352,96,30328,5,8,0:0:0:0:
160,288,30661,5,4,0:0:0:0:
160,96,30994,5,0,0:0:0:0:
352,288,31328,5,12,0:0:0:0:
256,192,31494,12,0,32494,0:0:0:0:
160,96,32828,5,0,0:0:0:0:
352,96,32911,5,8,0:0:0:0:
352,96,32994,5,8,0:0:0:0:
160,96,33078,5,0,0:0:0:0:
352,96,33161,5,8,0:0:0:0:
352,96,33244,5,8,0:0:0:0:
160,96,33328,5,0,0:0:0:0:
160,96,33411,5,0,0:0:0:0:
352,96,33494,5,8,0:0:0:0:
160,96,33661,5,0,0:0:0:0:
352,96,33828,5,8,0:0:0:0:
160,96,33911,5,0,0:0:0:0:
352,96,33994,5,8,0:0:0:0:
352,96,34050,5,8,0:0:0:0:
352,96,34106,5,8,0:0:0:0:
160,96,34161,5,0,0:0:0:0:
352,96,34244,5,8,0:0:0:0:
352,96,34328,5,8,0:0:0:0:
160,96,34411,5,0,0:0:0:0:
352,96,34494,5,8,0:0:0:0:
352,96,34578,5,8,0:0:0:0:
160,96,34661,5,0,0:0:0:0:
160,96,34744,5,0,0:0:0:0:
352,96,34828,5,8,0:0:0:0:
352,96,34911,5,8,0:0:0:0:
352,96,34994,5,8,0:0:0:0:
352,96,35078,5,8,0:0:0:0:
160,96,35161,5,0,0:0:0:0:
352,96,35328,5,8,0:0:0:0:
160,96,35494,5,0,0:0:0:0:
352,96,35578,5,8,0:0:0:0:
160,96,35661,5,0,0:0:0:0:
352,96,35717,5,8,0:0:0:0:
352,96,35772,5,8,0:0:0:0:
160,96,35828,5,0,0:0:0:0:
160,96,35911,5,0,0:0:0:0:
352,96,35994,5,8,0:0:0:0:
160,96,36161,5,0,0:0:0:0:
352,96,36328,5,8,0:0:0:0:
352,96,36411,5,8,0:0:0:0:
160,96,36494,5,0,0:0:0:0:
352,96,36661,5,8,0:0:0:0:
160,96,36828,5,0,0:0:0:0:
352,96,36883,5,8,0:0:0:0:
352,96,36939,5,8,0:0:0:0:
160,96,36994,5,0,0:0:0:0:
352,96,37050,5,8,0:0:0:0:
352,96,37106,5,8,0:0:0:0:
160,96,37161,5,0,0:0:0:0:
160,96,37244,5,0,0:0:0:0:
352,96,37328,5,8,0:0:0:0:
160,96,37494,5,0,0:0:0:0:
160,96,37578,5,0,0:0:0:0:
160,96,37661,5,0,0:0:0:0:
160,96,37744,5,0,0:0:0:0:
160,96,38161,5,0,0:0:0:0:
160,96,38328,5,0,0:0:0:0:
160,96,38411,5,0,0:0:0:0:
352,96,38494,5,8,0:0:0:0:
352,96,38661,5,8,0:0:0:0:
352,96,38828,5,8,0:0:0:0:
352,96,38911,5,8,0:0:0:0:
160,96,38994,5,0,0:0:0:0:
160,96,39161,5,0,0:0:0:0:
160,96,39328,5,0,0:0:0:0:
352,96,39411,5,8,0:0:0:0:
160,96,39494,5,0,0:0:0:0:
160,96,39578,5,0,0:0:0:0:
352,96,39661,5,8,0:0:0:0:
352,96,39828,5,8,0:0:0:0:
352,96,39911,5,8,0:0:0:0:
160,96,39994,5,0,0:0:0:0:
160,288,40161,5,4,0:0:0:0:
352,288,40411,5,12,0:0:0:0:
352,288,40661,5,12,0:0:0:0:
160,96,40994,5,0,0:0:0:0:
352,96,41161,5,8,0:0:0:0:
160,96,41328,5,0,0:0:0:0:
352,96,41411,5,8,0:0:0:0:
352,96,41494,5,8,0:0:0:0:
160,96,41661,5,0,0:0:0:0:
352,96,41744,5,8,0:0:0:0:
160,96,41828,5,0,0:0:0:0:
160,96,41911,5,0,0:0:0:0:
352,96,41994,5,8,0:0:0:0:
160,96,42161,5,0,0:0:0:0:
352,96,42244,5,8,0:0:0:0:
160,96,42328,5,0,0:0:0:0:
352,96,42411,5,8,0:0:0:0:
160,96,42494,5,0,0:0:0:0:
352,96,42578,5,8,0:0:0:0:
352,96,42661,5,8,0:0:0:0:
352,96,42744,5,8,0:0:0:0:
256,192,42828,12,0,43328,0:0:0:0:
160,288,43494,5,4,0:0:0:0:
352,96,43661,5,8,0:0:0:0:
352,96,43744,5,8,0:0:0:0:
160,96,43828,5,0,0:0:0:0:
352,96,43994,5,8,0:0:0:0:
160,96,44161,5,0,0:0:0:0:
160,96,44244,5,0,0:0:0:0:
352,96,44328,5,8,0:0:0:0:
160,96,44494,5,0,0:0:0:0:
352,96,44661,5,8,0:0:0:0:
352,96,44744,5,8,0:0:0:0:
160,96,44828,5,0,0:0:0:0:
352,96,44911,5,8,0:0:0:0:
352,96,44994,5,8,0:0:0:0:
160,96,45161,5,0,0:0:0:0:
352,96,45328,5,8,0:0:0:0:
352,96,45411,5,8,0:0:0:0:
160,96,45494,5,0,0:0:0:0:
352,96,45661,5,8,0:0:0:0:
160,96,45828,5,0,0:0:0:0:
352,96,45911,5,8,0:0:0:0:
160,96,45994,5,0,0:0:0:0:
160,96,46078,5,0,0:0:0:0:
352,96,46161,5,8,0:0:0:0:
160,96,46328,5,0,0:0:0:0:
352,96,46494,5,8,0:0:0:0:
160,96,46578,5,0,0:0:0:0:
160,96,46661,5,0,0:0:0:0:
352,96,46828,5,8,0:0:0:0:
160,96,46994,5,0,0:0:0:0:
352,96,47078,5,8,0:0:0:0:
160,96,47161,5,0,0:0:0:0:
352,96,47328,5,8,0:0:0:0:
160,96,47411,5,0,0:0:0:0:
160,96,47494,5,0,0:0:0:0:
160,96,47578,5,0,0:0:0:0:
352,96,47661,5,8,0:0:0:0:
160,96,47828,5,0,0:0:0:0:
352,96,47994,5,8,0:0:0:0:
352,96,48078,5,8,0:0:0:0:
160,96,48161,5,0,0:0:0:0:
352,96,48328,5,8,0:0:0:0:
160,96,48494,5,0,0:0:0:0:
160,96,48578,5,8,0:0:0:0:
160,96,48661,5,0,0:0:0:0:
160,288,48828,5,4,0:0:0:0:
352,96,48994,5,8,0:0:0:0:
352,96,49078,5,8,0:0:0:0:
160,96,49161,5,0,0:0:0:0:
160,96,49328,5,0,0:0:0:0:
352,96,49411,5,8,0:0:0:0:
160,96,49494,5,0,0:0:0:0:
160,96,49578,5,0,0:0:0:0:
352,96,49661,5,8,0:0:0:0:
352,96,49744,5,8,0:0:0:0:
160,96,49828,5,0,0:0:0:0:
352,96,49994,5,8,0:0:0:0:
160,96,50161,5,0,0:0:0:0:
160,96,50244,5,0,0:0:0:0:
352,96,50328,5,8,0:0:0:0:
160,96,50494,5,0,0:0:0:0:
352,96,50661,5,8,0:0:0:0:
160,96,50744,5,0,0:0:0:0:
160,96,50828,5,0,0:0:0:0:
352,96,50994,5,8,0:0:0:0:
352,96,51078,5,8,0:0:0:0:
160,96,51161,5,0,0:0:0:0:
352,96,51244,5,8,0:0:0:0:
160,96,51328,5,0,0:0:0:0:
352,96,51494,5,8,0:0:0:0:
160,96,51661,5,0,0:0:0:0:
160,96,51744,5,0,0:0:0:0:
352,96,51828,5,8,0:0:0:0:
160,96,51994,5,0,0:0:0:0:
352,96,52078,5,8,0:0:0:0:
160,96,52161,5,0,0:0:0:0:
160,96,52244,5,0,0:0:0:0:
352,96,52328,5,8,0:0:0:0:
160,96,52494,5,0,0:0:0:0:
352,96,52661,5,8,0:0:0:0:
352,96,52744,5,8,0:0:0:0:
160,96,52828,5,0,0:0:0:0:
160,96,52911,5,0,0:0:0:0:
352,96,52994,5,8,0:0:0:0:
160,96,53161,5,0,0:0:0:0:
352,96,53217,5,0,0:0:0:0:
352,96,53272,5,0,0:0:0:0:
160,96,53328,5,8,0:0:0:0:
160,96,53411,5,8,0:0:0:0:
352,96,53494,5,0,0:0:0:0:
160,96,53550,5,0,0:0:0:0:
160,96,53606,5,0,0:0:0:0:
352,96,53661,5,8,0:0:0:0:
160,96,53717,5,0,0:0:0:0:
160,96,53772,5,0,0:0:0:0:
352,96,53828,5,8,0:0:0:0:
160,288,54161,5,4,0:0:0:0:
160,96,54328,5,0,0:0:0:0:
160,96,54411,5,0,0:0:0:0:
352,96,54494,5,8,0:0:0:0:
160,96,54661,5,0,0:0:0:0:
352,96,54828,5,8,0:0:0:0:
352,96,54911,5,8,0:0:0:0:
160,96,54994,5,0,0:0:0:0:
352,96,55161,5,8,0:0:0:0:
160,96,55328,5,0,0:0:0:0:
352,96,55411,5,8,0:0:0:0:
352,96,55578,5,8,0:0:0:0:
160,96,55661,5,0,0:0:0:0:
352,96,55828,5,8,0:0:0:0:
160,96,55994,5,0,0:0:0:0:
352,96,56078,5,8,0:0:0:0:
352,96,56161,5,8,0:0:0:0:
160,96,56328,5,0,0:0:0:0:
352,96,56494,5,8,0:0:0:0:
352,96,56578,5,8,0:0:0:0:
160,96,56661,5,0,0:0:0:0:
160,96,56744,5,0,0:0:0:0:
352,96,56828,5,8,0:0:0:0:
160,96,56994,5,0,0:0:0:0:
352,96,57161,5,8,0:0:0:0:
160,96,57244,5,0,0:0:0:0:
160,96,57328,5,0,0:0:0:0:
352,96,57494,5,8,0:0:0:0:
160,96,57661,5,0,0:0:0:0:
352,96,57744,5,8,0:0:0:0:
160,96,57828,5,0,0:0:0:0:
352,96,57994,5,8,0:0:0:0:
160,96,58078,5,0,0:0:0:0:
352,96,58161,5,8,0:0:0:0:
352,96,58244,5,8,0:0:0:0:
160,96,58328,5,0,0:0:0:0:
352,96,58494,5,8,0:0:0:0:
160,96,58661,5,0,0:0:0:0:
352,96,58744,5,8,0:0:0:0:
352,96,58828,5,8,0:0:0:0:
160,96,58994,5,0,0:0:0:0:
352,96,59161,5,8,0:0:0:0:
352,96,59244,5,8,0:0:0:0:
160,96,59328,5,0,0:0:0:0:
160,288,59494,5,4,0:0:0:0:
352,288,59661,5,12,0:0:0:0:
160,96,59828,5,0,0:0:0:0:
352,96,59994,5,8,0:0:0:0:
160,96,60161,5,0,0:0:0:0:
160,96,60244,5,0,0:0:0:0:
352,96,60328,5,8,0:0:0:0:
160,96,60494,5,0,0:0:0:0:
352,96,60661,5,8,0:0:0:0:
352,96,60744,5,8,0:0:0:0:
352,96,60911,5,8,0:0:0:0:
160,96,60994,5,0,0:0:0:0:
160,96,61078,5,0,0:0:0:0:
352,96,61161,5,8,0:0:0:0:
160,96,61244,5,0,0:0:0:0:
352,96,61328,5,8,0:0:0:0:
160,96,61494,5,0,0:0:0:0:
352,96,61661,5,8,0:0:0:0:
160,96,61744,5,0,0:0:0:0:
352,96,61828,5,8,0:0:0:0:
352,96,61911,5,8,0:0:0:0:
160,96,61994,5,0,0:0:0:0:
352,96,62161,5,8,0:0:0:0:
160,96,62328,5,0,0:0:0:0:
352,96,62411,5,8,0:0:0:0:
160,96,62494,5,0,0:0:0:0:
352,96,62661,5,8,0:0:0:0:
160,96,62828,5,0,0:0:0:0:
160,96,62911,5,0,0:0:0:0:
352,96,62994,5,8,0:0:0:0:
352,96,63078,5,8,0:0:0:0:
160,96,63161,5,0,0:0:0:0:
352,96,63328,5,8,0:0:0:0:
160,96,63494,5,0,0:0:0:0:
352,96,63578,5,8,0:0:0:0:
160,96,63661,5,0,0:0:0:0:
160,96,63744,5,0,0:0:0:0:
352,96,63828,5,8,0:0:0:0:
160,96,63911,5,0,0:0:0:0:
160,96,63994,5,0,0:0:0:0:
160,96,64078,5,0,0:0:0:0:
352,96,64161,5,8,0:0:0:0:
352,96,64244,5,8,0:0:0:0:
160,96,64328,5,0,0:0:0:0:
160,96,64411,5,0,0:0:0:0:
352,96,64494,5,8,0:0:0:0:
160,96,64578,5,0,0:0:0:0:
352,96,64661,5,8,0:0:0:0:
352,96,64744,5,8,0:0:0:0:
160,96,64828,5,0,0:0:0:0:
352,96,64994,5,8,0:0:0:0:
160,96,65078,5,0,0:0:0:0:
160,96,65161,5,0,0:0:0:0:
160,96,65244,5,0,0:0:0:0:
352,96,65328,5,8,0:0:0:0:
160,96,65494,5,0,0:0:0:0:
160,96,65578,5,0,0:0:0:0:
352,96,65661,5,8,0:0:0:0:
160,96,65744,5,0,0:0:0:0:
352,96,65828,5,8,0:0:0:0:
352,96,65911,5,8,0:0:0:0:
160,96,65994,5,0,0:0:0:0:
352,96,66078,5,8,0:0:0:0:
256,192,66161,12,0,66994,0:0:0:0:
160,96,67494,5,4,0:0:0:0:
352,96,67661,5,8,0:0:0:0:
160,96,67745,5,0,0:0:0:0:
352,96,67828,5,8,0:0:0:0:
160,96,67995,5,0,0:0:0:0:
352,96,68161,5,8,0:0:0:0:
352,96,68245,5,8,0:0:0:0:
160,96,68328,5,0,0:0:0:0:
352,96,68495,5,8,0:0:0:0:
160,96,68661,5,0,0:0:0:0:
352,96,68745,5,8,0:0:0:0:
160,96,68828,5,0,0:0:0:0:
352,96,68994,5,8,0:0:0:0:
160,96,69078,5,0,0:0:0:0:
160,96,69244,5,0,0:0:0:0:
352,96,69328,5,8,0:0:0:0:
160,96,69494,5,0,0:0:0:0:
160,96,69578,5,0,0:0:0:0:
160,96,69661,5,0,0:0:0:0:
160,96,69744,5,0,0:0:0:0:
352,96,69828,5,8,0:0:0:0:
160,96,69994,5,0,0:0:0:0:
160,96,70078,5,0,0:0:0:0:
352,96,70161,5,8,0:0:0:0:
160,96,70328,5,0,0:0:0:0:
352,96,70494,5,8,0:0:0:0:
160,96,70578,5,0,0:0:0:0:
352,96,70661,5,8,0:0:0:0:
160,96,70828,5,0,0:0:0:0:
352,96,70994,5,8,0:0:0:0:
352,96,71078,5,8,0:0:0:0:
160,96,71161,5,0,0:0:0:0:
352,96,71327,5,8,0:0:0:0:
352,96,71411,5,8,0:0:0:0:
352,96,71577,5,8,0:0:0:0:
160,96,71661,5,0,0:0:0:0:
352,96,71827,5,8,0:0:0:0:
352,96,71894,5,8,0:0:0:0:
352,96,71961,5,8,0:0:0:0:
352,96,72027,5,8,0:0:0:0:
352,96,72094,5,8,0:0:0:0:
160,96,72161,5,0,0:0:0:0:
352,96,72327,5,8,0:0:0:0:
160,96,72411,5,0,0:0:0:0:
352,96,72494,5,8,0:0:0:0:
160,96,72661,5,0,0:0:0:0:
352,96,72827,5,8,0:0:0:0:
352,96,72911,5,8,0:0:0:0:
160,96,72994,5,0,0:0:0:0:
352,96,73161,5,8,0:0:0:0:
160,96,73327,5,0,0:0:0:0:
352,96,73411,5,8,0:0:0:0:
160,96,73494,5,0,0:0:0:0:
352,96,73660,5,8,0:0:0:0:
160,96,73744,5,0,0:0:0:0:
160,96,73827,5,0,0:0:0:0:
160,96,73910,5,0,0:0:0:0:
352,96,73994,5,8,0:0:0:0:
160,96,74160,5,0,0:0:0:0:
352,96,74244,5,8,0:0:0:0:
352,96,74327,5,8,0:0:0:0:
352,96,74410,5,8,0:0:0:0:
160,288,74494,5,4,0:0:0:0:
352,96,74660,5,8,0:0:0:0:
160,96,74744,5,0,0:0:0:0:
352,96,74827,5,8,0:0:0:0:
160,288,74994,5,4,0:0:0:0:
352,96,75160,5,8,0:0:0:0:
160,96,75244,5,0,0:0:0:0:
352,96,75327,5,8,0:0:0:0:
160,288,75494,5,4,0:0:0:0:
352,96,75660,5,8,0:0:0:0:
352,96,75744,5,8,0:0:0:0:
160,96,75827,5,0,0:0:0:0:
352,288,75994,5,12,0:0:0:0:
352,96,76327,5,8,0:0:0:0:
160,96,76494,5,0,0:0:0:0:
160,96,76577,5,0,0:0:0:0:
352,96,76660,5,8,0:0:0:0:
160,96,76744,5,0,0:0:0:0:
352,96,76827,5,8,0:0:0:0:
352,96,76910,5,8,0:0:0:0:
160,96,76994,5,0,0:0:0:0:
160,96,77077,5,0,0:0:0:0:
352,96,77160,5,8,0:0:0:0:
160,96,77244,5,0,0:0:0:0:
352,96,77327,5,8,0:0:0:0:
352,96,77410,5,8,0:0:0:0:
352,96,77494,5,8,0:0:0:0:
160,96,77577,5,0,0:0:0:0:
352,96,77660,5,8,0:0:0:0:
352,96,77744,5,8,0:0:0:0:
160,96,77827,5,0,0:0:0:0:
352,96,78160,5,8,0:0:0:0:
160,96,78327,5,0,0:0:0:0:
160,96,78660,5,0,0:0:0:0:
352,96,78827,5,8,0:0:0:0:
160,96,79160,5,0,0:0:0:0:
352,96,79494,5,8,0:0:0:0:
160,96,79660,5,0,0:0:0:0:
160,96,79994,5,0,0:0:0:0:
160,96,80077,5,0,0:0:0:0:
352,96,80160,5,8,0:0:0:0:
352,96,80327,5,8,0:0:0:0:
160,96,80494,5,0,0:0:0:0:
352,96,80827,5,8,0:0:0:0:
160,96,80994,5,0,0:0:0:0:
160,96,81327,5,0,0:0:0:0:
352,96,81494,5,8,0:0:0:0:
352,96,81744,5,8,0:0:0:0:
160,96,81827,5,0,0:0:0:0:
160,96,81994,5,0,0:0:0:0:
352,96,82160,5,8,0:0:0:0:
160,96,82327,5,0,0:0:0:0:
352,96,82494,5,8,0:0:0:0:
160,96,82660,5,0,0:0:0:0:
160,96,82744,5,0,0:0:0:0:
352,96,82827,5,8,0:0:0:0:
352,96,82910,5,8,0:0:0:0:
352,96,82994,5,8,0:0:0:0:
352,96,83077,5,8,0:0:0:0:
160,96,83160,5,0,0:0:0:0:
352,96,83494,5,8,0:0:0:0:
160,96,83660,5,0,0:0:0:0:
160,96,83827,5,0,0:0:0:0:
352,96,83993,5,8,0:0:0:0:
352,96,84327,5,8,0:0:0:0:
160,96,84493,5,0,0:0:0:0:
352,96,84660,5,8,0:0:0:0:
352,96,84743,5,8,0:0:0:0:
352,96,84827,5,8,0:0:0:0:
352,96,84910,5,8,0:0:0:0:
160,96,84993,5,0,0:0:0:0:
352,96,85160,5,8,0:0:0:0:
160,96,85327,5,0,0:0:0:0:
160,96,85660,5,0,0:0:0:0:
352,96,85827,5,8,0:0:0:0:
160,96,85993,5,0,0:0:0:0:
160,96,86077,5,0,0:0:0:0:
352,96,86160,5,8,0:0:0:0:
160,96,86327,5,0,0:0:0:0:
352,96,86493,5,8,0:0:0:0:
352,96,86577,5,8,0:0:0:0:
160,96,86660,5,0,0:0:0:0:
352,96,86827,5,8,0:0:0:0:
160,288,86993,5,4,0:0:0:0:
160,96,87993,5,0,0:0:0:0:
352,96,88160,5,8,0:0:0:0:
160,96,88243,5,0,0:0:0:0:
352,96,88327,5,8,0:0:0:0:
160,288,88493,5,4,0:0:0:0:
160,96,88827,5,0,0:0:0:0:
352,96,88993,5,8,0:0:0:0:
160,96,89160,5,0,0:0:0:0:
352,96,89243,5,8,0:0:0:0:
352,96,89410,5,8,0:0:0:0:
160,96,89493,5,0,0:0:0:0:
352,96,89660,5,8,0:0:0:0:
352,96,89743,5,8,0:0:0:0:
160,96,89827,5,0,0:0:0:0:
160,96,90160,5,0,0:0:0:0:
352,96,90327,5,8,0:0:0:0:
160,96,90493,5,0,0:0:0:0:
160,96,90577,5,0,0:0:0:0:
352,96,90660,5,8,0:0:0:0:
352,96,90743,5,8,0:0:0:0:
160,96,90827,5,0,0:0:0:0:
352,96,90993,5,8,0:0:0:0:
160,96,91160,5,0,0:0:0:0:
352,96,91327,5,8,0:0:0:0:
160,96,91493,5,0,0:0:0:0:
352,96,91577,5,8,0:0:0:0:
352,96,91660,5,8,0:0:0:0:
352,96,91743,5,8,0:0:0:0:
160,96,91827,5,0,0:0:0:0:
352,96,91910,5,8,0:0:0:0:
160,96,91993,5,0,0:0:0:0:
352,288,92160,5,12,0:0:0:0:
352,96,92327,5,8,0:0:0:0:
352,96,92410,5,8,0:0:0:0:
160,96,92493,5,0,0:0:0:0:
352,96,92660,5,8,0:0:0:0:
160,96,92827,5,0,0:0:0:0:
160,96,92993,5,0,0:0:0:0:
160,96,93077,5,0,0:0:0:0:
352,96,93160,5,8,0:0:0:0:
160,96,93327,5,0,0:0:0:0:
352,96,93493,5,8,0:0:0:0:
352,96,93660,5,8,0:0:0:0:
160,288,93827,5,4,0:0:0:0:
352,96,94160,5,8,0:0:0:0:
160,288,94327,5,4,0:0:0:0:
352,96,94493,5,8,0:0:0:0:
160,96,94577,5,0,0:0:0:0:
352,96,94660,5,8,0:0:0:0:
352,96,94743,5,8,0:0:0:0:
160,96,94827,5,0,0:0:0:0:
352,288,94993,5,12,0:0:0:0:
160,96,95327,5,0,0:0:0:0:
160,96,95410,5,0,0:0:0:0:
352,96,95493,5,8,0:0:0:0:
160,288,95660,5,4,0:0:0:0:
352,96,95827,5,8,0:0:0:0:
160,96,95910,5,0,0:0:0:0:
352,96,95993,5,8,0:0:0:0:
160,96,96160,5,0,0:0:0:0:
352,288,96327,5,12,0:0:0:0:
160,96,96493,5,0,0:0:0:0:
352,96,96660,5,8,0:0:0:0:
160,96,96743,5,0,0:0:0:0:
160,96,96827,5,0,0:0:0:0:
352,288,96993,5,12,0:0:0:0:
160,96,97160,5,0,0:0:0:0:
160,96,97243,5,0,0:0:0:0:
352,96,97327,5,8,0:0:0:0:
160,96,97410,5,0,0:0:0:0:
160,96,97493,5,0,0:0:0:0:
352,288,97660,5,12,0:0:0:0:
160,96,97827,5,0,0:0:0:0:
352,96,97993,5,8,0:0:0:0:
352,96,98077,5,8,0:0:0:0:
160,96,98160,5,0,0:0:0:0:
352,288,98327,5,12,0:0:0:0:
160,96,98493,5,0,0:0:0:0:
160,96,98577,5,0,0:0:0:0:
352,96,98660,5,8,0:0:0:0:
352,96,98743,5,8,0:0:0:0:
160,96,98827,5,0,0:0:0:0:
352,288,98993,5,12,0:0:0:0:
160,96,99160,5,0,0:0:0:0:
160,96,99327,5,0,0:0:0:0:
352,96,99493,5,8,0:0:0:0:
160,96,99660,5,0,0:0:0:0:
160,96,99743,5,0,0:0:0:0:
352,96,99827,5,8,0:0:0:0:
160,96,99910,5,0,0:0:0:0:
352,96,99993,5,8,0:0:0:0:
352,96,100077,5,8,0:0:0:0:
160,96,100160,5,0,0:0:0:0:
160,96,100243,5,0,0:0:0:0:
352,96,100327,5,8,0:0:0:0:
160,96,100410,5,0,0:0:0:0:
352,96,100493,5,8,0:0:0:0:
352,96,100577,5,8,0:0:0:0:
160,96,100660,5,0,0:0:0:0:
160,96,100743,5,0,0:0:0:0:
352,96,100827,5,8,0:0:0:0:
352,96,100910,5,8,0:0:0:0:
352,96,100993,5,8,0:0:0:0:
352,96,101077,5,8,0:0:0:0:
256,192,101160,12,8,101660,0:0:0:0:
160,288,101827,5,4,0:0:0:0:
352,96,101993,5,8,0:0:0:0:
352,96,102077,5,8,0:0:0:0:
160,96,102160,5,0,0:0:0:0:
352,96,102327,5,8,0:0:0:0:
160,96,102493,5,0,0:0:0:0:
160,96,102577,5,0,0:0:0:0:
352,96,102660,5,8,0:0:0:0:
160,96,102827,5,0,0:0:0:0:
352,96,102993,5,8,0:0:0:0:
352,96,103077,5,8,0:0:0:0:
160,96,103160,5,0,0:0:0:0:
352,96,103243,5,8,0:0:0:0:
160,96,103327,5,0,0:0:0:0:
352,96,103493,5,8,0:0:0:0:
160,96,103660,5,0,0:0:0:0:
160,96,103743,5,0,0:0:0:0:
160,96,103827,5,0,0:0:0:0:
352,96,103993,5,8,0:0:0:0:
160,96,104077,5,0,0:0:0:0:
352,96,104160,5,8,0:0:0:0:
352,96,104243,5,8,0:0:0:0:
160,96,104327,5,0,0:0:0:0:
352,96,104493,5,8,0:0:0:0:
160,96,104660,5,0,0:0:0:0:
160,96,104743,5,0,0:0:0:0:
352,96,104827,5,8,0:0:0:0:
160,96,104993,5,0,0:0:0:0:
352,96,105160,5,8,0:0:0:0:
352,96,105243,5,8,0:0:0:0:
160,96,105327,5,0,0:0:0:0:
352,96,105493,5,8,0:0:0:0:
160,96,105660,5,0,0:0:0:0:
352,96,105743,5,8,0:0:0:0:
352,96,105827,5,8,0:0:0:0:
160,96,105993,5,0,0:0:0:0:
352,96,106160,5,8,0:0:0:0:
160,96,106243,5,0,0:0:0:0:
352,96,106327,5,8,0:0:0:0:
352,96,106410,5,8,0:0:0:0:
160,96,106493,5,0,0:0:0:0:
160,96,106577,5,0,0:0:0:0:
352,96,106660,5,8,0:0:0:0:
160,96,106827,5,0,0:0:0:0:
352,96,106910,5,8,0:0:0:0:
160,96,106993,5,0,0:0:0:0:
160,288,107160,5,4,0:0:0:0:
352,96,107327,5,8,0:0:0:0:
352,96,107410,5,8,0:0:0:0:
160,96,107493,5,0,0:0:0:0:
352,96,107660,5,8,0:0:0:0:
160,96,107827,5,0,0:0:0:0:
160,96,107910,5,0,0:0:0:0:
352,96,107993,5,8,0:0:0:0:
160,96,108160,5,0,0:0:0:0:
352,96,108327,5,8,0:0:0:0:
160,96,108410,5,0,0:0:0:0:
352,96,108493,5,8,0:0:0:0:
352,96,108577,5,8,0:0:0:0:
160,96,108660,5,0,0:0:0:0:
352,96,108827,5,8,0:0:0:0:
160,96,108993,5,0,0:0:0:0:
352,96,109077,5,8,0:0:0:0:
160,96,109160,5,0,0:0:0:0:
160,96,109327,5,0,0:0:0:0:
160,96,109410,5,0,0:0:0:0:
352,96,109493,5,8,0:0:0:0:
352,96,109577,5,8,0:0:0:0:
160,96,109660,5,0,0:0:0:0:
352,96,109827,5,8,0:0:0:0:
160,96,109993,5,0,0:0:0:0:
160,96,110077,5,0,0:0:0:0:
352,96,110160,5,8,0:0:0:0:
160,96,110327,5,0,0:0:0:0:
160,96,110410,5,0,0:0:0:0:
352,96,110493,5,8,0:0:0:0:
160,96,110577,5,0,0:0:0:0:
352,96,110660,5,8,0:0:0:0:
352,96,110743,5,8,0:0:0:0:
160,96,110827,5,0,0:0:0:0:
352,96,110993,5,8,0:0:0:0:
160,96,111160,5,0,0:0:0:0:
160,96,111243,5,0,0:0:0:0:
352,96,111327,5,8,0:0:0:0:
160,96,111493,5,0,0:0:0:0:
160,96,111577,5,0,0:0:0:0:
352,96,111660,5,8,0:0:0:0:
352,96,111716,5,8,0:0:0:0:
352,96,111771,5,8,0:0:0:0:
352,96,111827,5,0,0:0:0:0:
160,96,111910,5,0,0:0:0:0:
352,96,111993,5,8,0:0:0:0:
160,96,112049,5,0,0:0:0:0:
160,96,112105,5,0,0:0:0:0:
352,96,112160,5,8,0:0:0:0:
352,96,112327,5,8,0:0:0:0:
352,96,112410,5,8,0:0:0:0:
160,96,112493,5,0,0:0:0:0:
160,96,112660,5,0,0:0:0:0:
160,96,112743,5,0,0:0:0:0:
352,96,112827,5,8,0:0:0:0:
160,96,112993,5,0,0:0:0:0:
352,96,113160,5,8,0:0:0:0:
352,96,113243,5,8,0:0:0:0:
160,96,113327,5,0,0:0:0:0:
352,96,113493,5,8,0:0:0:0:
160,96,113660,5,0,0:0:0:0:
352,96,113743,5,8,0:0:0:0:
352,96,113910,5,8,0:0:0:0:
160,96,113993,5,0,0:0:0:0:
352,96,114160,5,8,0:0:0:0:
160,96,114327,5,0,0:0:0:0:
352,96,114410,5,8,0:0:0:0:
352,96,114493,5,8,0:0:0:0:
160,96,114660,5,0,0:0:0:0:
352,96,114827,5,8,0:0:0:0:
352,96,114993,5,8,0:0:0:0:
352,96,115077,5,8,0:0:0:0:
160,96,115160,5,0,0:0:0:0:
160,96,115327,5,0,0:0:0:0:
352,96,115493,5,8,0:0:0:0:
160,96,115660,5,0,0:0:0:0:
352,96,115743,5,8,0:0:0:0:
160,96,115827,5,0,0:0:0:0:
160,96,115910,5,0,0:0:0:0:
352,96,115993,5,8,0:0:0:0:
160,96,116160,5,0,0:0:0:0:
352,96,116327,5,8,0:0:0:0:
160,96,116410,5,0,0:0:0:0:
352,96,116493,5,8,0:0:0:0:
352,96,116577,5,8,0:0:0:0:
160,96,116660,5,0,0:0:0:0:
352,96,116827,5,8,0:0:0:0:
160,96,116993,5,0,0:0:0:0:
352,96,117077,5,8,0:0:0:0:
352,96,117243,5,8,0:0:0:0:
160,96,117327,5,0,0:0:0:0:
352,96,117493,5,8,0:0:0:0:
160,96,117660,5,0,0:0:0:0:
352,96,117743,5,8,0:0:0:0:
160,96,117827,5,0,0:0:0:0:
160,96,117910,5,0,0:0:0:0:
352,96,117993,5,8,0:0:0:0:
160,96,118160,5,0,0:0:0:0:
160,96,118327,5,0,0:0:0:0:
352,96,118410,5,8,0:0:0:0:
160,96,118493,5,0,0:0:0:0:
352,96,118660,5,8,0:0:0:0:
160,96,118827,5,0,0:0:0:0:
352,96,118993,5,8,0:0:0:0:
352,96,119077,5,8,0:0:0:0:
160,96,119160,5,0,0:0:0:0:
352,96,119243,5,8,0:0:0:0:
352,96,119327,5,8,0:0:0:0:
160,96,119493,5,0,0:0:0:0:
352,96,119660,5,8,0:0:0:0:
352,96,119743,5,8,0:0:0:0:
160,96,119827,5,0,0:0:0:0:
160,96,119993,5,0,0:0:0:0:
160,96,120077,5,0,0:0:0:0:
352,96,120160,5,8,0:0:0:0:
160,96,120216,5,0,0:0:0:0:
160,96,120271,5,0,0:0:0:0:
352,96,120327,5,8,0:0:0:0:
352,96,120410,5,8,0:0:0:0:
160,96,120493,5,0,0:0:0:0:
160,96,120660,5,0,0:0:0:0:
352,96,120743,5,8,0:0:0:0:
160,96,120827,5,0,0:0:0:0:
352,96,120993,5,8,0:0:0:0:
160,96,121160,5,0,0:0:0:0:
160,96,121243,5,0,0:0:0:0:
352,96,121327,5,8,0:0:0:0:
160,96,121410,5,0,0:0:0:0:
352,96,121493,5,8,0:0:0:0:
160,96,121660,5,0,0:0:0:0:
352,96,121827,5,8,0:0:0:0:
352,96,121910,5,8,0:0:0:0:
160,96,121993,5,0,0:0:0:0:
160,96,122077,5,0,0:0:0:0:
352,96,122160,5,8,0:0:0:0:
160,96,122243,5,0,0:0:0:0:
352,96,122327,5,8,0:0:0:0:
352,96,122410,5,8,0:0:0:0:
160,96,122493,5,0,0:0:0:0:
160,96,122577,5,0,0:0:0:0:
352,96,122660,5,8,0:0:0:0:
352,96,122743,5,8,0:0:0:0:
160,96,122827,5,0,0:0:0:0:
352,96,122910,5,8,0:0:0:0:
352,96,122993,5,8,0:0:0:0:
352,96,123077,5,8,0:0:0:0:
160,96,123160,5,0,0:0:0:0:
352,96,123327,5,8,0:0:0:0:
160,96,123410,5,0,0:0:0:0:
352,96,123493,5,8,0:0:0:0:
352,96,123577,5,8,0:0:0:0:
160,96,123660,5,0,0:0:0:0:
352,96,123827,5,8,0:0:0:0:
352,96,123910,5,8,0:0:0:0:
160,96,123993,5,0,0:0:0:0:
352,96,124077,5,8,0:0:0:0:
160,96,124160,5,0,0:0:0:0:
160,96,124216,5,0,0:0:0:0:
160,96,124271,5,0,0:0:0:0:
352,96,124327,5,8,0:0:0:0:
352,96,124410,5,8,0:0:0:0:
160,96,124493,5,0,0:0:0:0:
160,96,124660,5,0,0:0:0:0:
160,96,124743,5,0,0:0:0:0:
352,96,124827,5,8,0:0:0:0:
160,96,124910,5,0,0:0:0:0:
160,96,124993,5,0,0:0:0:0:
160,96,125077,5,0,0:0:0:0:
352,96,125160,5,8,0:0:0:0:
352,96,125243,5,8,0:0:0:0:
160,96,125327,5,0,0:0:0:0:
160,96,125410,5,0,0:0:0:0:
352,96,125493,5,8,0:0:0:0:
160,96,125577,5,0,0:0:0:0:
352,96,125660,5,8,0:0:0:0:
352,96,125827,5,8,0:0:0:0:
160,96,125993,5,0,0:0:0:0:
352,96,126160,5,8,0:0:0:0:
160,96,126243,5,0,0:0:0:0:
352,96,126327,5,8,0:0:0:0:
352,96,126493,5,8,0:0:0:0:
160,96,126660,5,0,0:0:0:0:
160,96,126743,5,0,0:0:0:0:
352,96,126827,5,8,0:0:0:0:
352,96,126910,5,8,0:0:0:0:
160,96,126993,5,0,0:0:0:0:
352,96,127160,5,8,0:0:0:0:
160,96,127243,5,0,0:0:0:0:
352,96,127327,5,8,0:0:0:0:
352,96,127410,5,8,0:0:0:0:
160,96,127493,5,0,0:0:0:0:
352,96,127577,5,8,0:0:0:0:
160,96,127660,5,0,0:0:0:0:
160,96,127743,5,0,0:0:0:0:
352,96,127827,5,8,0:0:0:0:
352,96,127993,5,8,0:0:0:0:
160,96,128077,5,0,0:0:0:0:
352,96,128160,5,8,0:0:0:0:
352,96,128327,5,8,0:0:0:0:
160,96,128382,5,0,0:0:0:0:
160,96,128438,5,0,0:0:0:0:
352,96,128493,5,8,0:0:0:0:
160,96,128577,5,0,0:0:0:0:
352,96,128660,5,8,0:0:0:0:
352,96,128716,5,8,0:0:0:0:
352,96,128771,5,8,0:0:0:0:
160,96,128827,5,0,0:0:0:0:
160,96,128910,5,0,0:0:0:0:
352,96,128993,5,8,0:0:0:0:
160,96,129049,5,0,0:0:0:0:
160,96,129105,5,0,0:0:0:0:
352,96,129160,5,8,0:0:0:0:
352,96,129243,5,8,0:0:0:0:
160,96,129327,5,0,0:0:0:0:
160,96,129493,5,0,0:0:0:0:
352,96,129577,5,8,0:0:0:0:
352,96,129660,5,8,0:0:0:0:
352,96,129743,5,8,0:0:0:0:
160,96,129827,5,0,0:0:0:0:
160,96,129910,5,0,0:0:0:0:
352,96,129993,5,8,0:0:0:0:
160,96,130077,5,0,0:0:0:0:
352,96,130160,5,8,0:0:0:0:
352,96,130243,5,8,0:0:0:0:
160,96,130327,5,0,0:0:0:0:
160,96,130410,5,0,0:0:0:0:
352,96,130493,5,8,0:0:0:0:
160,96,130660,5,0,0:0:0:0:
352,96,130743,5,8,0:0:0:0:
352,96,130910,5,8,0:0:0:0:
160,96,130993,5,0,0:0:0:0:
160,96,131077,5,0,0:0:0:0:
352,96,131160,5,8,0:0:0:0:
352,96,131327,5,8,0:0:0:0:
352,96,131410,5,8,0:0:0:0:
160,96,131493,5,0,0:0:0:0:
352,96,131577,5,8,0:0:0:0:
160,96,131660,5,0,0:0:0:0:
160,96,131743,5,0,0:0:0:0:
352,96,131827,5,8,0:0:0:0:
160,96,131882,5,0,0:0:0:0:
160,96,131938,5,0,0:0:0:0:
352,96,131993,5,8,0:0:0:0:
160,96,132049,5,0,0:0:0:0:
160,96,132105,5,0,0:0:0:0:
352,96,132160,5,8,0:0:0:0:
352,96,132243,5,8,0:0:0:0:
352,96,132327,5,8,0:0:0:0:
352,96,132410,5,8,0:0:0:0:
160,96,132493,5,0,0:0:0:0:
160,96,132577,5,0,0:0:0:0:
352,96,132660,5,8,0:0:0:0:
160,96,132743,5,0,0:0:0:0:
352,96,132827,5,8,0:0:0:0:
352,96,132910,5,8,0:0:0:0:
160,96,132993,5,0,0:0:0:0:
352,96,133077,5,8,0:0:0:0:
160,96,133160,5,0,0:0:0:0:
160,96,133243,5,0,0:0:0:0:
352,96,133327,5,8,0:0:0:0:
160,96,133410,5,0,0:0:0:0:
352,96,133493,5,8,0:0:0:0:
352,96,133577,5,8,0:0:0:0:
160,96,133660,5,0,0:0:0:0:
160,96,133827,5,0,0:0:0:0:
160,96,133910,5,0,0:0:0:0:
160,96,133993,5,0,0:0:0:0:
160,96,134077,5,0,0:0:0:0:
352,96,134160,5,8,0:0:0:0:
352,96,134243,5,8,0:0:0:0:
352,96,134327,5,8,0:0:0:0:
352,96,134410,5,8,0:0:0:0:
160,96,134493,5,0,0:0:0:0:
160,96,134577,5,0,0:0:0:0:
352,96,134660,5,8,0:0:0:0:
352,96,134743,5,8,0:0:0:0:
160,96,134827,5,0,0:0:0:0:
352,96,134910,5,8,0:0:0:0:
352,96,134993,5,8,0:0:0:0:
352,96,135077,5,8,0:0:0:0:
160,288,135160,5,4,0:0:0:0:
160,96,135410,5,0,0:0:0:0:
352,96,135493,5,8,0:0:0:0:
160,96,135660,5,0,0:0:0:0:
160,96,135826,5,0,0:0:0:0:
160,96,135910,5,0,0:0:0:0:
352,96,135993,5,8,0:0:0:0:
160,96,136160,5,0,0:0:0:0:
160,96,136326,5,0,0:0:0:0:
352,96,136493,5,8,0:0:0:0:
160,96,136660,5,0,0:0:0:0:
352,96,136743,5,8,0:0:0:0:
160,96,136826,5,0,0:0:0:0:
160,96,136910,5,0,0:0:0:0:
352,96,136993,5,8,0:0:0:0:
160,96,137160,5,0,0:0:0:0:
160,96,137410,5,0,0:0:0:0:
352,96,137493,5,8,0:0:0:0:
160,96,137660,5,0,0:0:0:0:
160,96,137826,5,0,0:0:0:0:
160,96,137910,5,0,0:0:0:0:
352,96,137993,5,8,0:0:0:0:
160,96,138160,5,0,0:0:0:0:
352,96,138326,5,8,0:0:0:0:
160,96,138410,5,0,0:0:0:0:
352,96,138493,5,8,0:0:0:0:
160,96,138660,5,0,0:0:0:0:
352,96,138743,5,8,0:0:0:0:
160,96,138826,5,0,0:0:0:0:
352,96,138910,5,8,0:0:0:0:
352,96,138993,5,8,0:0:0:0:
352,96,139076,5,8,0:0:0:0:
256,192,139160,12,0,141993,0:0:0:0:
352,96,142160,5,8,0:0:0:0:
352,96,142910,5,8,0:0:0:0:
352,96,143660,5,8,0:0:0:0:
352,96,144410,5,8,0:0:0:0:
352,96,145160,5,8,0:0:0:0:
352,96,145910,5,8,0:0:0:0:
352,96,146472,5,8,0:0:0:0:
352,96,146847,5,8,0:0:0:0:
352,96,147035,5,8,0:0:0:0:
352,96,147222,5,8,0:0:0:0:
352,96,147597,5,8,0:0:0:0:
352,96,148160,5,8,0:0:0:0:
352,96,148910,5,8,0:0:0:0:
352,96,149660,5,8,0:0:0:0:
352,96,150410,5,8,0:0:0:0:
352,96,151160,5,8,0:0:0:0:
352,96,151910,5,8,0:0:0:0:
256,192,152660,12,0,153972,0:0:0:0:
256,192,154160,12,0,155472,0:0:0:0:
160,96,155660,5,0,0:0:0:0:
160,96,155743,5,0,0:0:0:0:
352,96,155826,5,8,0:0:0:0:
160,96,155910,5,0,0:0:0:0:
352,96,155993,5,8,0:0:0:0:
352,96,156076,5,8,0:0:0:0:
160,96,156160,5,0,0:0:0:0:
160,96,156243,5,0,0:0:0:0:
352,96,156326,5,8,0:0:0:0:
160,96,156410,5,0,0:0:0:0:
352,96,156493,5,8,0:0:0:0:
352,96,156576,5,8,0:0:0:0:
352,96,156660,5,8,0:0:0:0:
160,96,156743,5,0,0:0:0:0:
352,96,156826,5,8,0:0:0:0:
352,96,156910,5,8,0:0:0:0:
160,288,156993,5,4,0:0:0:0:
352,96,157160,5,8,0:0:0:0:
352,96,157243,5,8,0:0:0:0:
160,96,157326,5,0,0:0:0:0:
352,96,157493,5,8,0:0:0:0:
160,96,157660,5,0,0:0:0:0:
160,96,157743,5,0,0:0:0:0:
352,96,157826,5,8,0:0:0:0:
160,96,157993,5,0,0:0:0:0:
352,96,158160,5,8,0:0:0:0:
352,96,158243,5,8,0:0:0:0:
160,96,158326,5,0,0:0:0:0:
160,96,158410,5,0,0:0:0:0:
352,96,158493,5,8,0:0:0:0:
160,96,158660,5,0,0:0:0:0:
352,96,158826,5,8,0:0:0:0:
160,96,158910,5,0,0:0:0:0:
352,96,158993,5,8,0:0:0:0:
160,96,159160,5,0,0:0:0:0:
160,96,159243,5,0,0:0:0:0:
352,96,159326,5,8,0:0:0:0:
352,96,159493,5,8,0:0:0:0:
352,96,159576,5,8,0:0:0:0:
160,96,159660,5,0,0:0:0:0:
352,96,159743,5,8,0:0:0:0:
160,96,159826,5,0,0:0:0:0:
352,96,159993,5,8,0:0:0:0:
160,96,160160,5,0,0:0:0:0:
160,96,160243,5,0,0:0:0:0:
352,96,160326,5,8,0:0:0:0:
160,96,160410,5,0,0:0:0:0:
352,96,160493,5,8,0:0:0:0:
160,96,160660,5,0,0:0:0:0:
352,96,160826,5,8,0:0:0:0:
352,96,160910,5,8,0:0:0:0:
160,96,160993,5,0,0:0:0:0:
352,96,161160,5,8,0:0:0:0:
160,96,161326,5,0,0:0:0:0:
160,96,161410,5,0,0:0:0:0:
352,96,161493,5,8,0:0:0:0:
352,96,161576,5,8,0:0:0:0:
160,96,161660,5,0,0:0:0:0:
352,96,161826,5,8,0:0:0:0:
160,96,161993,5,0,0:0:0:0:
160,96,162160,5,0,0:0:0:0:
160,96,162243,5,0,0:0:0:0:
160,96,162326,5,0,0:0:0:0:
352,96,162493,5,8,0:0:0:0:
352,96,162576,5,8,0:0:0:0:
160,96,162660,5,0,0:0:0:0:
352,96,162826,5,8,0:0:0:0:
160,96,162993,5,0,0:0:0:0:
160,96,163076,5,0,0:0:0:0:
352,96,163160,5,8,0:0:0:0:
160,96,163243,5,0,0:0:0:0:
160,96,163326,5,0,0:0:0:0:
352,96,163493,5,8,0:0:0:0:
160,96,163576,5,8,0:0:0:0:
352,96,163743,5,8,0:0:0:0:
160,96,163826,5,0,0:0:0:0:
352,96,163910,5,8,0:0:0:0:
160,96,163993,5,0,0:0:0:0:
352,96,164160,5,8,0:0:0:0:
160,96,164326,5,0,0:0:0:0:
352,96,164410,5,8,0:0:0:0:
352,96,164493,5,8,0:0:0:0:
352,96,164576,5,8,0:0:0:0:
160,96,164660,5,0,0:0:0:0:
352,96,164743,5,8,0:0:0:0:
160,96,164826,5,0,0:0:0:0:
352,96,164993,5,8,0:0:0:0:
160,96,165160,5,0,0:0:0:0:
160,96,165243,5,0,0:0:0:0:
352,96,165326,5,8,0:0:0:0:
160,96,165493,5,0,0:0:0:0:
352,96,165576,5,8,0:0:0:0:
160,96,165660,5,0,0:0:0:0:
160,96,165743,5,0,0:0:0:0:
352,96,165826,5,8,0:0:0:0:
160,96,165993,5,0,0:0:0:0:
352,96,166160,5,8,0:0:0:0:
352,96,166243,5,8,0:0:0:0:
160,96,166326,5,0,0:0:0:0:
160,96,166410,5,0,0:0:0:0:
352,96,166493,5,8,0:0:0:0:
160,96,166660,5,0,0:0:0:0:
352,96,166715,5,0,0:0:0:0:
352,96,166771,5,0,0:0:0:0:
160,96,166826,5,8,0:0:0:0:
160,96,166910,5,8,0:0:0:0:
352,96,166993,5,0,0:0:0:0:
160,96,167048,5,0,0:0:0:0:
160,96,167104,5,0,0:0:0:0:
352,96,167160,5,8,0:0:0:0:
160,96,167215,5,0,0:0:0:0:
160,96,167271,5,0,0:0:0:0:
352,96,167326,5,8,0:0:0:0:
160,96,167493,5,0,0:0:0:0:
160,96,167576,5,0,0:0:0:0:
352,96,167660,5,8,0:0:0:0:
160,96,167826,5,0,0:0:0:0:
352,96,167993,5,8,0:0:0:0:
160,96,168076,5,0,0:0:0:0:
160,96,168160,5,0,0:0:0:0:
352,96,168326,5,8,0:0:0:0:
160,96,168493,5,0,0:0:0:0:
160,96,168576,5,0,0:0:0:0:
352,96,168660,5,8,0:0:0:0:
352,96,168826,5,8,0:0:0:0:
160,96,168910,5,0,0:0:0:0:
352,96,168993,5,8,0:0:0:0:
352,96,169076,5,8,0:0:0:0:
160,96,169160,5,0,0:0:0:0:
352,96,169326,5,8,0:0:0:0:
160,96,169493,5,0,0:0:0:0:
160,96,169576,5,0,0:0:0:0:
352,96,169660,5,8,0:0:0:0:
160,96,169826,5,0,0:0:0:0:
352,96,169993,5,8,0:0:0:0:
352,96,170076,5,8,0:0:0:0:
160,96,170159,5,0,0:0:0:0:
160,96,170243,5,0,0:0:0:0:
352,96,170326,5,8,0:0:0:0:
160,96,170493,5,0,0:0:0:0:
352,96,170659,5,8,0:0:0:0:
160,96,170826,5,0,0:0:0:0:
160,96,170909,5,0,0:0:0:0:
352,96,170993,5,8,0:0:0:0:
352,96,171076,5,8,0:0:0:0:
160,96,171159,5,0,0:0:0:0:
352,96,171326,5,8,0:0:0:0:
352,96,171493,5,8,0:0:0:0:
160,96,171576,5,0,0:0:0:0:
352,96,171659,5,8,0:0:0:0:
352,96,171743,5,8,0:0:0:0:
160,96,171826,5,0,0:0:0:0:
352,96,171993,5,8,0:0:0:0:
160,96,172159,5,0,0:0:0:0:
352,96,172243,5,8,0:0:0:0:
352,96,172326,5,8,0:0:0:0:
160,96,172493,5,0,0:0:0:0:
352,96,172659,5,8,0:0:0:0:
352,96,172743,5,8,0:0:0:0:
352,96,172826,5,8,0:0:0:0:
352,96,172909,5,8,0:0:0:0:
160,96,172993,5,0,0:0:0:0:
160,96,173159,5,0,0:0:0:0:
352,96,173243,5,8,0:0:0:0:
160,96,173326,5,0,0:0:0:0:
352,96,173493,5,8,0:0:0:0:
160,96,173659,5,0,0:0:0:0:
160,96,173743,5,0,0:0:0:0:
352,96,173826,5,8,0:0:0:0:
160,96,173993,5,0,0:0:0:0:
352,96,174159,5,8,0:0:0:0:
352,96,174243,5,8,0:0:0:0:
160,96,174326,5,0,0:0:0:0:
160,96,174409,5,0,0:0:0:0:
352,96,174493,5,8,0:0:0:0:
160,96,174659,5,0,0:0:0:0:
352,96,174826,5,8,0:0:0:0:
352,96,174909,5,8,0:0:0:0:
160,96,174993,5,0,0:0:0:0:
352,96,175159,5,8,0:0:0:0:
160,96,175243,5,0,0:0:0:0:
352,96,175326,5,8,0:0:0:0:
160,96,175382,5,0,0:0:0:0:
160,96,175437,5,0,0:0:0:0:
352,96,175493,5,8,0:0:0:0:
352,96,175576,5,8,0:0:0:0:
160,96,175659,5,0,0:0:0:0:
160,96,175826,5,0,0:0:0:0:
352,96,175909,5,8,0:0:0:0:
160,96,175993,5,0,0:0:0:0:
352,96,176159,5,8,0:0:0:0:
160,96,176326,5,0,0:0:0:0:
160,96,176409,5,8,0:0:0:0:
352,96,176493,5,0,0:0:0:0:
352,96,176576,5,0,0:0:0:0:
160,96,176659,5,8,0:0:0:0:
352,96,176826,5,8,0:0:0:0:
160,96,176993,5,0,0:0:0:0:
160,96,177076,5,0,0:0:0:0:
352,96,177159,5,8,0:0:0:0:
160,96,177243,5,0,0:0:0:0:
352,96,177326,5,8,0:0:0:0:
352,96,177409,5,8,0:0:0:0:
160,96,177493,5,0,0:0:0:0:
160,96,177576,5,0,0:0:0:0:
352,96,177659,5,8,0:0:0:0:
160,96,177743,5,0,0:0:0:0:
160,96,177826,5,0,0:0:0:0:
160,96,177909,5,0,0:0:0:0:
352,96,177993,5,8,0:0:0:0:
160,96,178076,5,0,0:0:0:0:
352,96,178159,5,8,0:0:0:0:
352,96,178243,5,8,0:0:0:0:
160,96,178326,5,0,0:0:0:0:
352,96,178493,5,8,0:0:0:0:
160,96,178659,5,0,0:0:0:0:
352,96,178743,5,8,0:0:0:0:
160,96,178826,5,0,0:0:0:0:
352,96,178993,5,8,0:0:0:0:
160,96,179076,5,0,0:0:0:0:
160,96,179159,5,0,0:0:0:0:
352,96,179243,5,8,0:0:0:0:
160,96,179326,5,0,0:0:0:0:
160,96,179409,5,0,0:0:0:0:
352,96,179493,5,8,0:0:0:0:
160,96,179659,5,0,0:0:0:0:
352,96,179826,5,8,0:0:0:0:
160,96,179909,5,0,0:0:0:0:
352,96,179993,5,8,0:0:0:0:
352,96,180076,5,8,0:0:0:0:
160,96,180159,5,0,0:0:0:0:
160,96,180243,5,0,0:0:0:0:
352,96,180326,5,8,0:0:0:0:
160,96,180409,5,0,0:0:0:0:
160,96,180493,5,0,0:0:0:0:
160,96,180576,5,0,0:0:0:0:
352,96,180659,5,8,0:0:0:0:
352,96,180743,5,8,0:0:0:0:
160,96,180826,5,0,0:0:0:0:
160,96,180909,5,0,0:0:0:0:
352,96,180993,5,8,0:0:0:0:
160,96,181076,5,0,0:0:0:0:
352,96,181159,5,8,0:0:0:0:
160,96,181326,5,0,0:0:0:0:
352,96,181493,5,8,0:0:0:0:
160,96,181576,5,0,0:0:0:0:
352,96,181659,5,8,0:0:0:0:
160,96,181743,5,0,0:0:0:0:
160,96,181826,5,0,0:0:0:0:
352,96,181909,5,8,0:0:0:0:
160,96,181993,5,0,0:0:0:0:
160,96,182076,5,0,0:0:0:0:
352,96,182159,5,8,0:0:0:0:
352,96,182243,5,8,0:0:0:0:
256,192,182326,12,0,183493,0:0:0:0:
160,288,183659,5,4,0:0:0:0:
352,96,183826,5,8,0:0:0:0:
160,96,183910,5,0,0:0:0:0:
352,96,183993,5,8,0:0:0:0:
160,96,184160,5,0,0:0:0:0:
352,96,184326,5,8,0:0:0:0:
352,96,184410,5,8,0:0:0:0:
160,96,184493,5,0,0:0:0:0:
352,96,184660,5,8,0:0:0:0:
160,96,184826,5,0,0:0:0:0:
352,96,184910,5,8,0:0:0:0:
160,96,184993,5,0,0:0:0:0:
352,96,185160,5,8,0:0:0:0:
160,96,185326,5,0,0:0:0:0:
160,96,185410,5,0,0:0:0:0:
352,96,185493,5,8,0:0:0:0:
160,96,185660,5,0,0:0:0:0:
160,96,185743,5,0,0:0:0:0:
160,96,185826,5,0,0:0:0:0:
160,96,185910,5,0,0:0:0:0:
352,96,185993,5,8,0:0:0:0:
160,96,186159,5,0,0:0:0:0:
352,96,186243,5,8,0:0:0:0:
160,96,186326,5,0,0:0:0:0:
352,96,186493,5,8,0:0:0:0:
160,96,186659,5,0,0:0:0:0:
160,96,186743,5,0,0:0:0:0:
352,96,186826,5,8,0:0:0:0:
160,96,186993,5,0,0:0:0:0:
352,96,187159,5,8,0:0:0:0:
160,96,187243,5,0,0:0:0:0:
352,96,187326,5,8,0:0:0:0:
160,96,187493,5,0,0:0:0:0:
352,96,187659,5,8,0:0:0:0:
352,96,187743,5,8,0:0:0:0:
160,96,187826,5,0,0:0:0:0:
352,96,187993,5,8,0:0:0:0:
352,96,188059,5,8,0:0:0:0:
352,96,188126,5,8,0:0:0:0:
352,96,188193,5,8,0:0:0:0:
352,96,188259,5,8,0:0:0:0:
160,96,188326,5,0,0:0:0:0:
352,96,188492,5,8,0:0:0:0:
160,96,188576,5,0,0:0:0:0:
352,96,188659,5,8,0:0:0:0:
160,96,188826,5,0,0:0:0:0:
352,96,188992,5,8,0:0:0:0:
352,96,189076,5,8,0:0:0:0:
160,96,189159,5,0,0:0:0:0:
160,96,189242,5,0,0:0:0:0:
352,96,189326,5,8,0:0:0:0:
160,96,189492,5,0,0:0:0:0:
352,96,189576,5,8,0:0:0:0:
160,96,189659,5,0,0:0:0:0:
352,96,189826,5,8,0:0:0:0:
160,96,189992,5,0,0:0:0:0:
160,96,190076,5,0,0:0:0:0:
352,96,190159,5,8,0:0:0:0:
352,96,190242,5,8,0:0:0:0:
160,96,190326,5,0,0:0:0:0:
352,96,190492,5,8,0:0:0:0:
160,96,190576,5,0,0:0:0:0:
352,96,190659,5,8,0:0:0:0:
160,96,190826,5,0,0:0:0:0:
352,96,190992,5,8,0:0:0:0:
352,96,191076,5,8,0:0:0:0:
352,96,191159,5,8,0:0:0:0:
352,96,191242,5,8,0:0:0:0:
160,96,191326,5,0,0:0:0:0:
352,96,191492,5,8,0:0:0:0:
352,96,191576,5,8,0:0:0:0:
352,96,191659,5,8,0:0:0:0:
160,96,191826,5,0,0:0:0:0:
352,96,191992,5,8,0:0:0:0:
352,96,192076,5,8,0:0:0:0:
352,96,192242,5,8,0:0:0:0:
160,96,192326,5,0,0:0:0:0:
352,96,192492,5,8,0:0:0:0:
352,96,192576,5,8,0:0:0:0:
352,96,192659,5,8,0:0:0:0:
160,96,192826,5,0,0:0:0:0:
352,96,192992,5,8,0:0:0:0:
352,96,193076,5,8,0:0:0:0:
352,96,193159,5,8,0:0:0:0:
352,96,193242,5,8,0:0:0:0:
160,96,193326,5,0,0:0:0:0:
352,96,193492,5,8,0:0:0:0:
352,96,193576,5,8,0:0:0:0:
160,96,193659,5,0,0:0:0:0:
352,96,193826,5,8,0:0:0:0:
160,96,193992,5,0,0:0:0:0:
352,96,194076,5,8,0:0:0:0:
352,96,194159,5,8,0:0:0:0:
352,96,194242,5,8,0:0:0:0:
160,96,194326,5,0,0:0:0:0:
160,96,194492,5,0,0:0:0:0:
352,96,194576,5,8,0:0:0:0:
160,96,194659,5,0,0:0:0:0:
160,96,194826,5,0,0:0:0:0:
160,96,194992,5,0,0:0:0:0:
352,96,195076,5,8,0:0:0:0:
160,96,195159,5,0,0:0:0:0:
160,96,195242,5,0,0:0:0:0:
352,96,195326,5,8,0:0:0:0:
256,192,195409,12,0,200659,0:0:0:0:
