osu file format v14

[General]
AudioFilename: audio.ogg
AudioLeadIn: 0
PreviewTime: 101785
Countdown: 0
SampleSet: Normal
StackLeniency: 0.7
Mode: 1
LetterboxInBreaks: 0
WidescreenStoryboard: 0

[Editor]
DistanceSpacing: 1.7
BeatDivisor: 4
GridSize: 4
TimelineZoom: 2.599999

[Metadata]
Title:Mondainai Tripper!
TitleUnicode:モンダイナイトリッパー!
Artist:Natori Sana
ArtistUnicode:名取さな
Creator:komasy
Version:Muzukashii!
Source:
Tags:Japanese jpop j-pop Pop sasakure.uk 岸田勇気 Kishida Yuki 有形ランペイジ UK Yukei Rampage Ryo Uemura さなのばくたん。 Sana no Bakutan. メチャ・ハッピー・ショー Mecha Happy Show バーチャルYouTuber バーチャルサナトリウム Virtual Sanatorium YouTuber VTuber
BeatmapID:3619326
BeatmapSetID:1767410

[Difficulty]
HPDrainRate:6
CircleSize:7
OverallDifficulty:5
ApproachRate:10
SliderMultiplier:1.4
SliderTickRate:1

[Events]
//Background and Video events
Video,-330,"output.mp4"
0,0,"muzukashii.jpg",0,20
//Break Periods
//Storyboard Layer 0 (Background)
//Storyboard Layer 1 (Fail)
//Storyboard Layer 2 (Pass)
//Storyboard Layer 3 (Foreground)
//Storyboard Layer 4 (Overlay)
//Storyboard Sound Samples

[TimingPoints]
163,333.333333333333,4,1,0,5,1,0
163,-133.333333333333,4,1,0,5,0,0
746,-111.111111111111,4,1,0,60,0,0
1475,-100,4,1,0,90,0,0
1496,333.333333333333,3,1,0,90,1,0
2496,333.333333333333,4,1,0,90,1,0
3829,333.333333333333,3,1,0,90,1,0
4829,333.333333333333,4,1,0,90,1,0
6162,333.333333333333,3,1,0,90,1,0
9141,-100,4,1,0,20,0,0
9162,333.333333333333,7,1,0,20,1,0
9162,-100,7,1,0,20,0,0
11411,-111.111111111111,7,1,0,70,0,0
11495,333.333333333333,4,1,0,70,1,0
11495,-111.111111111111,4,1,0,70,0,0
19474,-109.098843552258,4,1,0,70,0,0
19807,-105.263157894737,4,1,0,70,0,0
19974,-103.455410717981,4,1,0,70,0,0
20140,-101.698362656361,4,1,0,70,0,0
20224,-100.847115772489,4,1,0,70,0,0
20307,-100,4,1,0,70,0,0
20474,-98.36710603974,4,1,0,70,0,0
20640,-96.777315397271,4,1,0,70,0,0
20974,-93.755859741234,4,1,0,70,0,0
21307,-90.909090909091,4,1,0,70,0,0
21494,-90.909090909091,4,1,0,30,0,0
22133,-100,4,1,0,90,0,0
30304,-97.584187408492,4,1,0,90,0,0
30638,-95.255109332571,4,1,0,90,0,0
30971,-93.041111188665,4,1,0,90,0,0
31304,-90.927694406548,4,1,0,90,0,0
31408,-90.9090909090909,4,1,0,50,0,0
32742,-90.909090909091,4,1,0,90,0,0
35408,-95.238095238095,4,1,0,90,0,0
38138,-100,4,1,0,90,0,0
38307,-99.336432630031,4,1,0,90,0,0
38474,-98.685509019856,4,1,0,90,0,0
38640,-98.039215686275,4,1,0,90,0,0
38807,-97.401332450228,4,1,0,90,0,0
38974,-96.775442263771,4,1,0,90,0,0
39140,-96.153846153846,4,1,0,90,0,0
39307,-95.540184201475,4,1,0,90,0,0
39474,-94.937910606463,4,1,0,90,0,0
39640,-94.339622641509,4,1,0,90,0,0
39807,-93.748828139648,4,1,0,90,0,0
39974,-93.168859240487,4,1,0,90,0,0
40140,-92.592592592593,4,1,0,90,0,0
40390,-91.743119266055,4,1,0,90,0,0
40640,-90.909090909091,4,1,0,90,0,0
40804,-100,4,1,0,90,0,0
41140,-99.054734816324,4,1,0,90,0,0
41474,-97.222222222222,4,1,0,90,0,0
41640,-96.328507733803,4,1,0,90,0,0
41974,-94.594594594595,4,1,0,90,0,0
42140,-93.748325922751,4,1,0,90,0,0
42307,-92.917064882659,4,1,0,90,0,0
42474,-92.105263157895,4,1,0,90,0,0
42557,-91.699853280235,4,1,0,90,0,0
42640,-91.302759952001,4,1,0,90,0,0
42724,-90.909090909091,4,1,0,90,0,0
42807,-100,4,1,0,50,0,0
43471,-95.238095238095,4,1,0,90,0,0
43494,-95.238095238095,4,1,0,90,0,1
66078,-95.2380952380952,4,1,0,60,0,1
66161,-95.2380952380952,4,1,0,60,0,0
67471,-100,4,1,0,90,0,0
67495,333.333333333333,4,1,0,90,1,0
68828,333.333333333333,3,1,0,90,1,0
69828,333.333333333333,4,1,0,90,1,0
71161,333.333333333333,3,1,0,90,1,0
72161,333.333333333333,4,1,0,90,1,0
73494,333.333333333333,3,1,0,90,1,0
74494,333.333333333333,3,1,0,90,1,0
74494,-99.967025719938,3,1,0,90,0,0
74743,-98.612165239076,3,1,0,90,0,0
74993,-97.293538724861,3,1,0,90,0,0
75243,-96.00971181252,3,1,0,90,0,0
75493,-94.759324859346,3,1,0,90,0,0
75743,-93.54108814152,3,1,0,90,0,0
75993,-92.353777416734,3,1,0,90,0,0
76306,-100,3,1,0,90,0,0
76410,-105.263157894737,3,1,0,50,0,0
76494,333.333333333333,4,1,0,50,1,0
76494,-105.263157894737,4,1,0,50,0,0
77806,-111.111111111111,4,1,0,70,0,0
82139,-109.590167303819,4,1,0,70,0,0
82306,-108.842981954764,4,1,0,70,0,0
82493,-108.105916223997,4,1,0,70,0,0
82639,-107.383090989648,4,1,0,70,0,0
82806,-106.665599743939,4,1,0,70,0,0
82889,-106.312557323444,4,1,0,70,0,0
82993,-105.957632844482,4,1,0,70,0,0
83139,-105.263157894737,4,1,0,70,0,0
87160,-111.111111111111,4,1,0,30,0,0
87973,-105.263157894737,4,1,0,50,0,0
88139,-103.444708803145,4,1,0,50,0,0
88306,-101.688021151108,4,1,0,50,0,0
88473,-100,4,1,0,80,0,0
93758,-100,4,1,0,90,0,0
96306,-100,4,1,0,90,0,0
96639,-98.959364160043,4,1,0,90,0,0
96973,-97.940163714716,4,1,0,90,0,0
97306,-96.938775510204,4,1,0,90,0,0
97639,-95.960565258235,4,1,0,90,0,0
97973,-95.001900038001,4,1,0,90,0,0
98306,-94.059405940594,4,1,0,90,0,0
98639,-93.138168021255,4,1,0,90,0,0
98806,-92.682926829268,4,1,0,90,0,0
98973,-92.234800675741,4,1,0,90,0,0
99473,-90.910830829298,4,1,0,90,0,0
99639,-90.477052162402,4,1,0,90,0,0
99806,-90.047393364929,4,1,0,90,0,0
99973,-89.624332534576,4,1,0,90,0,0
100306,-88.785046728972,4,1,0,90,0,0
100473,-88.373737185808,4,1,0,90,0,0
100639,-87.963777442384,4,1,0,90,0,0
100806,-87.557603686636,4,1,0,90,0,0
100889,-87.35712512299,4,1,0,90,0,0
100973,-87.157562524083,4,1,0,90,0,0
101056,-86.95652173913,4,1,0,90,0,0
101132,-100,4,1,0,50,0,0
101806,-95.238095238095,4,1,0,90,0,0
101827,-95.238095238095,4,1,0,90,0,1
123139,-95.238095238095,4,1,0,90,0,1
123473,-96.384671005061,4,1,0,90,0,1
123639,-96.970137853272,4,1,0,90,0,1
123806,-97.562760740687,4,1,0,90,0,1
123973,-98.159057437408,4,1,0,90,0,1
124056,-98.463583985818,4,1,0,90,0,1
124139,-98.76634683066,4,1,0,90,0,1
124306,-99.381197345858,4,1,0,90,0,1
124473,-100,4,1,0,90,0,1
124493,-100,4,1,0,90,0,0
135160,333.333333333333,3,1,0,80,1,0
139139,-100,3,1,0,20,0,0
140139,-111.111111111111,3,1,0,20,0,0
141139,-125,3,1,0,20,0,0
142136,-125,3,1,0,40,0,0
142160,375,4,1,0,40,1,0
142160,-125,4,1,0,40,0,0
152472,-125,4,1,0,30,0,0
154066,-111.111111111111,4,1,0,50,0,0
155566,-100,4,1,0,50,0,0
155660,333.333333333333,4,1,0,50,1,0
155660,-100,4,1,0,50,0,0
156972,-90.909090909091,4,1,0,90,0,0
156993,-90.909090909091,4,1,0,90,0,1
182298,-90.909090909091,4,1,0,60,0,1
182326,-90.909090909091,4,1,0,60,0,0
183632,-100,4,1,0,90,0,0
183660,333.333333333333,3,1,0,90,1,0
184660,333.333333333333,4,1,0,90,1,0
185993,333.333333333333,3,1,0,90,1,0
186993,333.333333333333,4,1,0,90,1,0
188326,333.333333333333,3,1,0,90,1,0
191325,-100,4,1,0,90,0,0
191825,-98.159509202454,4,1,0,90,0,0
191971,-97.563355203785,4,1,0,90,0,0
192325,-96.385542168675,4,1,0,90,0,0
192638,-95.239229038441,4,1,0,90,0,0
192825,-94.674556213018,4,1,0,90,0,0
192971,-94.119861643803,4,1,0,90,0,0
193325,-93.023255813953,4,1,0,90,0,0
193638,-91.955079943448,4,1,0,90,0,0
193825,-91.428571428571,4,1,0,90,0,0
193971,-90.911157071752,4,1,0,90,0,0
194138,-90.396501655386,4,1,0,90,0,0
194325,-89.887640449438,4,1,0,90,0,0
194471,-89.387472345751,4,1,0,90,0,0
194638,-88.889876554184,4,1,0,90,0,0
194825,-88.397790055249,4,1,0,90,0,0
194888,-88.15524138007,4,1,0,90,0,0
194971,-87.914020088354,4,1,0,90,0,0
195138,-87.432649537153,4,1,0,90,0,0
195305,-86.95652173913,4,1,0,90,0,0
195326,333.333333333333,4,1,0,90,1,0
195326,-86.9565217391304,4,1,0,90,0,0
195346,-76.9230769230769,4,1,0,10,0,0
195992,-76.9230769230769,4,1,0,5,0,0
196659,-95.2380952380952,4,1,0,5,0,0
197992,-100,4,1,0,5,0,0
199326,-125,4,1,0,5,0,0
200659,-166.666666666667,4,1,0,5,0,0

[HitObjects]
203,183,829,6,0,L|242:181,6,31.4999990386963
160,288,1496,5,4,0:0:0:0:
160,96,1995,5,0,0:0:0:0:
352,96,2162,5,8,0:0:0:0:
352,96,2495,5,8,0:0:0:0:
160,96,2662,5,0,0:0:0:0:
160,96,2995,5,0,0:0:0:0:
352,96,3162,5,8,0:0:0:0:
160,96,3495,5,0,0:0:0:0:
160,96,3579,5,0,0:0:0:0:
160,96,3662,5,0,0:0:0:0:
352,288,3829,5,12,0:0:0:0:
352,96,4328,5,8,0:0:0:0:
160,96,4495,5,0,0:0:0:0:
160,96,4828,5,0,0:0:0:0:
352,96,4995,5,8,0:0:0:0:
352,96,5328,5,8,0:0:0:0:
160,96,5495,5,0,0:0:0:0:
352,96,5828,5,8,0:0:0:0:
352,96,5912,5,8,0:0:0:0:
352,96,5995,5,8,0:0:0:0:
160,288,6162,5,4,0:0:0:0:
160,96,6661,5,0,0:0:0:0:
352,96,6828,5,8,0:0:0:0:
352,96,6911,5,8,0:0:0:0:
352,96,6995,5,8,0:0:0:0:
160,288,7161,5,4,0:0:0:0:
352,96,7661,5,8,0:0:0:0:
160,96,7828,5,0,0:0:0:0:
160,96,7911,5,0,0:0:0:0:
160,96,7995,5,0,0:0:0:0:
160,288,8161,5,4,0:0:0:0:
160,96,8661,5,0,0:0:0:0:
352,96,8828,5,8,0:0:0:0:
352,96,8911,5,8,0:0:0:0:
352,96,8995,5,8,0:0:0:0:
256,192,9161,12,0,11328,0:0:0:0:
352,96,11495,5,8,0:0:0:0:
160,96,11828,5,0,0:0:0:0:
352,96,12161,5,8,0:0:0:0:
160,96,12328,5,0,0:0:0:0:
352,96,12661,5,8,0:0:0:0:
160,96,12828,5,0,0:0:0:0:
160,96,12994,5,0,0:0:0:0:
352,96,13328,5,8,0:0:0:0:
160,96,13661,5,0,0:0:0:0:
352,96,13828,5,8,0:0:0:0:
352,96,14161,5,8,0:0:0:0:
160,96,14494,5,0,0:0:0:0:
160,96,14661,5,0,0:0:0:0:
352,96,14994,5,8,0:0:0:0:
160,96,15328,5,0,0:0:0:0:
352,96,15661,5,8,0:0:0:0:
160,96,15994,5,0,0:0:0:0:
352,96,16328,5,8,0:0:0:0:
160,96,16828,5,0,0:0:0:0:
352,96,17161,5,8,0:0:0:0:
352,96,17494,5,8,0:0:0:0:
160,96,17661,5,0,0:0:0:0:
352,96,17828,5,8,0:0:0:0:
160,96,18161,5,0,0:0:0:0:
160,96,18328,5,0,0:0:0:0:
352,96,18661,5,8,0:0:0:0:
160,96,18994,5,0,0:0:0:0:
160,96,19328,5,0,0:0:0:0:
352,96,19494,5,8,0:0:0:0:
352,96,19828,5,8,0:0:0:0:
160,96,19994,5,0,0:0:0:0:
352,96,20161,5,8,0:0:0:0:
352,96,20328,5,8,0:0:0:0:
352,96,20494,5,8,0:0:0:0:
160,288,20661,5,4,0:0:0:0:
352,288,20994,5,12,0:0:0:0:
352,288,21328,5,12,0:0:0:0:
160,96,22161,5,0,0:0:0:0:
352,96,22328,5,8,0:0:0:0:
352,96,22661,5,8,0:0:0:0:
160,96,22828,5,0,0:0:0:0:
352,96,22994,5,8,0:0:0:0:
160,96,23161,5,0,0:0:0:0:
352,96,23328,5,8,0:0:0:0:
352,96,23661,5,8,0:0:0:0:
160,96,23828,5,0,0:0:0:0:
352,96,23994,5,8,0:0:0:0:
352,96,24328,5,8,0:0:0:0:
160,96,24494,5,0,0:0:0:0:
352,96,24661,5,8,0:0:0:0:
352,96,24994,5,8,0:0:0:0:
160,96,25161,5,0,0:0:0:0:
160,96,25244,5,0,0:0:0:0:
160,96,25328,5,0,0:0:0:0:
352,96,25494,5,8,0:0:0:0:
352,96,25828,5,8,0:0:0:0:
160,96,25994,5,0,0:0:0:0:
160,96,26328,5,0,0:0:0:0:
160,96,26494,5,0,0:0:0:0:
352,96,26661,5,8,0:0:0:0:
352,96,26994,5,8,0:0:0:0:
160,96,27161,5,0,0:0:0:0:
160,96,27328,5,0,0:0:0:0:
352,96,27494,5,8,0:0:0:0:
352,96,27828,5,8,0:0:0:0:
352,96,28161,5,8,0:0:0:0:
352,96,28494,5,8,0:0:0:0:
160,96,28661,5,0,0:0:0:0:
352,96,28828,5,8,0:0:0:0:
352,96,29161,5,8,0:0:0:0:
160,96,29328,5,0,0:0:0:0:
352,96,29494,5,8,0:0:0:0:
352,96,29661,5,8,0:0:0:0:
160,96,29828,5,0,0:0:0:0:
352,288,29994,5,12,0:0:0:0:
352,96,30328,5,8,0:0:0:0:
160,288,30661,5,4,0:0:0:0:
160,96,30994,5,0,0:0:0:0:
352,288,31328,5,12,0:0:0:0:
160,288,32828,5,4,0:0:0:0:
160,96,33078,5,0,0:0:0:0:
160,96,33328,5,0,0:0:0:0:
352,96,33494,5,8,0:0:0:0:
160,96,33828,5,0,0:0:0:0:
352,96,33994,5,8,0:0:0:0:
160,96,34161,5,0,0:0:0:0:
160,96,34411,5,0,0:0:0:0:
160,96,34661,5,0,0:0:0:0:
352,96,34828,5,8,0:0:0:0:
352,96,34911,5,8,0:0:0:0:
352,96,34994,5,8,0:0:0:0:
160,96,35161,5,0,0:0:0:0:
160,96,35494,5,0,0:0:0:0:
160,96,35578,5,0,0:0:0:0:
160,96,35661,5,0,0:0:0:0:
160,96,35828,5,0,0:0:0:0:
352,96,36161,5,8,0:0:0:0:
352,96,36328,5,8,0:0:0:0:
160,96,36494,5,0,0:0:0:0:
160,96,36828,5,0,0:0:0:0:
160,96,36911,5,0,0:0:0:0:
160,96,36994,5,0,0:0:0:0:
160,96,37161,5,0,0:0:0:0:
352,96,37494,5,8,0:0:0:0:
352,96,37578,5,8,0:0:0:0:
352,96,37661,5,8,0:0:0:0:
352,96,37744,1,8,0:0:0:0:
160,96,38161,5,0,0:0:0:0:
352,96,38661,5,8,0:0:0:0:
352,96,38828,5,8,0:0:0:0:
160,96,38994,5,0,0:0:0:0:
352,96,39161,5,8,0:0:0:0:
160,96,39328,5,0,0:0:0:0:
160,96,39494,5,0,0:0:0:0:
352,96,39661,5,8,0:0:0:0:
160,96,39828,5,0,0:0:0:0:
352,96,39994,5,8,0:0:0:0:
160,288,40161,5,4,0:0:0:0:
352,288,40411,5,12,0:0:0:0:
352,288,40661,5,12,0:0:0:0:
352,96,41161,5,8,0:0:0:0:
352,96,41494,5,8,0:0:0:0:
160,96,41661,5,0,0:0:0:0:
352,96,41994,5,8,0:0:0:0:
160,96,42161,5,0,0:0:0:0:
160,96,42328,5,0,0:0:0:0:
352,96,42494,5,8,0:0:0:0:
352,96,42578,5,8,0:0:0:0:
352,96,42661,5,8,0:0:0:0:
352,96,42744,5,8,0:0:0:0:
160,288,43494,5,4,0:0:0:0:
160,96,43828,5,8,0:0:0:0:
352,96,44161,5,0,0:0:0:0:
352,96,44244,5,0,0:0:0:0:
352,96,44328,5,0,0:0:0:0:
160,96,44494,5,0,0:0:0:0:
352,96,44661,5,8,0:0:0:0:
160,96,44994,5,0,0:0:0:0:
352,96,45161,5,8,0:0:0:0:
352,96,45328,5,8,0:0:0:0:
160,96,45661,5,0,0:0:0:0:
352,96,45828,5,8,0:0:0:0:
160,96,45994,5,0,0:0:0:0:
352,96,46161,5,8,0:0:0:0:
352,96,46494,5,8,0:0:0:0:
160,96,46661,5,0,0:0:0:0:
160,96,46744,5,0,0:0:0:0:
160,96,46828,5,0,0:0:0:0:
352,96,46994,5,8,0:0:0:0:
160,96,47161,5,0,0:0:0:0:
352,96,47328,5,8,0:0:0:0:
352,96,47661,5,8,0:0:0:0:
160,96,47828,5,0,0:0:0:0:
352,96,47994,5,8,0:0:0:0:
352,96,48328,5,8,0:0:0:0:
160,288,48828,5,4,0:0:0:0:
160,96,49161,5,8,0:0:0:0:
352,96,49494,5,0,0:0:0:0:
352,96,49578,5,0,0:0:0:0:
352,96,49661,5,0,0:0:0:0:
160,96,49828,5,0,0:0:0:0:
352,96,49994,5,8,0:0:0:0:
352,96,50328,5,8,0:0:0:0:
352,96,50494,5,8,0:0:0:0:
160,96,50661,5,0,0:0:0:0:
160,96,50994,5,0,0:0:0:0:
352,96,51161,5,8,0:0:0:0:
160,96,51328,5,0,0:0:0:0:
352,96,51494,5,8,0:0:0:0:
160,96,51661,5,0,0:0:0:0:
160,96,51744,5,0,0:0:0:0:
160,96,51828,5,0,0:0:0:0:
352,96,52161,5,8,0:0:0:0:
352,96,52328,5,8,0:0:0:0:
160,96,52494,5,0,0:0:0:0:
352,96,52661,5,8,0:0:0:0:
352,96,52994,5,8,0:0:0:0:
160,96,53161,5,0,0:0:0:0:
160,96,53328,5,0,0:0:0:0:
160,96,53411,5,0,0:0:0:0:
160,96,53494,5,0,0:0:0:0:
352,96,53661,5,8,0:0:0:0:
160,288,54161,5,4,0:0:0:0:
160,96,54494,5,8,0:0:0:0:
352,96,54828,5,0,0:0:0:0:
352,96,54911,5,0,0:0:0:0:
352,96,54994,5,0,0:0:0:0:
160,96,55161,5,0,0:0:0:0:
352,96,55328,5,8,0:0:0:0:
160,96,55661,5,0,0:0:0:0:
352,96,55828,5,8,0:0:0:0:
352,96,55994,5,8,0:0:0:0:
160,96,56328,5,0,0:0:0:0:
352,96,56494,5,8,0:0:0:0:
160,96,56661,5,0,0:0:0:0:
352,96,56828,5,8,0:0:0:0:
352,96,57161,5,8,0:0:0:0:
160,96,57328,5,0,0:0:0:0:
160,96,57411,5,0,0:0:0:0:
160,96,57494,5,0,0:0:0:0:
352,96,57661,5,8,0:0:0:0:
160,96,57828,5,0,0:0:0:0:
352,96,57994,5,8,0:0:0:0:
352,96,58161,5,8,0:0:0:0:
160,96,58328,5,0,0:0:0:0:
160,96,58494,5,0,0:0:0:0:
352,96,58661,5,8,0:0:0:0:
352,96,58994,5,8,0:0:0:0:
160,288,59494,5,4,0:0:0:0:
352,96,59661,5,8,0:0:0:0:
352,96,59994,5,8,0:0:0:0:
160,96,60161,5,0,0:0:0:0:
160,96,60244,5,0,0:0:0:0:
160,96,60328,5,0,0:0:0:0:
160,96,60494,5,0,0:0:0:0:
352,96,60661,5,8,0:0:0:0:
160,96,60994,5,8,0:0:0:0:
352,96,61161,5,0,0:0:0:0:
352,96,61244,5,0,0:0:0:0:
352,96,61328,5,0,0:0:0:0:
160,96,61661,5,0,0:0:0:0:
352,96,61828,5,8,0:0:0:0:
160,96,61994,5,0,0:0:0:0:
352,96,62161,5,8,0:0:0:0:
352,96,62494,5,8,0:0:0:0:
160,96,62661,5,0,0:0:0:0:
352,96,62828,5,8,0:0:0:0:
352,96,62994,5,8,0:0:0:0:
160,96,63161,5,0,0:0:0:0:
160,96,63328,5,0,0:0:0:0:
352,96,63828,5,8,0:0:0:0:
160,96,63994,5,0,0:0:0:0:
160,96,64328,5,0,0:0:0:0:
352,96,64494,5,8,0:0:0:0:
352,96,64661,5,8,0:0:0:0:
160,96,64828,5,0,0:0:0:0:
160,96,65161,5,0,0:0:0:0:
160,96,65244,5,0,0:0:0:0:
160,96,65328,5,0,0:0:0:0:
352,96,65494,5,8,0:0:0:0:
160,96,65661,5,0,0:0:0:0:
352,96,65828,5,8,0:0:0:0:
352,96,65911,5,8,0:0:0:0:
352,96,65994,5,8,0:0:0:0:
256,192,66161,12,0,66994,0:0:0:0:
160,288,67494,5,4,0:0:0:0:
352,96,67828,5,8,0:0:0:0:
160,96,68161,5,0,0:0:0:0:
352,96,68328,5,8,0:0:0:0:
160,96,68661,5,0,0:0:0:0:
160,96,68828,5,0,0:0:0:0:
352,96,68994,5,8,0:0:0:0:
352,96,69328,5,8,0:0:0:0:
160,96,69494,5,0,0:0:0:0:
160,96,69578,5,0,0:0:0:0:
160,96,69661,5,0,0:0:0:0:
352,288,69828,5,12,0:0:0:0:
352,96,70161,5,8,0:0:0:0:
160,96,70494,5,0,0:0:0:0:
352,96,70661,5,8,0:0:0:0:
352,96,70994,5,8,0:0:0:0:
160,96,71161,5,0,0:0:0:0:
352,96,71327,5,8,0:0:0:0:
160,96,71661,5,0,0:0:0:0:
352,96,71827,5,8,0:0:0:0:
352,96,71911,5,8,0:0:0:0:
352,96,71994,5,8,0:0:0:0:
160,288,72161,5,4,0:0:0:0:
352,96,72494,5,8,0:0:0:0:
160,96,72827,5,0,0:0:0:0:
352,96,72994,5,8,0:0:0:0:
160,96,73327,5,0,0:0:0:0:
160,96,73494,5,0,0:0:0:0:
352,96,73660,5,8,0:0:0:0:
352,96,73994,5,8,0:0:0:0:
160,96,74160,5,0,0:0:0:0:
160,96,74244,5,0,0:0:0:0:
160,96,74327,5,0,0:0:0:0:
352,288,74494,5,12,0:0:0:0:
160,96,74744,5,0,0:0:0:0:
352,288,74994,5,12,0:0:0:0:
160,96,75244,5,0,0:0:0:0:
352,288,75494,5,12,0:0:0:0:
160,96,75744,5,0,0:0:0:0:
352,288,75994,5,12,0:0:0:0:
352,96,76327,5,8,0:0:0:0:
223,192,76494,6,0,L|281:168,14,33.2499991121292
160,288,77827,5,4,0:0:0:0:
352,96,78160,5,8,0:0:0:0:
160,96,78327,5,0,0:0:0:0:
352,96,78827,5,8,0:0:0:0:
160,96,79160,5,0,0:0:0:0:
352,96,79494,5,8,0:0:0:0:
160,96,79660,5,0,0:0:0:0:
160,96,79994,5,0,0:0:0:0:
352,96,80160,5,8,0:0:0:0:
160,96,80494,5,0,0:0:0:0:
352,96,80827,5,8,0:0:0:0:
160,96,80994,5,0,0:0:0:0:
352,96,81494,5,8,0:0:0:0:
160,96,81827,5,0,0:0:0:0:
352,96,82160,5,8,0:0:0:0:
160,96,82327,5,0,0:0:0:0:
160,96,82660,5,0,0:0:0:0:
352,96,82827,5,8,0:0:0:0:
352,96,82910,5,8,0:0:0:0:
352,96,82994,5,8,0:0:0:0:
160,96,83160,5,0,0:0:0:0:
352,96,83494,5,8,0:0:0:0:
160,96,83660,5,0,0:0:0:0:
160,96,83827,5,0,0:0:0:0:
352,96,83993,5,8,0:0:0:0:
352,96,84327,5,8,0:0:0:0:
160,96,84493,5,0,0:0:0:0:
352,96,84660,5,8,0:0:0:0:
160,96,84993,5,0,0:0:0:0:
352,96,85160,5,8,0:0:0:0:
160,96,85327,5,0,0:0:0:0:
352,96,85827,5,8,0:0:0:0:
352,96,86160,5,8,0:0:0:0:
160,96,86327,5,0,0:0:0:0:
352,96,86493,5,8,0:0:0:0:
352,96,86660,5,8,0:0:0:0:
352,96,86827,5,8,0:0:0:0:
160,288,86993,5,4,0:0:0:0:
160,96,87993,5,0,0:0:0:0:
160,96,88160,5,0,0:0:0:0:
160,96,88327,5,0,0:0:0:0:
352,288,88493,5,12,0:0:0:0:
160,96,88827,5,0,0:0:0:0:
352,96,88993,5,8,0:0:0:0:
160,96,89160,5,0,0:0:0:0:
160,96,89493,5,0,0:0:0:0:
160,96,89660,5,0,0:0:0:0:
352,96,89827,5,8,0:0:0:0:
160,96,90160,5,0,0:0:0:0:
352,96,90327,5,8,0:0:0:0:
160,96,90493,5,0,0:0:0:0:
160,96,90660,5,0,0:0:0:0:
352,96,90827,5,8,0:0:0:0:
352,96,90993,5,8,0:0:0:0:
160,96,91160,5,0,0:0:0:0:
352,96,91327,5,8,0:0:0:0:
352,96,91493,5,8,0:0:0:0:
352,96,91660,5,8,0:0:0:0:
160,96,91827,5,0,0:0:0:0:
352,96,92160,5,8,0:0:0:0:
160,96,92327,5,0,0:0:0:0:
352,96,92660,5,8,0:0:0:0:
160,96,92827,5,0,0:0:0:0:
160,96,92993,5,0,0:0:0:0:
352,96,93160,5,8,0:0:0:0:
160,96,93327,5,0,0:0:0:0:
352,96,93493,5,8,0:0:0:0:
352,96,93660,5,8,0:0:0:0:
160,288,93827,5,4,0:0:0:0:
352,288,94327,5,12,0:0:0:0:
352,96,94660,5,8,0:0:0:0:
160,96,94827,5,0,0:0:0:0:
352,288,94993,5,12,0:0:0:0:
160,96,95327,5,0,0:0:0:0:
352,96,95493,5,8,0:0:0:0:
160,288,95660,5,4,0:0:0:0:
352,96,95993,5,8,0:0:0:0:
160,96,96160,5,0,0:0:0:0:
352,288,96327,5,12,0:0:0:0:
352,96,96660,5,8,0:0:0:0:
160,288,96993,5,4,0:0:0:0:
160,96,97327,5,0,0:0:0:0:
352,288,97660,5,12,0:0:0:0:
352,96,97993,5,8,0:0:0:0:
160,288,98327,5,4,0:0:0:0:
352,96,98660,5,8,0:0:0:0:
160,96,98827,5,0,0:0:0:0:
352,288,98993,5,12,0:0:0:0:
352,96,99493,5,8,0:0:0:0:
160,96,99660,5,0,0:0:0:0:
352,96,99827,5,8,0:0:0:0:
160,96,99993,5,0,0:0:0:0:
352,96,100327,5,8,0:0:0:0:
160,96,100493,5,0,0:0:0:0:
160,96,100660,5,0,0:0:0:0:
352,96,100827,5,8,0:0:0:0:
352,96,100910,5,8,0:0:0:0:
352,96,100993,5,8,0:0:0:0:
352,96,101077,5,8,0:0:0:0:
160,288,101827,5,4,0:0:0:0:
160,96,102160,5,8,0:0:0:0:
352,96,102493,5,0,0:0:0:0:
352,96,102577,5,0,0:0:0:0:
352,96,102660,5,0,0:0:0:0:
160,96,102827,5,0,0:0:0:0:
352,96,102993,5,8,0:0:0:0:
160,96,103327,5,0,0:0:0:0:
352,96,103493,5,8,0:0:0:0:
352,96,103660,5,8,0:0:0:0:
160,96,103993,5,0,0:0:0:0:
352,96,104160,5,8,0:0:0:0:
160,96,104327,5,0,0:0:0:0:
352,96,104493,5,8,0:0:0:0:
352,96,104827,5,8,0:0:0:0:
160,96,104993,5,0,0:0:0:0:
160,96,105077,5,0,0:0:0:0:
160,96,105160,5,0,0:0:0:0:
352,96,105327,5,8,0:0:0:0:
160,96,105493,5,0,0:0:0:0:
352,96,105660,5,8,0:0:0:0:
352,96,105993,5,8,0:0:0:0:
160,96,106160,5,0,0:0:0:0:
352,96,106327,5,8,0:0:0:0:
160,96,106660,5,0,0:0:0:0:
160,288,107160,5,4,0:0:0:0:
160,96,107493,5,8,0:0:0:0:
352,96,107827,5,0,0:0:0:0:
352,96,107910,5,0,0:0:0:0:
352,96,107993,5,0,0:0:0:0:
160,96,108160,5,0,0:0:0:0:
352,96,108327,5,8,0:0:0:0:
352,96,108493,5,8,0:0:0:0:
160,96,108660,5,0,0:0:0:0:
352,96,108827,5,8,0:0:0:0:
160,96,108993,5,0,0:0:0:0:
160,96,109327,5,0,0:0:0:0:
352,96,109493,5,8,0:0:0:0:
160,96,109660,5,0,0:0:0:0:
352,96,109827,5,8,0:0:0:0:
160,96,109993,5,0,0:0:0:0:
160,96,110077,5,0,0:0:0:0:
160,96,110160,5,0,0:0:0:0:
352,96,110493,5,8,0:0:0:0:
352,96,110660,5,8,0:0:0:0:
160,96,110827,5,0,0:0:0:0:
352,96,110993,5,8,0:0:0:0:
352,96,111327,5,8,0:0:0:0:
160,96,111493,5,0,0:0:0:0:
352,96,111660,5,8,0:0:0:0:
352,96,111743,5,8,0:0:0:0:
352,96,111827,5,8,0:0:0:0:
352,96,111993,5,8,0:0:0:0:
160,288,112493,5,4,0:0:0:0:
160,96,112827,5,8,0:0:0:0:
352,96,113160,5,0,0:0:0:0:
352,96,113243,5,0,0:0:0:0:
352,96,113327,5,0,0:0:0:0:
160,96,113493,5,0,0:0:0:0:
352,96,113660,5,8,0:0:0:0:
160,96,113993,5,0,0:0:0:0:
352,96,114160,5,8,0:0:0:0:
352,96,114327,5,8,0:0:0:0:
352,96,114660,5,8,0:0:0:0:
160,96,114827,5,0,0:0:0:0:
160,96,114993,5,0,0:0:0:0:
352,96,115160,5,8,0:0:0:0:
352,96,115493,5,8,0:0:0:0:
160,96,115660,5,0,0:0:0:0:
160,96,115743,5,0,0:0:0:0:
160,96,115827,5,0,0:0:0:0:
352,96,115993,5,8,0:0:0:0:
160,96,116160,5,0,0:0:0:0:
352,96,116327,5,8,0:0:0:0:
352,96,116493,5,8,0:0:0:0:
160,96,116660,5,0,0:0:0:0:
160,96,116827,5,0,0:0:0:0:
352,96,116993,5,8,0:0:0:0:
160,96,117327,5,0,0:0:0:0:
160,288,117827,5,4,0:0:0:0:
352,96,117993,5,8,0:0:0:0:
352,96,118327,5,8,0:0:0:0:
160,96,118493,5,0,0:0:0:0:
160,96,118577,5,0,0:0:0:0:
160,96,118660,5,0,0:0:0:0:
160,96,118827,5,0,0:0:0:0:
352,96,118993,5,8,0:0:0:0:
352,96,119327,5,8,0:0:0:0:
352,96,119493,5,8,0:0:0:0:
160,96,119660,5,0,0:0:0:0:
160,96,119993,5,0,0:0:0:0:
352,96,120160,5,8,0:0:0:0:
352,96,120243,5,8,0:0:0:0:
352,96,120327,5,8,0:0:0:0:
160,96,120493,5,0,0:0:0:0:
352,96,120827,5,8,0:0:0:0:
160,96,120993,5,0,0:0:0:0:
352,96,121160,5,8,0:0:0:0:
352,96,121327,5,8,0:0:0:0:
160,96,121493,5,0,0:0:0:0:
160,96,121660,5,0,0:0:0:0:
352,96,122160,5,8,0:0:0:0:
160,96,122327,5,0,0:0:0:0:
160,96,122660,5,0,0:0:0:0:
352,96,122827,5,8,0:0:0:0:
352,96,122993,5,8,0:0:0:0:
160,96,123160,5,0,0:0:0:0:
160,96,123493,5,0,0:0:0:0:
160,96,123660,5,0,0:0:0:0:
352,96,123827,5,8,0:0:0:0:
352,96,123993,5,8,0:0:0:0:
352,96,124077,5,8,0:0:0:0:
352,96,124160,5,8,0:0:0:0:
352,96,124327,5,8,0:0:0:0:
160,288,124493,5,4,0:0:0:0:
352,96,124827,5,8,0:0:0:0:
352,96,125160,5,8,0:0:0:0:
352,96,125493,5,8,0:0:0:0:
352,96,125577,5,8,0:0:0:0:
352,96,125660,5,8,0:0:0:0:
160,96,125827,5,0,0:0:0:0:
352,96,126160,5,8,0:0:0:0:
352,96,126243,5,8,0:0:0:0:
352,96,126327,5,8,0:0:0:0:
160,96,126493,5,0,0:0:0:0:
352,96,126660,5,8,0:0:0:0:
352,96,126743,5,8,0:0:0:0:
352,96,126827,5,8,0:0:0:0:
352,96,126993,5,8,0:0:0:0:
160,96,127160,5,0,0:0:0:0:
160,96,127493,5,0,0:0:0:0:
352,96,127660,5,8,0:0:0:0:
352,96,127743,5,8,0:0:0:0:
352,96,127827,5,8,0:0:0:0:
160,96,127993,5,0,0:0:0:0:
352,96,128160,5,8,0:0:0:0:
352,96,128327,5,8,0:0:0:0:
160,96,128660,5,0,0:0:0:0:
160,96,128743,5,0,0:0:0:0:
160,96,128827,5,0,0:0:0:0:
352,96,128993,5,8,0:0:0:0:
352,96,129327,5,8,0:0:0:0:
352,96,129493,5,8,0:0:0:0:
352,96,129577,5,8,0:0:0:0:
352,96,129660,5,8,0:0:0:0:
160,288,129827,5,4,0:0:0:0:
160,96,130327,5,8,0:0:0:0:
160,96,130410,5,8,0:0:0:0:
160,96,130493,5,8,0:0:0:0:
352,96,130743,5,8,0:0:0:0:
160,96,130993,5,0,0:0:0:0:
160,96,131077,5,0,0:0:0:0:
160,96,131160,5,0,0:0:0:0:
352,96,131327,5,8,0:0:0:0:
352,96,131493,5,8,0:0:0:0:
352,96,131577,5,8,0:0:0:0:
352,96,131660,5,8,0:0:0:0:
160,96,131827,5,0,0:0:0:0:
352,96,132160,5,8,0:0:0:0:
160,96,132493,5,0,0:0:0:0:
160,96,132577,5,0,0:0:0:0:
160,96,132660,5,0,0:0:0:0:
352,96,132827,5,8,0:0:0:0:
352,96,133160,5,8,0:0:0:0:
352,96,133243,5,8,0:0:0:0:
352,96,133327,5,8,0:0:0:0:
160,96,133493,5,0,0:0:0:0:
352,96,133660,5,8,0:0:0:0:
85,198,133827,6,0,L|179:186,7,70
160,288,135160,5,4,0:0:0:0:
352,96,135493,5,8,0:0:0:0:
352,96,135993,5,8,0:0:0:0:
160,96,136160,5,0,0:0:0:0:
352,96,136493,5,8,0:0:0:0:
160,96,136660,5,0,0:0:0:0:
160,96,136826,5,0,0:0:0:0:
352,96,136993,5,8,0:0:0:0:
160,96,137160,5,0,0:0:0:0:
352,96,137493,5,8,0:0:0:0:
352,96,137660,5,8,0:0:0:0:
352,96,137993,5,8,0:0:0:0:
160,96,138160,5,0,0:0:0:0:
352,96,138493,5,8,0:0:0:0:
160,96,138660,5,0,0:0:0:0:
352,96,138826,5,8,0:0:0:0:
352,96,138910,5,8,0:0:0:0:
352,96,138993,5,8,0:0:0:0:
256,192,139160,12,0,141993,0:0:0:0:
352,96,142160,5,8,0:0:0:0:
352,96,142910,5,8,0:0:0:0:
352,96,143660,5,8,0:0:0:0:
352,96,144410,5,8,0:0:0:0:
352,96,145160,5,8,0:0:0:0:
352,96,145910,5,8,0:0:0:0:
352,96,146472,5,8,0:0:0:0:
352,96,146847,5,8,0:0:0:0:
352,96,147035,5,8,0:0:0:0:
352,96,147222,5,8,0:0:0:0:
352,96,147597,5,8,0:0:0:0:
352,96,148160,5,8,0:0:0:0:
352,96,148910,5,8,0:0:0:0:
352,96,149660,5,8,0:0:0:0:
352,96,150410,5,8,0:0:0:0:
352,96,151160,5,8,0:0:0:0:
352,96,151910,5,8,0:0:0:0:
256,192,152660,12,0,153972,0:0:0:0:
256,192,154160,12,0,155472,0:0:0:0:
255,127,155660,6,0,L|312:115,14,35
160,288,156993,5,4,0:0:0:0:
160,96,157326,5,8,0:0:0:0:
352,96,157660,5,0,0:0:0:0:
352,96,157743,5,0,0:0:0:0:
352,96,157826,5,0,0:0:0:0:
160,96,157993,5,0,0:0:0:0:
352,96,158160,5,8,0:0:0:0:
160,96,158493,5,0,0:0:0:0:
352,96,158660,5,8,0:0:0:0:
352,96,158826,5,8,0:0:0:0:
160,96,159160,5,0,0:0:0:0:
352,96,159326,5,8,0:0:0:0:
160,96,159493,5,0,0:0:0:0:
160,96,159576,5,0,0:0:0:0:
160,96,159660,5,0,0:0:0:0:
352,96,159993,5,8,0:0:0:0:
352,96,160160,5,8,0:0:0:0:
352,96,160243,5,8,0:0:0:0:
352,96,160326,5,8,0:0:0:0:
160,96,160493,5,0,0:0:0:0:
160,96,160660,5,0,0:0:0:0:
352,96,160826,5,8,0:0:0:0:
352,96,161160,5,8,0:0:0:0:
160,96,161326,5,0,0:0:0:0:
352,96,161493,5,8,0:0:0:0:
352,96,161826,5,0,0:0:0:0:
160,288,162326,5,4,0:0:0:0:
160,96,162660,5,8,0:0:0:0:
352,96,162993,5,8,0:0:0:0:
352,96,163076,5,8,0:0:0:0:
352,96,163160,5,8,0:0:0:0:
160,96,163326,5,0,0:0:0:0:
352,96,163493,5,8,0:0:0:0:
352,96,163826,5,8,0:0:0:0:
352,96,163993,5,8,0:0:0:0:
160,96,164160,5,0,0:0:0:0:
160,96,164493,5,0,0:0:0:0:
352,96,164660,5,8,0:0:0:0:
160,96,164826,5,0,0:0:0:0:
352,96,164993,5,8,0:0:0:0:
160,96,165160,5,0,0:0:0:0:
160,96,165243,5,0,0:0:0:0:
160,96,165326,5,0,0:0:0:0:
352,96,165660,5,8,0:0:0:0:
352,96,165826,5,8,0:0:0:0:
160,96,165993,5,0,0:0:0:0:
352,96,166160,5,8,0:0:0:0:
352,96,166493,5,8,0:0:0:0:
160,96,166660,5,0,0:0:0:0:
160,96,166826,5,8,0:0:0:0:
160,96,166910,5,8,0:0:0:0:
160,96,166993,5,8,0:0:0:0:
352,96,167160,5,8,0:0:0:0:
160,288,167660,5,4,0:0:0:0:
160,96,167993,5,8,0:0:0:0:
352,96,168326,5,0,0:0:0:0:
352,96,168410,5,0,0:0:0:0:
352,96,168493,5,0,0:0:0:0:
160,96,168660,5,0,0:0:0:0:
352,96,168826,5,8,0:0:0:0:
160,96,169160,5,0,0:0:0:0:
352,96,169326,5,8,0:0:0:0:
352,96,169493,5,8,0:0:0:0:
352,96,169826,5,8,0:0:0:0:
160,96,169993,5,0,0:0:0:0:
160,96,170159,5,0,0:0:0:0:
352,96,170326,5,8,0:0:0:0:
352,96,170659,5,8,0:0:0:0:
160,96,170826,5,0,0:0:0:0:
160,96,170909,5,0,0:0:0:0:
160,96,170993,5,0,0:0:0:0:
352,96,171159,5,8,0:0:0:0:
160,96,171326,5,0,0:0:0:0:
352,96,171493,5,8,0:0:0:0:
352,96,171659,5,8,0:0:0:0:
160,96,171826,5,0,0:0:0:0:
160,96,171993,5,0,0:0:0:0:
352,96,172159,5,8,0:0:0:0:
352,96,172493,5,8,0:0:0:0:
160,288,172993,5,4,0:0:0:0:
352,96,173326,5,8,0:0:0:0:
352,96,173493,5,8,0:0:0:0:
160,96,173659,5,0,0:0:0:0:
160,96,173743,5,0,0:0:0:0:
160,96,173826,5,0,0:0:0:0:
160,96,173993,5,0,0:0:0:0:
352,96,174159,5,8,0:0:0:0:
352,96,174493,5,8,0:0:0:0:
352,96,174659,5,8,0:0:0:0:
160,96,174826,5,0,0:0:0:0:
160,96,175159,5,0,0:0:0:0:
352,96,175326,5,8,0:0:0:0:
352,96,175409,5,8,0:0:0:0:
352,96,175493,5,8,0:0:0:0:
160,96,175659,5,0,0:0:0:0:
352,96,175993,5,8,0:0:0:0:
160,96,176159,5,0,0:0:0:0:
352,96,176326,5,8,0:0:0:0:
160,96,176493,5,0,0:0:0:0:
352,96,176659,5,8,0:0:0:0:
352,96,176826,5,8,0:0:0:0:
160,96,177326,5,0,0:0:0:0:
352,96,177659,5,8,0:0:0:0:
160,96,177826,5,0,0:0:0:0:
352,96,177993,5,8,0:0:0:0:
352,96,178159,5,8,0:0:0:0:
160,96,178326,5,0,0:0:0:0:
160,96,178659,5,0,0:0:0:0:
160,96,178743,5,0,0:0:0:0:
160,96,178826,5,0,0:0:0:0:
352,96,178993,5,8,0:0:0:0:
352,96,179243,5,8,0:0:0:0:
352,96,179493,5,8,0:0:0:0:
160,96,179993,5,0,0:0:0:0:
352,96,180326,5,8,0:0:0:0:
160,96,180493,5,0,0:0:0:0:
352,96,180659,5,8,0:0:0:0:
352,96,180826,5,8,0:0:0:0:
160,96,180993,5,0,0:0:0:0:
352,96,181326,5,8,0:0:0:0:
160,96,181493,5,0,0:0:0:0:
160,96,181659,5,0,0:0:0:0:
352,96,181826,5,8,0:0:0:0:
352,96,181909,5,8,0:0:0:0:
352,96,181993,5,8,0:0:0:0:
352,96,182159,5,8,0:0:0:0:
256,192,182326,12,0,183493,0:0:0:0:
160,288,183659,5,4,0:0:0:0:
160,96,184160,5,0,0:0:0:0:
352,96,184326,5,8,0:0:0:0:
352,96,184660,5,8,0:0:0:0:
160,96,184826,5,0,0:0:0:0:
160,96,185160,5,0,0:0:0:0:
352,96,185326,5,8,0:0:0:0:
160,96,185660,5,0,0:0:0:0:
160,96,185743,5,0,0:0:0:0:
160,96,185826,5,0,0:0:0:0:
352,288,185993,5,12,0:0:0:0:
352,96,186493,5,8,0:0:0:0:
160,96,186659,5,0,0:0:0:0:
160,96,186993,5,0,0:0:0:0:
352,96,187159,5,8,0:0:0:0:
352,96,187493,5,8,0:0:0:0:
160,96,187659,5,0,0:0:0:0:
352,96,187993,5,8,0:0:0:0:
352,96,188076,5,8,0:0:0:0:
352,96,188159,5,8,0:0:0:0:
160,288,188326,5,4,0:0:0:0:
160,96,188826,5,0,0:0:0:0:
352,96,188992,5,8,0:0:0:0:
352,96,189076,5,8,0:0:0:0:
352,96,189159,5,8,0:0:0:0:
160,288,189326,5,4,0:0:0:0:
352,96,189826,5,8,0:0:0:0:
160,96,189992,5,0,0:0:0:0:
160,96,190076,5,0,0:0:0:0:
160,96,190159,5,0,0:0:0:0:
160,288,190326,5,4,0:0:0:0:
160,96,190826,5,0,0:0:0:0:
352,96,190992,5,8,0:0:0:0:
352,96,191076,5,8,0:0:0:0:
352,96,191159,5,8,0:0:0:0:
160,288,191326,5,4,0:0:0:0:
160,96,191826,5,0,0:0:0:0:
352,96,191992,5,8,0:0:0:0:
160,288,192326,5,4,0:0:0:0:
352,96,192659,5,8,0:0:0:0:
160,96,192826,5,0,0:0:0:0:
352,96,192992,5,8,0:0:0:0:
160,288,193326,5,4,0:0:0:0:
160,96,193659,5,0,0:0:0:0:
352,96,193826,5,8,0:0:0:0:
160,96,193992,5,0,0:0:0:0:
352,96,194159,5,8,0:0:0:0:
160,288,194326,5,4,0:0:0:0:
160,96,194492,5,0,0:0:0:0:
160,96,194659,5,0,0:0:0:0:
160,96,194826,5,0,0:0:0:0:
160,96,194909,5,0,0:0:0:0:
160,96,194992,5,0,0:0:0:0:
160,96,195159,5,0,0:0:0:0:
352,288,195326,5,12,0:0:0:0:
256,192,195409,12,0,200659,0:0:0:0:
