osu file format v14

[General]
AudioFilename: audio.mp3
AudioLeadIn: 0
PreviewTime: 43000
Countdown: 0
SampleSet: Normal
StackLeniency: 0.7
Mode: 1
LetterboxInBreaks: 0
WidescreenStoryboard: 1

[Editor]
Bookmarks: 1002,11001,43000,77334,101333,124000,141667,156500,183166
DistanceSpacing: 1.4
BeatDivisor: 4
GridSize: 32
TimelineZoom: 2.1

[Metadata]
Title:Mondainai Tripper!
TitleUnicode:モンダイナイトリッパー!
Artist:Natori Sana
ArtistUnicode:名取さな
Creator:Seren58
Version:Cdh's Muzukashii
Source:
Tags:japanese pop jpop j-pop youtuber vtuber バーチャルユーチューバー sasakure.uk バーチャルサナトリウム Virtual Sanatorium kishida Yuki 有形ランペイジ Yukei Rampage Kishida Yuki Ryo Uemura オリジナルソング original song さなのばくたん。 Sana no Bakutan. メチャ・ハッピー・ショー Mecha Happy Show uone cdh cdhsausageboy ler1211
BeatmapID:3615333
BeatmapSetID:1765094

[Difficulty]
HPDrainRate:6
CircleSize:5
OverallDifficulty:5.5
ApproachRate:5
SliderMultiplier:1.4
SliderTickRate:1

[Events]
//Background and Video events
0,0,"bg.png",0,60
//Break Periods
//Storyboard Layer 0 (Background)
//Storyboard Layer 1 (Fail)
//Storyboard Layer 2 (Pass)
//Storyboard Layer 3 (Foreground)
//Storyboard Layer 4 (Overlay)
//Storyboard Sound Samples

[TimingPoints]
-1331,333.333333333333,7,1,0,80,1,0
1002,333.333333333333,7,1,0,80,1,0
5668,333.333333333333,3,1,0,80,1,0
8667,333.333333333333,7,1,0,80,1,0
8667,-83.3333333333333,7,1,0,40,0,0
11000,333.333333333333,4,1,0,70,1,0
11000,-111.111111111111,4,1,0,70,0,0
20163,-90.9090909090909,4,1,0,80,0,0
20330,-91.8769357006828,4,1,0,80,0,0
20496,-92.8550844512214,4,1,0,80,0,0
20663,-93.8436468596697,4,1,0,80,0,0
20830,-94.8427337928781,4,1,0,80,0,0
20996,-95.8524572980175,4,1,0,80,0,0
21163,-96.8729306151464,4,1,0,80,0,0
21330,-97.9042681899097,4,1,0,80,0,0
21496,-98.9465856863741,4,1,0,80,0,0
21663,-100,4,1,0,80,0,0
37665,-117.6363,4,1,0,80,0,0
37998,-116.44925,4,1,0,81,0,0
38165,-115.85846,4,1,0,82,0,0
38332,-115.27066,4,1,0,83,0,0
38498,-114.68933,4,1,0,83,0,0
38665,-114.10747,4,1,0,84,0,0
38998,-112.956,4,1,0,85,0,0
39165,-112.38294,4,1,0,86,0,0
39332,-111.812775,4,1,0,86,0,0
39498,-111.248886,4,1,0,87,0,0
39665,-110.68447,4,1,0,88,0,0
39915,-109.84489,4,1,0,88,0,0
40165,-109.01168,4,1,0,89,0,0
40498,-107.911644,4,1,0,91,0,0
40665,-107.36417,4,1,0,91,0,0
40832,-106.81946,4,1,0,92,0,0
40998,-106.28076,4,1,0,93,0,0
41165,-105.74156,4,1,0,93,0,0
41332,-105.205086,4,1,0,94,0,0
41415,-104.939476,4,1,0,94,0,0
41498,-104.67452,4,1,0,94,0,0
41665,-104.14348,4,1,0,95,0,0
41832,-103.61509,4,1,0,96,0,0
41998,-103.09255,4,1,0,96,0,0
42165,-102.56953,4,1,0,97,0,0
42332,-102.04914,4,1,0,98,0,0
42999,-100,4,1,0,100,0,1
65666,-100,4,1,0,100,0,0
66166,-100,4,1,0,100,0,0
66999,333.333333333333,7,1,0,80,1,0
66999,-100,4,1,0,80,0,0
75998,333.333333333333,4,1,0,80,1,0
77331,333.333333333333,4,1,0,80,1,0
82997,-111.111111111111,4,1,0,80,0,0
86497,-100,4,1,0,80,0,0
86580,-111.111111111111,4,1,0,80,0,0
87914,-100,4,1,0,80,0,0
101330,-100,4,1,0,100,0,1
123997,-95.2380952380952,4,1,0,90,0,0
134664,333.333333333333,3,1,0,90,1,0
134664,-95.2380952380952,3,1,0,90,0,0
134830,-100,3,1,0,90,0,0
138830,-111.111111111111,3,1,0,70,0,0
140497,-125,3,1,0,70,0,0
141664,375,4,1,0,70,1,0
141664,-125,4,1,0,70,0,0
155164,333.333333333333,4,1,0,80,1,0
156413,-100,4,1,0,100,0,0
156497,333.333333333333,4,1,0,100,1,0
156497,-95.2380952380952,4,1,0,100,0,1
181830,-95.2380952380952,4,1,0,100,0,0
182163,-100,4,1,0,100,0,0
183163,333.333333333333,7,1,0,80,1,0
183163,-100,4,1,0,80,0,0
187829,333.333333333333,3,1,0,80,1,0
194995,-83.3333333333333,4,1,0,50,0,0
195829,-90.9090909090909,4,1,0,45,0,0
196829,-100,4,1,0,40,0,0
197829,-111.111111111111,4,1,0,35,0,0
198829,-125,4,1,0,30,0,0
199829,-142.857142857143,4,1,0,25,0,0

[HitObjects]
256,192,335,5,0,0:0:0:0:
256,192,502,1,0,0:0:0:0:
256,192,668,1,8,0:0:0:0:
256,192,835,1,8,0:0:0:0:
256,192,1002,1,4,0:0:0:0:
256,192,1335,1,8,0:0:0:0:
256,192,1501,1,0,0:0:0:0:
256,192,1835,1,8,0:0:0:0:
256,192,2001,1,0,0:0:0:0:
256,192,2335,1,8,0:0:0:0:
256,192,2501,1,0,0:0:0:0:
256,192,2668,1,8,0:0:0:0:
256,192,2835,1,8,0:0:0:0:
256,192,3001,1,0,0:0:0:0:
256,192,3085,1,0,0:0:0:0:
256,192,3168,1,0,0:0:0:0:
256,192,3335,1,4,0:0:0:0:
256,192,3668,1,8,0:0:0:0:
256,192,3835,1,0,0:0:0:0:
256,192,4168,1,8,0:0:0:0:
256,192,4335,1,0,0:0:0:0:
256,192,4668,1,8,0:0:0:0:
256,192,4835,1,0,0:0:0:0:
256,192,5001,1,8,0:0:0:0:
256,192,5168,1,0,0:0:0:0:
256,192,5335,1,8,0:0:0:0:
256,192,5418,1,8,0:0:0:0:
256,192,5501,1,8,0:0:0:0:
256,192,5668,1,4,0:0:0:0:
256,192,6001,1,8,0:0:0:0:
256,192,6167,1,0,0:0:0:0:
256,192,6334,1,0,0:0:0:0:
256,192,6501,1,8,0:0:0:0:
256,192,6667,1,4,0:0:0:0:
256,192,7001,1,8,0:0:0:0:
256,192,7167,1,0,0:0:0:0:
256,192,7334,1,8,0:0:0:0:
256,192,7501,1,8,0:0:0:0:
256,192,7667,1,4,0:0:0:0:
256,192,8001,1,8,0:0:0:0:
256,192,8167,1,8,0:0:0:0:
256,192,8334,1,8,0:0:0:0:
256,192,8417,1,8,0:0:0:0:
256,192,8501,1,8,0:0:0:0:
256,192,8667,8,0,10500,0:0:0:0:
256,192,11000,5,0,0:0:0:0:
256,192,11333,1,0,0:0:0:0:
256,192,11666,1,8,0:0:0:0:
256,192,11833,1,0,0:0:0:0:
256,192,12166,1,0,0:0:0:0:
256,192,12333,1,8,0:0:0:0:
256,192,12666,1,0,0:0:0:0:
256,192,12999,1,8,0:0:0:0:
256,192,13166,1,0,0:0:0:0:
256,192,13499,1,0,0:0:0:0:
256,192,13666,1,0,0:0:0:0:
256,192,13999,1,0,0:0:0:0:
256,192,14333,1,8,0:0:0:0:
256,192,14499,1,0,0:0:0:0:
256,192,14833,1,0,0:0:0:0:
256,192,14999,1,8,0:0:0:0:
256,192,15166,1,0,0:0:0:0:
256,192,15499,1,8,0:0:0:0:
256,192,15833,1,0,0:0:0:0:
256,192,15999,1,8,0:0:0:0:
256,192,16333,1,0,0:0:0:0:
256,192,16666,1,0,0:0:0:0:
256,192,16999,1,8,0:0:0:0:
256,192,17166,1,0,0:0:0:0:
256,192,17499,1,0,0:0:0:0:
256,192,17666,1,8,0:0:0:0:
256,192,17833,1,0,0:0:0:0:
256,192,17999,1,0,0:0:0:0:
256,192,18166,1,8,0:0:0:0:
256,192,18499,1,8,0:0:0:0:
256,192,18666,1,0,0:0:0:0:
256,192,18833,1,0,0:0:0:0:
256,192,18999,1,8,0:0:0:0:
256,192,19333,1,0,0:0:0:0:
256,192,19666,1,8,0:0:0:0:
256,192,19833,1,8,0:0:0:0:
256,192,20166,1,4,0:0:0:0:
256,192,20499,1,4,0:0:0:0:
256,192,20833,1,4,0:0:0:0:
256,192,21166,1,8,0:0:0:0:
256,192,21333,1,8,0:0:0:0:
256,192,21499,1,8,0:0:0:0:
256,192,21666,1,4,0:0:0:0:
256,192,21999,1,8,0:0:0:0:
256,192,22166,1,0,0:0:0:0:
256,192,22333,1,8,0:0:0:0:
256,192,22499,1,0,0:0:0:0:
256,192,22666,1,0,0:0:0:0:
256,192,22833,1,8,0:0:0:0:
256,192,23166,1,8,0:0:0:0:
256,192,23333,1,0,0:0:0:0:
256,192,23499,1,8,0:0:0:0:
256,192,23833,1,0,0:0:0:0:
256,192,23999,1,8,0:0:0:0:
256,192,24166,1,0,0:0:0:0:
256,192,24499,1,0,0:0:0:0:
256,192,24666,1,8,0:0:0:0:
256,192,24833,1,8,0:0:0:0:
256,192,24999,1,0,0:0:0:0:
256,192,25166,1,8,0:0:0:0:
256,192,25333,1,8,0:0:0:0:
256,192,25499,1,0,0:0:0:0:
256,192,25833,1,8,0:0:0:0:
256,192,25999,1,8,0:0:0:0:
256,192,26166,1,0,0:0:0:0:
256,192,26499,1,0,0:0:0:0:
256,192,26666,1,8,0:0:0:0:
256,192,26833,1,8,0:0:0:0:
256,192,26999,1,0,0:0:0:0:
256,192,27166,1,0,0:0:0:0:
256,192,27333,1,8,0:0:0:0:
256,192,27499,1,0,0:0:0:0:
256,192,27833,1,8,0:0:0:0:
256,192,27999,1,0,0:0:0:0:
256,192,28166,1,8,0:0:0:0:
256,192,28333,1,8,0:0:0:0:
256,192,28499,1,0,0:0:0:0:
256,192,28666,1,8,0:0:0:0:
256,192,28833,1,8,0:0:0:0:
256,192,28999,1,0,0:0:0:0:
256,192,29166,1,0,0:0:0:0:
256,192,29333,1,8,0:0:0:0:
256,192,29499,1,4,0:0:0:0:
256,192,29833,1,8,0:0:0:0:
256,192,30166,1,4,0:0:0:0:
256,192,30499,1,0,0:0:0:0:
256,192,30833,1,12,0:0:0:0:
256,192,32333,1,8,0:0:0:0:
256,192,32416,1,8,0:0:0:0:
256,192,32499,1,8,0:0:0:0:
256,192,32666,1,0,0:0:0:0:
256,192,32999,1,8,0:0:0:0:
256,192,33083,1,8,0:0:0:0:
256,192,33166,1,8,0:0:0:0:
256,192,33333,1,0,0:0:0:0:
256,192,33666,1,8,0:0:0:0:
256,192,33833,1,0,0:0:0:0:
256,192,33999,1,8,0:0:0:0:
256,192,34166,1,0,0:0:0:0:
256,192,34333,1,8,0:0:0:0:
256,192,34416,1,8,0:0:0:0:
256,192,34499,1,8,0:0:0:0:
256,192,34999,1,4,0:0:0:0:
256,192,35333,1,0,0:0:0:0:
256,192,35666,1,8,0:0:0:0:
256,192,35999,1,8,0:0:0:0:
256,192,36333,1,0,0:0:0:0:
256,192,36666,1,0,0:0:0:0:
256,192,36999,1,8,0:0:0:0:
256,192,37083,1,8,0:0:0:0:
256,192,37249,1,8,0:0:0:0:
256,192,37666,1,0,0:0:0:0:
256,192,37999,1,8,0:0:0:0:
256,192,38166,1,0,0:0:0:0:
256,192,38333,1,8,0:0:0:0:
256,192,38499,1,8,0:0:0:0:
256,192,38666,1,0,0:0:0:0:
256,192,38999,1,8,0:0:0:0:
256,192,39166,1,8,0:0:0:0:
256,192,39333,1,0,0:0:0:0:
256,192,39499,1,8,0:0:0:0:
256,192,39666,1,4,0:0:0:0:
256,192,39916,1,12,0:0:0:0:
256,192,40166,1,12,0:0:0:0:
256,192,40499,1,0,0:0:0:0:
256,192,40666,1,8,0:0:0:0:
256,192,40833,1,0,0:0:0:0:
256,192,40999,1,0,0:0:0:0:
256,192,41166,1,8,0:0:0:0:
256,192,41333,1,0,0:0:0:0:
256,192,41416,1,0,0:0:0:0:
256,192,41499,1,0,0:0:0:0:
256,192,41666,1,8,0:0:0:0:
256,192,41833,1,8,0:0:0:0:
256,192,41999,1,8,0:0:0:0:
256,192,42166,1,8,0:0:0:0:
256,192,42333,8,8,42833,0:0:0:0:
256,192,42999,5,4,0:0:0:0:
256,192,43333,1,8,0:0:0:0:
256,192,43499,1,0,0:0:0:0:
256,192,43583,1,0,0:0:0:0:
256,192,43666,1,0,0:0:0:0:
256,192,43833,1,0,0:0:0:0:
256,192,43999,1,8,0:0:0:0:
256,192,44166,1,0,0:0:0:0:
256,192,44333,1,0,0:0:0:0:
256,192,44499,1,8,0:0:0:0:
256,192,44666,1,8,0:0:0:0:
256,192,44833,1,0,0:0:0:0:
256,192,45166,1,8,0:0:0:0:
256,192,45333,1,0,0:0:0:0:
256,192,45499,1,0,0:0:0:0:
256,192,45666,1,8,0:0:0:0:
256,192,45833,1,0,0:0:0:0:
256,192,45999,1,8,0:0:0:0:
256,192,46166,1,8,0:0:0:0:
256,192,46333,1,0,0:0:0:0:
256,192,46499,1,8,0:0:0:0:
256,192,46583,1,8,0:0:0:0:
256,192,46666,1,8,0:0:0:0:
256,192,46833,1,0,0:0:0:0:
256,192,46999,1,0,0:0:0:0:
256,192,47166,1,8,0:0:0:0:
256,192,47333,1,8,0:0:0:0:
256,192,47499,1,0,0:0:0:0:
256,192,47833,1,12,0:0:0:0:
256,192,48333,5,4,0:0:0:0:
256,192,48666,1,8,0:0:0:0:
256,192,48833,1,8,0:0:0:0:
256,192,48999,1,0,0:0:0:0:
256,192,49083,1,0,0:0:0:0:
256,192,49166,1,0,0:0:0:0:
256,192,49333,1,8,0:0:0:0:
256,192,49499,1,0,0:0:0:0:
256,192,49666,1,8,0:0:0:0:
256,192,49833,1,8,0:0:0:0:
256,192,49999,1,0,0:0:0:0:
256,192,50166,1,0,0:0:0:0:
256,192,50499,1,0,0:0:0:0:
256,192,50666,1,0,0:0:0:0:
256,192,50833,1,8,0:0:0:0:
256,192,50999,1,0,0:0:0:0:
256,192,51166,1,8,0:0:0:0:
256,192,51249,1,8,0:0:0:0:
256,192,51333,1,8,0:0:0:0:
256,192,51499,1,8,0:0:0:0:
256,192,51666,1,0,0:0:0:0:
256,192,51833,1,8,0:0:0:0:
256,192,51999,1,0,0:0:0:0:
256,192,52166,1,0,0:0:0:0:
256,192,52333,1,0,0:0:0:0:
256,192,52499,1,8,0:0:0:0:
256,192,52666,1,8,0:0:0:0:
256,192,52833,1,0,0:0:0:0:
256,192,53166,1,12,0:0:0:0:
256,192,53333,1,12,0:0:0:0:
256,192,53666,5,4,0:0:0:0:
256,192,53999,1,8,0:0:0:0:
256,192,54166,1,0,0:0:0:0:
256,192,54249,1,0,0:0:0:0:
256,192,54333,1,0,0:0:0:0:
256,192,54499,1,0,0:0:0:0:
256,192,54666,1,8,0:0:0:0:
256,192,54833,1,0,0:0:0:0:
256,192,54999,1,0,0:0:0:0:
256,192,55166,1,8,0:0:0:0:
256,192,55333,1,8,0:0:0:0:
256,192,55499,1,0,0:0:0:0:
256,192,55833,1,8,0:0:0:0:
256,192,55999,1,0,0:0:0:0:
256,192,56166,1,0,0:0:0:0:
256,192,56333,1,8,0:0:0:0:
256,192,56499,1,0,0:0:0:0:
256,192,56666,1,8,0:0:0:0:
256,192,56833,1,8,0:0:0:0:
256,192,56999,1,0,0:0:0:0:
256,192,57166,1,8,0:0:0:0:
256,192,57249,1,8,0:0:0:0:
256,192,57333,1,8,0:0:0:0:
256,192,57499,1,0,0:0:0:0:
256,192,57666,1,8,0:0:0:0:
256,192,57833,1,0,0:0:0:0:
256,192,57999,1,8,0:0:0:0:
256,192,58166,1,0,0:0:0:0:
256,192,58499,1,12,0:0:0:0:
256,192,58999,5,4,0:0:0:0:
256,192,59166,1,12,0:0:0:0:
256,192,59499,1,0,0:0:0:0:
256,192,59666,1,8,0:0:0:0:
256,192,59833,1,0,0:0:0:0:
256,192,59916,1,0,0:0:0:0:
256,192,59999,1,0,0:0:0:0:
256,192,60166,1,8,0:0:0:0:
256,192,60333,1,0,0:0:0:0:
256,192,60499,1,8,0:0:0:0:
256,192,60666,1,8,0:0:0:0:
256,192,60833,1,0,0:0:0:0:
256,192,61166,1,0,0:0:0:0:
256,192,61333,1,8,0:0:0:0:
256,192,61499,1,8,0:0:0:0:
256,192,61666,1,0,0:0:0:0:
256,192,61833,1,8,0:0:0:0:
256,192,61916,1,8,0:0:0:0:
256,192,61999,1,8,0:0:0:0:
256,192,62166,1,8,0:0:0:0:
256,192,62333,1,0,0:0:0:0:
256,192,62499,1,0,0:0:0:0:
256,192,62666,1,8,0:0:0:0:
256,192,62833,1,0,0:0:0:0:
256,192,63166,1,8,0:0:0:0:
256,192,63333,1,0,0:0:0:0:
256,192,63416,1,0,0:0:0:0:
256,192,63499,1,0,0:0:0:0:
256,192,63666,1,0,0:0:0:0:
256,192,63833,1,8,0:0:0:0:
256,192,63999,1,8,0:0:0:0:
256,192,64166,1,0,0:0:0:0:
256,192,64333,1,8,0:0:0:0:
256,192,64499,1,8,0:0:0:0:
256,192,64666,1,0,0:0:0:0:
256,192,64833,1,0,0:0:0:0:
256,192,64999,1,8,0:0:0:0:
256,192,65083,1,8,0:0:0:0:
256,192,65166,1,8,0:0:0:0:
256,192,65333,1,8,0:0:0:0:
256,192,65499,1,4,0:0:0:0:
256,192,66333,12,0,66666,0:0:0:0:
256,192,66999,5,4,0:0:0:0:
256,192,67332,1,8,0:0:0:0:
256,192,67499,1,0,0:0:0:0:
256,192,67665,1,0,0:0:0:0:
256,192,67832,1,8,0:0:0:0:
256,192,67999,1,0,0:0:0:0:
256,192,68165,1,0,0:0:0:0:
256,192,68332,1,8,0:0:0:0:
256,192,68499,1,0,0:0:0:0:
256,192,68832,1,8,0:0:0:0:
256,192,68999,1,0,0:0:0:0:
256,192,69082,1,0,0:0:0:0:
256,192,69165,1,0,0:0:0:0:
256,192,69332,1,4,0:0:0:0:
256,192,69665,1,8,0:0:0:0:
256,192,69832,1,8,0:0:0:0:
256,192,69999,1,0,0:0:0:0:
256,192,70165,1,8,0:0:0:0:
256,192,70332,1,8,0:0:0:0:
256,192,70499,1,0,0:0:0:0:
256,192,70665,1,8,0:0:0:0:
256,192,70832,1,0,0:0:0:0:
256,192,71165,1,0,0:0:0:0:
256,192,71332,1,8,0:0:0:0:
256,192,71415,1,8,0:0:0:0:
256,192,71499,1,8,0:0:0:0:
256,192,71665,1,4,0:0:0:0:
256,192,71999,1,8,0:0:0:0:
256,192,72165,1,0,0:0:0:0:
256,192,72332,1,0,0:0:0:0:
256,192,72499,1,8,0:0:0:0:
256,192,72665,1,0,0:0:0:0:
256,192,72832,1,0,0:0:0:0:
256,192,72999,1,8,0:0:0:0:
256,192,73165,1,0,0:0:0:0:
256,192,73499,1,8,0:0:0:0:
256,192,73665,1,0,0:0:0:0:
256,192,73749,1,0,0:0:0:0:
256,192,73832,1,0,0:0:0:0:
256,192,73999,1,4,0:0:0:0:
256,192,74498,1,4,0:0:0:0:
256,192,74998,1,4,0:0:0:0:
256,192,75498,1,4,0:0:0:0:
256,192,75998,1,4,0:0:0:0:
256,192,77331,1,4,0:0:0:0:
256,192,77664,1,8,0:0:0:0:
256,192,78164,1,0,0:0:0:0:
256,192,78331,1,8,0:0:0:0:
256,192,78664,1,0,0:0:0:0:
256,192,78997,1,8,0:0:0:0:
256,192,79164,1,0,0:0:0:0:
256,192,79497,5,0,0:0:0:0:
256,192,79664,1,8,0:0:0:0:
256,192,79997,1,0,0:0:0:0:
256,192,80331,1,8,0:0:0:0:
256,192,80831,1,0,0:0:0:0:
256,192,80997,1,8,0:0:0:0:
256,192,81331,1,0,0:0:0:0:
256,192,81497,1,0,0:0:0:0:
256,192,81664,1,8,0:0:0:0:
256,192,81831,5,0,0:0:0:0:
256,192,81997,5,8,0:0:0:0:
256,192,82164,1,8,0:0:0:0:
256,192,82331,1,0,0:0:0:0:
256,192,82497,1,8,0:0:0:0:
256,192,82664,1,0,0:0:0:0:
256,192,83164,1,0,0:0:0:0:
256,192,83331,1,0,0:0:0:0:
256,192,83664,1,8,0:0:0:0:
256,192,83997,1,0,0:0:0:0:
256,192,84497,1,0,0:0:0:0:
256,192,84664,1,0,0:0:0:0:
256,192,84997,1,8,0:0:0:0:
256,192,85164,1,0,0:0:0:0:
256,192,85330,1,0,0:0:0:0:
256,192,85830,1,8,0:0:0:0:
256,192,85997,1,0,0:0:0:0:
256,192,86330,1,0,0:0:0:0:
256,192,86497,1,12,0:0:0:0:
256,192,86830,1,0,0:0:0:0:
256,192,86997,1,8,0:0:0:0:
256,192,87164,1,8,0:0:0:0:
256,192,87997,1,4,0:0:0:0:
256,192,88330,1,0,0:0:0:0:
256,192,88497,1,0,0:0:0:0:
256,192,88664,1,8,0:0:0:0:
256,192,88830,1,8,0:0:0:0:
256,192,88997,1,0,0:0:0:0:
256,192,89164,1,8,0:0:0:0:
256,192,89330,1,0,0:0:0:0:
256,192,89664,1,8,0:0:0:0:
256,192,89830,1,0,0:0:0:0:
256,192,89997,1,8,0:0:0:0:
256,192,90164,1,8,0:0:0:0:
256,192,90330,1,0,0:0:0:0:
256,192,90497,1,8,0:0:0:0:
256,192,90664,1,0,0:0:0:0:
256,192,90997,1,8,0:0:0:0:
256,192,91164,1,8,0:0:0:0:
256,192,91330,1,0,0:0:0:0:
256,192,91497,1,8,0:0:0:0:
256,192,91664,1,0,0:0:0:0:
256,192,91830,1,0,0:0:0:0:
256,192,91997,1,8,0:0:0:0:
256,192,92330,1,8,0:0:0:0:
256,192,92497,1,0,0:0:0:0:
256,192,92664,1,8,0:0:0:0:
256,192,92830,1,0,0:0:0:0:
256,192,92997,1,8,0:0:0:0:
256,192,93164,1,8,0:0:0:0:
256,192,93330,1,4,0:0:0:0:
256,192,93664,1,8,0:0:0:0:
256,192,93830,1,4,0:0:0:0:
256,192,94164,1,8,0:0:0:0:
256,192,94497,1,4,0:0:0:0:
256,192,94830,1,8,0:0:0:0:
256,192,94997,1,8,0:0:0:0:
256,192,95164,1,4,0:0:0:0:
256,192,95497,1,0,0:0:0:0:
256,192,95664,1,0,0:0:0:0:
256,192,95830,1,12,0:0:0:0:
256,192,96164,1,8,0:0:0:0:
256,192,96330,1,0,0:0:0:0:
256,192,96497,1,12,0:0:0:0:
256,192,96830,1,0,0:0:0:0:
256,192,96997,1,8,0:0:0:0:
256,192,97164,1,12,0:0:0:0:
256,192,97497,1,0,0:0:0:0:
256,192,97664,1,8,0:0:0:0:
256,192,97830,1,0,0:0:0:0:
256,192,97914,1,0,0:0:0:0:
256,192,97997,1,0,0:0:0:0:
256,192,98164,1,8,0:0:0:0:
256,192,98330,1,0,0:0:0:0:
256,192,98497,1,12,0:0:0:0:
256,192,98997,1,0,0:0:0:0:
256,192,99164,1,0,0:0:0:0:
256,192,99330,1,8,0:0:0:0:
256,192,99497,1,0,0:0:0:0:
256,192,99580,1,0,0:0:0:0:
256,192,99664,1,0,0:0:0:0:
256,192,99830,1,8,0:0:0:0:
256,192,99997,1,0,0:0:0:0:
256,192,100080,1,0,0:0:0:0:
256,192,100164,1,0,0:0:0:0:
256,192,100330,1,8,0:0:0:0:
256,192,100497,1,0,0:0:0:0:
256,192,100664,8,8,101164,0:0:0:0:
256,192,101330,5,4,0:0:0:0:
256,192,101664,1,8,0:0:0:0:
256,192,101830,1,0,0:0:0:0:
256,192,101914,1,0,0:0:0:0:
256,192,101997,1,0,0:0:0:0:
256,192,102164,1,0,0:0:0:0:
256,192,102330,1,8,0:0:0:0:
256,192,102497,1,0,0:0:0:0:
256,192,102664,1,0,0:0:0:0:
256,192,102830,1,8,0:0:0:0:
256,192,102997,1,8,0:0:0:0:
256,192,103164,1,0,0:0:0:0:
256,192,103497,1,8,0:0:0:0:
256,192,103664,1,0,0:0:0:0:
256,192,103830,1,0,0:0:0:0:
256,192,103997,1,8,0:0:0:0:
256,192,104164,1,0,0:0:0:0:
256,192,104330,1,8,0:0:0:0:
256,192,104497,1,8,0:0:0:0:
256,192,104664,1,0,0:0:0:0:
256,192,104830,1,8,0:0:0:0:
256,192,104914,1,8,0:0:0:0:
256,192,104997,1,8,0:0:0:0:
256,192,105164,1,0,0:0:0:0:
256,192,105330,1,0,0:0:0:0:
256,192,105497,1,8,0:0:0:0:
256,192,105664,1,8,0:0:0:0:
256,192,105830,1,0,0:0:0:0:
256,192,106164,1,12,0:0:0:0:
256,192,106664,5,4,0:0:0:0:
256,192,106997,1,8,0:0:0:0:
256,192,107164,1,8,0:0:0:0:
256,192,107330,1,0,0:0:0:0:
256,192,107414,1,0,0:0:0:0:
256,192,107497,1,0,0:0:0:0:
256,192,107664,1,8,0:0:0:0:
256,192,107830,1,0,0:0:0:0:
256,192,107997,1,8,0:0:0:0:
256,192,108164,1,8,0:0:0:0:
256,192,108330,1,0,0:0:0:0:
256,192,108497,1,0,0:0:0:0:
256,192,108830,1,0,0:0:0:0:
256,192,108997,1,0,0:0:0:0:
256,192,109164,1,8,0:0:0:0:
256,192,109330,1,0,0:0:0:0:
256,192,109497,1,8,0:0:0:0:
256,192,109580,1,8,0:0:0:0:
256,192,109664,1,8,0:0:0:0:
256,192,109830,1,8,0:0:0:0:
256,192,109997,1,0,0:0:0:0:
256,192,110164,1,8,0:0:0:0:
256,192,110330,1,0,0:0:0:0:
256,192,110497,1,4,0:0:0:0:
256,192,110830,1,4,0:0:0:0:
256,192,111164,1,4,0:0:0:0:
256,192,111497,1,12,0:0:0:0:
256,192,111664,1,12,0:0:0:0:
256,192,111997,5,4,0:0:0:0:
256,192,112330,1,8,0:0:0:0:
256,192,112497,1,0,0:0:0:0:
256,192,112580,1,0,0:0:0:0:
256,192,112664,1,0,0:0:0:0:
256,192,112830,1,0,0:0:0:0:
256,192,112997,1,8,0:0:0:0:
256,192,113164,1,0,0:0:0:0:
256,192,113330,1,0,0:0:0:0:
256,192,113497,1,8,0:0:0:0:
256,192,113664,1,8,0:0:0:0:
256,192,113830,1,0,0:0:0:0:
256,192,114164,1,8,0:0:0:0:
256,192,114330,1,0,0:0:0:0:
256,192,114497,1,0,0:0:0:0:
256,192,114664,1,8,0:0:0:0:
256,192,114830,1,0,0:0:0:0:
256,192,114997,1,8,0:0:0:0:
256,192,115164,1,8,0:0:0:0:
256,192,115330,1,0,0:0:0:0:
256,192,115497,1,8,0:0:0:0:
256,192,115580,1,8,0:0:0:0:
256,192,115664,1,8,0:0:0:0:
256,192,115830,1,0,0:0:0:0:
256,192,115997,1,8,0:0:0:0:
256,192,116164,1,0,0:0:0:0:
256,192,116330,1,8,0:0:0:0:
256,192,116497,1,0,0:0:0:0:
256,192,116830,1,12,0:0:0:0:
256,192,117330,5,4,0:0:0:0:
256,192,117497,1,12,0:0:0:0:
256,192,117830,1,0,0:0:0:0:
256,192,117997,1,8,0:0:0:0:
256,192,118164,1,0,0:0:0:0:
256,192,118247,1,0,0:0:0:0:
256,192,118330,1,0,0:0:0:0:
256,192,118497,1,8,0:0:0:0:
256,192,118664,1,0,0:0:0:0:
256,192,118830,1,8,0:0:0:0:
256,192,118997,1,8,0:0:0:0:
256,192,119164,1,0,0:0:0:0:
256,192,119497,1,0,0:0:0:0:
256,192,119664,1,8,0:0:0:0:
256,192,119830,1,8,0:0:0:0:
256,192,119997,1,0,0:0:0:0:
256,192,120164,1,8,0:0:0:0:
256,192,120247,1,8,0:0:0:0:
256,192,120330,1,8,0:0:0:0:
256,192,120497,1,8,0:0:0:0:
256,192,120664,1,0,0:0:0:0:
256,192,120830,1,0,0:0:0:0:
256,192,120997,1,8,0:0:0:0:
256,192,121164,1,0,0:0:0:0:
256,192,121497,1,0,0:0:0:0:
256,192,121664,1,8,0:0:0:0:
256,192,121747,1,8,0:0:0:0:
256,192,121830,1,8,0:0:0:0:
256,192,121997,1,0,0:0:0:0:
256,192,122164,1,0,0:0:0:0:
256,192,122330,1,8,0:0:0:0:
256,192,122497,1,0,0:0:0:0:
256,192,122664,1,8,0:0:0:0:
256,192,122830,1,0,0:0:0:0:
256,192,122997,1,0,0:0:0:0:
256,192,123164,1,8,0:0:0:0:
256,192,123330,1,0,0:0:0:0:
256,192,123580,1,8,0:0:0:0:
256,192,123830,1,8,0:0:0:0:
256,192,123997,1,4,0:0:0:0:
256,192,124330,5,0,0:0:0:0:
256,192,124497,1,8,0:0:0:0:
256,192,124664,1,0,0:0:0:0:
256,192,124830,1,8,0:0:0:0:
256,192,124997,1,0,0:0:0:0:
256,192,125164,1,0,0:0:0:0:
256,192,125664,1,0,0:0:0:0:
256,192,125830,1,8,0:0:0:0:
256,192,125997,1,0,0:0:0:0:
256,192,126164,1,8,0:0:0:0:
256,192,126330,1,8,0:0:0:0:
256,192,126414,1,8,0:0:0:0:
256,192,126497,1,8,0:0:0:0:
256,192,126664,1,0,0:0:0:0:
256,192,126997,1,8,0:0:0:0:
256,192,127164,1,8,0:0:0:0:
256,192,127330,1,0,0:0:0:0:
256,192,127497,1,0,0:0:0:0:
256,192,127664,1,8,0:0:0:0:
256,192,127830,1,0,0:0:0:0:
256,192,128164,1,0,0:0:0:0:
256,192,128330,1,8,0:0:0:0:
256,192,128497,1,0,0:0:0:0:
256,192,128664,1,0,0:0:0:0:
256,192,128830,1,8,0:0:0:0:
256,192,128997,1,8,0:0:0:0:
256,192,129080,1,8,0:0:0:0:
256,192,129164,1,8,0:0:0:0:
256,192,129664,1,8,0:0:0:0:
256,192,129830,1,0,0:0:0:0:
256,192,129997,1,8,0:0:0:0:
256,192,130247,1,8,0:0:0:0:
256,192,130497,1,8,0:0:0:0:
256,192,130664,1,0,0:0:0:0:
256,192,130830,1,8,0:0:0:0:
256,192,130914,1,8,0:0:0:0:
256,192,130997,1,8,0:0:0:0:
256,192,131164,1,8,0:0:0:0:
256,192,131330,1,0,0:0:0:0:
256,192,131414,1,0,0:0:0:0:
256,192,131497,1,0,0:0:0:0:
256,192,131580,1,0,0:0:0:0:
256,192,131664,1,0,0:0:0:0:
256,192,131997,1,0,0:0:0:0:
256,192,132164,1,8,0:0:0:0:
256,192,132330,1,8,0:0:0:0:
256,192,132497,1,0,0:0:0:0:
256,192,132664,1,8,0:0:0:0:
256,192,132747,1,8,0:0:0:0:
256,192,132830,1,8,0:0:0:0:
256,192,132997,1,0,0:0:0:0:
256,192,133164,1,8,0:0:0:0:
256,192,133497,1,0,0:0:0:0:
256,192,133664,1,8,0:0:0:0:
256,192,133830,1,0,0:0:0:0:
256,192,133914,1,0,0:0:0:0:
256,192,133997,1,0,0:0:0:0:
256,192,134164,1,0,0:0:0:0:
256,192,134330,1,8,0:0:0:0:
256,192,134497,1,8,0:0:0:0:
256,192,134664,1,4,0:0:0:0:
256,192,134997,1,0,0:0:0:0:
256,192,135164,1,0,0:0:0:0:
256,192,135330,1,8,0:0:0:0:
256,192,135497,1,8,0:0:0:0:
256,192,135664,1,0,0:0:0:0:
256,192,135997,1,0,0:0:0:0:
256,192,136164,1,8,0:0:0:0:
256,192,136330,1,8,0:0:0:0:
256,192,136497,1,8,0:0:0:0:
256,192,136664,1,0,0:0:0:0:
256,192,136997,1,0,0:0:0:0:
256,192,137164,1,8,0:0:0:0:
256,192,137330,1,8,0:0:0:0:
256,192,137497,1,0,0:0:0:0:
256,192,137664,1,0,0:0:0:0:
256,192,137997,1,0,0:0:0:0:
256,192,138164,1,0,0:0:0:0:
256,192,138330,1,8,0:0:0:0:
256,192,138497,1,0,0:0:0:0:
256,192,138580,1,0,0:0:0:0:
256,192,138664,1,0,0:0:0:0:
256,192,141664,1,8,0:0:0:0:
256,192,142414,1,8,0:0:0:0:
256,192,143164,1,8,0:0:0:0:
256,192,143914,1,8,0:0:0:0:
256,192,144664,1,8,0:0:0:0:
256,192,145414,1,8,0:0:0:0:
256,192,145976,1,8,0:0:0:0:
256,192,146351,1,8,0:0:0:0:
256,192,146539,1,8,0:0:0:0:
256,192,146726,1,8,0:0:0:0:
256,192,147101,1,8,0:0:0:0:
256,192,147664,1,8,0:0:0:0:
256,192,148414,1,8,0:0:0:0:
256,192,149164,1,8,0:0:0:0:
256,192,149914,1,8,0:0:0:0:
256,192,150664,1,8,0:0:0:0:
256,192,151414,1,8,0:0:0:0:
256,192,152164,1,8,0:0:0:0:
256,192,153664,8,8,154976,0:0:0:0:
256,192,155164,5,8,0:0:0:0:
256,192,155330,1,0,0:0:0:0:
256,192,155497,1,8,0:0:0:0:
256,192,155664,1,0,0:0:0:0:
256,192,155830,1,8,0:0:0:0:
256,192,155997,1,8,0:0:0:0:
256,192,156164,1,0,0:0:0:0:
256,192,156497,5,4,0:0:0:0:
256,192,156663,1,0,0:0:0:0:
256,192,156830,1,8,0:0:0:0:
256,192,156997,1,0,0:0:0:0:
256,192,157080,1,0,0:0:0:0:
256,192,157163,1,0,0:0:0:0:
256,192,157330,1,0,0:0:0:0:
256,192,157497,1,8,0:0:0:0:
256,192,157663,1,0,0:0:0:0:
256,192,157830,1,0,0:0:0:0:
256,192,157997,1,8,0:0:0:0:
256,192,158163,1,8,0:0:0:0:
256,192,158330,1,0,0:0:0:0:
256,192,158663,1,0,0:0:0:0:
256,192,158830,1,8,0:0:0:0:
256,192,158997,1,0,0:0:0:0:
256,192,159080,1,0,0:0:0:0:
256,192,159163,1,0,0:0:0:0:
256,192,159330,1,0,0:0:0:0:
256,192,159497,1,8,0:0:0:0:
256,192,159663,1,8,0:0:0:0:
256,192,159830,1,0,0:0:0:0:
256,192,159997,1,8,0:0:0:0:
256,192,160080,1,8,0:0:0:0:
256,192,160163,1,8,0:0:0:0:
256,192,160330,1,0,0:0:0:0:
256,192,160497,1,0,0:0:0:0:
256,192,160663,1,8,0:0:0:0:
256,192,160830,1,8,0:0:0:0:
256,192,160997,1,0,0:0:0:0:
256,192,161330,1,12,0:0:0:0:
256,192,161830,5,4,0:0:0:0:
256,192,161997,1,0,0:0:0:0:
256,192,162163,1,8,0:0:0:0:
256,192,162330,1,8,0:0:0:0:
256,192,162497,1,0,0:0:0:0:
256,192,162580,1,0,0:0:0:0:
256,192,162663,1,0,0:0:0:0:
256,192,162830,1,8,0:0:0:0:
256,192,162997,1,0,0:0:0:0:
256,192,163163,1,8,0:0:0:0:
256,192,163330,1,8,0:0:0:0:
256,192,163497,1,0,0:0:0:0:
256,192,163663,1,0,0:0:0:0:
256,192,163997,1,0,0:0:0:0:
256,192,164163,1,0,0:0:0:0:
256,192,164330,1,8,0:0:0:0:
256,192,164497,1,0,0:0:0:0:
256,192,164663,1,8,0:0:0:0:
256,192,164747,1,8,0:0:0:0:
256,192,164830,1,8,0:0:0:0:
256,192,164997,1,8,0:0:0:0:
256,192,165163,1,0,0:0:0:0:
256,192,165330,1,8,0:0:0:0:
256,192,165497,1,0,0:0:0:0:
256,192,165663,1,4,0:0:0:0:
256,192,165997,1,4,0:0:0:0:
256,192,166330,1,4,0:0:0:0:
256,192,166663,1,12,0:0:0:0:
256,192,166830,1,12,0:0:0:0:
256,192,167163,5,4,0:0:0:0:
256,192,167330,1,0,0:0:0:0:
256,192,167497,1,8,0:0:0:0:
256,192,167663,1,0,0:0:0:0:
256,192,167747,1,0,0:0:0:0:
256,192,167830,1,0,0:0:0:0:
256,192,167997,1,0,0:0:0:0:
256,192,168163,1,8,0:0:0:0:
256,192,168330,1,0,0:0:0:0:
256,192,168497,1,0,0:0:0:0:
256,192,168663,1,8,0:0:0:0:
256,192,168830,1,8,0:0:0:0:
256,192,168997,1,0,0:0:0:0:
256,192,169330,1,0,0:0:0:0:
256,192,169497,1,8,0:0:0:0:
256,192,169663,1,0,0:0:0:0:
288,224,169747,1,0,0:0:0:0:
256,192,169830,1,0,0:0:0:0:
256,192,169997,1,0,0:0:0:0:
256,192,170163,1,8,0:0:0:0:
256,192,170330,1,8,0:0:0:0:
256,192,170497,1,0,0:0:0:0:
256,192,170663,1,8,0:0:0:0:
256,192,170747,1,8,0:0:0:0:
256,192,170830,1,8,0:0:0:0:
256,192,170996,1,0,0:0:0:0:
256,192,171163,1,8,0:0:0:0:
256,192,171330,1,0,0:0:0:0:
256,192,171496,1,8,0:0:0:0:
256,192,171663,1,0,0:0:0:0:
256,192,171996,1,12,0:0:0:0:
256,192,172496,5,4,0:0:0:0:
256,192,172663,1,8,0:0:0:0:
256,192,172746,1,8,0:0:0:0:
256,192,172830,1,8,0:0:0:0:
256,192,172996,1,8,0:0:0:0:
256,192,173163,1,0,0:0:0:0:
256,192,173330,1,0,0:0:0:0:
256,192,173496,1,8,0:0:0:0:
256,192,173663,1,0,0:0:0:0:
256,192,173746,1,0,0:0:0:0:
256,192,173830,1,0,0:0:0:0:
256,192,173996,1,8,0:0:0:0:
256,192,174163,1,8,0:0:0:0:
256,192,174330,1,0,0:0:0:0:
256,192,174663,1,0,0:0:0:0:
256,192,174830,1,8,0:0:0:0:
256,192,174996,1,8,0:0:0:0:
256,192,175163,1,0,0:0:0:0:
256,192,175330,1,8,0:0:0:0:
256,192,175413,1,8,0:0:0:0:
256,192,175496,1,8,0:0:0:0:
256,192,175663,1,8,0:0:0:0:
256,192,175830,1,0,0:0:0:0:
256,192,175996,1,0,0:0:0:0:
256,192,176163,1,8,0:0:0:0:
256,192,176330,1,0,0:0:0:0:
256,192,176663,1,0,0:0:0:0:
256,192,176830,1,8,0:0:0:0:
256,192,176913,1,8,0:0:0:0:
256,192,176996,1,8,0:0:0:0:
256,192,177163,1,0,0:0:0:0:
256,192,177330,1,0,0:0:0:0:
256,192,177496,1,8,0:0:0:0:
256,192,177663,1,0,0:0:0:0:
256,192,177830,1,8,0:0:0:0:
256,192,177996,1,0,0:0:0:0:
256,192,178163,5,0,0:0:0:0:
256,192,178330,1,8,0:0:0:0:
256,192,178496,1,0,0:0:0:0:
256,192,178746,1,8,0:0:0:0:
256,192,178996,1,8,0:0:0:0:
256,192,179163,1,0,0:0:0:0:
256,192,179330,1,0,0:0:0:0:
256,192,179496,1,8,0:0:0:0:
256,192,179663,1,0,0:0:0:0:
256,192,179830,1,8,0:0:0:0:
256,192,179996,1,8,0:0:0:0:
256,192,180080,1,8,0:0:0:0:
256,192,180163,1,8,0:0:0:0:
256,192,180330,1,8,0:0:0:0:
256,192,180496,1,8,0:0:0:0:
256,192,180663,1,0,0:0:0:0:
256,192,180830,1,0,0:0:0:0:
256,192,180996,1,8,0:0:0:0:
256,192,181163,1,0,0:0:0:0:
256,192,181413,5,8,0:0:0:0:
256,192,181663,1,8,0:0:0:0:
256,192,181830,1,0,0:0:0:0:
256,192,182496,12,0,182830,0:0:0:0:
256,192,183163,5,4,0:0:0:0:
256,192,183496,1,8,0:0:0:0:
256,192,183663,1,0,0:0:0:0:
256,192,183829,1,0,0:0:0:0:
256,192,183996,1,8,0:0:0:0:
256,192,184163,1,0,0:0:0:0:
256,192,184329,1,0,0:0:0:0:
256,192,184496,1,8,0:0:0:0:
256,192,184663,1,0,0:0:0:0:
256,192,184829,1,8,0:0:0:0:
256,192,184996,1,8,0:0:0:0:
256,192,185163,1,0,0:0:0:0:
256,192,185246,1,0,0:0:0:0:
256,192,185329,1,0,0:0:0:0:
256,192,185496,1,4,0:0:0:0:
256,192,185829,1,8,0:0:0:0:
256,192,185996,1,0,0:0:0:0:
256,192,186163,1,0,0:0:0:0:
256,192,186329,1,8,0:0:0:0:
256,192,186496,1,0,0:0:0:0:
256,192,186663,1,0,0:0:0:0:
256,192,186829,1,8,0:0:0:0:
256,192,186996,1,0,0:0:0:0:
256,192,187163,1,8,0:0:0:0:
256,192,187329,1,0,0:0:0:0:
256,192,187496,1,8,0:0:0:0:
256,192,187579,1,8,0:0:0:0:
256,192,187663,1,8,0:0:0:0:
256,192,187829,1,4,0:0:0:0:
256,192,188162,1,8,0:0:0:0:
256,192,188329,1,0,0:0:0:0:
256,192,188495,1,0,0:0:0:0:
256,192,188662,1,8,0:0:0:0:
256,192,188829,1,4,0:0:0:0:
256,192,189162,1,8,0:0:0:0:
256,192,189329,1,0,0:0:0:0:
256,192,189495,1,8,0:0:0:0:
256,192,189662,1,8,0:0:0:0:
256,192,189829,1,4,0:0:0:0:
256,192,190162,1,8,0:0:0:0:
256,192,190329,1,0,0:0:0:0:
256,192,190495,1,0,0:0:0:0:
256,192,190662,1,0,0:0:0:0:
256,192,190829,1,12,0:0:0:0:
256,192,191162,5,0,0:0:0:0:
256,192,191329,1,0,0:0:0:0:
256,192,191495,1,0,0:0:0:0:
256,192,191829,1,12,0:0:0:0:
256,192,192162,1,0,0:0:0:0:
256,192,192329,1,8,0:0:0:0:
256,192,192495,1,0,0:0:0:0:
256,192,192829,1,12,0:0:0:0:
256,192,193162,1,0,0:0:0:0:
256,192,193329,1,8,0:0:0:0:
256,192,193495,1,0,0:0:0:0:
256,192,193662,1,0,0:0:0:0:
256,192,193829,1,12,0:0:0:0:
256,192,194162,1,0,0:0:0:0:
256,192,194329,1,8,0:0:0:0:
256,192,194495,1,8,0:0:0:0:
256,192,194662,1,0,0:0:0:0:
256,192,194829,1,8,0:0:0:0:
256,192,194995,8,8,199829,0:0:0:0:
