osu file format v14

[General]
AudioFilename: audio.mp3
AudioLeadIn: 0
PreviewTime: 75298
Countdown: 0
SampleSet: Normal
StackLeniency: 0.7
Mode: 1
LetterboxInBreaks: 0
WidescreenStoryboard: 1

[Editor]
Bookmarks: 8098,12898,17698,22498,27298,36898,46498,56098,65698,75298,84898,89698,94498,99298,104098,114898
DistanceSpacing: 1.3
BeatDivisor: 2
GridSize: 32
TimelineZoom: 0.6999998

[Metadata]
Title:Yog-Sothoth
TitleUnicode:요그 소토스
Artist:Nato
ArtistUnicode:나토
Creator:guro
Version:Futsuu
Source:Pump It Up 2015 Prime
Tags:piu andamiro dance arcade tasuke912 ayyri eiri-
BeatmapID:1490594
BeatmapSetID:704640

[Difficulty]
HPDrainRate:6
CircleSize:6
OverallDifficulty:4
ApproachRate:6
SliderMultiplier:1.2
SliderTickRate:1

[Events]
//Background and Video events
0,0,"y1.png",0,0
//Break Periods
//Storyboard Layer 0 (Background)
//Storyboard Layer 1 (Fail)
//Storyboard Layer 2 (Pass)
//Storyboard Layer 3 (Foreground)
//Storyboard Sound Samples

[TimingPoints]
3298.50989818573,300,4,1,0,100,1,0
65698,-125,4,1,0,100,0,0
75298,-100,4,1,0,100,0,1
84898,-100,4,1,0,100,0,0
89698,-100,4,1,0,100,0,1
114898,-100,4,1,0,100,0,0

[HitObjects]
64,64,3298,5,4,0:0:0:0:
448,64,3898,1,2,0:0:0:0:
64,64,4498,1,0,0:0:0:0:
64,64,5698,1,0,0:0:0:0:
448,64,6298,1,2,0:0:0:0:
64,64,6598,1,0,0:0:0:0:
64,64,6898,1,0,0:0:0:0:
448,64,7498,1,2,0:0:0:0:
64,64,8098,1,4,0:0:0:0:
448,64,8698,1,2,0:0:0:0:
448,64,8998,1,2,0:0:0:0:
64,64,9298,1,0,0:0:0:0:
448,64,9898,1,2,0:0:0:0:
64,64,10498,1,0,0:0:0:0:
448,64,11698,1,2,0:0:0:0:
64,64,11998,1,0,0:0:0:0:
448,64,12298,1,2,0:0:0:0:
64,64,12898,1,4,0:0:0:0:
448,64,13498,1,2,0:0:0:0:
64,64,14098,1,0,0:0:0:0:
64,64,15298,1,0,0:0:0:0:
448,64,15898,1,2,0:0:0:0:
64,64,16198,1,0,0:0:0:0:
64,64,16498,1,0,0:0:0:0:
448,64,17098,1,2,0:0:0:0:
64,64,17698,1,4,0:0:0:0:
448,64,18298,1,2,0:0:0:0:
448,64,18598,1,2,0:0:0:0:
64,64,18898,1,0,0:0:0:0:
448,64,19498,1,2,0:0:0:0:
448,64,20098,1,8,0:0:0:0:
448,64,21298,1,8,0:0:0:0:
64,64,21598,1,0,0:0:0:0:
448,64,21898,1,2,0:0:0:0:
64,64,22498,1,4,0:0:0:0:
64,64,24898,1,0,0:0:0:0:
448,64,25198,1,8,0:0:0:0:
64,64,25648,1,0,0:0:0:0:
448,64,25798,1,8,0:0:0:0:
64,64,26098,1,0,0:0:0:0:
64,64,26548,1,0,0:0:0:0:
448,64,26998,1,8,0:0:0:0:
64,64,27298,1,4,0:0:0:0:
448,64,27598,1,8,0:0:0:0:
448,64,28198,1,8,0:0:0:0:
64,64,28498,1,0,0:0:0:0:
448,64,28798,1,8,0:0:0:0:
64,64,28948,1,0,0:0:0:0:
448,64,29398,1,8,0:0:0:0:
64,64,29698,1,0,0:0:0:0:
448,64,29998,1,8,0:0:0:0:
448,64,30598,1,8,0:0:0:0:
64,64,30898,1,0,0:0:0:0:
448,64,31198,1,8,0:0:0:0:
448,64,31348,1,0,0:0:0:0:
64,64,31648,1,0,0:0:0:0:
448,64,31798,1,8,0:0:0:0:
64,64,32098,1,4,0:0:0:0:
448,64,32398,1,8,0:0:0:0:
448,64,32998,1,8,0:0:0:0:
64,64,33298,1,0,0:0:0:0:
448,64,33598,1,8,0:0:0:0:
64,64,33748,1,0,0:0:0:0:
448,64,34198,1,8,0:0:0:0:
64,64,34498,1,0,0:0:0:0:
448,64,34798,1,8,0:0:0:0:
448,64,35398,1,8,0:0:0:0:
448,64,35698,1,8,0:0:0:0:
64,64,35998,1,0,0:0:0:0:
64,64,36448,1,0,0:0:0:0:
448,64,36598,1,8,0:0:0:0:
64,64,36898,1,4,0:0:0:0:
448,64,37198,1,8,0:0:0:0:
448,64,37798,1,8,0:0:0:0:
64,64,38098,1,0,0:0:0:0:
448,64,38398,1,8,0:0:0:0:
64,64,38848,1,0,0:0:0:0:
448,64,38998,1,8,0:0:0:0:
64,64,39298,1,0,0:0:0:0:
448,64,39598,1,8,0:0:0:0:
448,64,40198,1,8,0:0:0:0:
64,64,40498,1,0,0:0:0:0:
448,64,40798,1,8,0:0:0:0:
448,64,40948,1,8,0:0:0:0:
64,64,41248,1,0,0:0:0:0:
448,64,41398,1,8,0:0:0:0:
64,64,41698,1,4,0:0:0:0:
448,64,41998,1,8,0:0:0:0:
448,64,42598,1,8,0:0:0:0:
64,64,42898,1,0,0:0:0:0:
448,64,43198,1,8,0:0:0:0:
64,64,43648,1,0,0:0:0:0:
448,64,43798,1,8,0:0:0:0:
64,64,44098,1,0,0:0:0:0:
448,64,44398,1,8,0:0:0:0:
64,64,44998,1,0,0:0:0:0:
64,64,45298,1,0,0:0:0:0:
448,64,45598,1,8,0:0:0:0:
448,64,46198,1,2,0:0:0:0:
64,64,46498,1,4,0:0:0:0:
448,64,46798,1,8,0:0:0:0:
448,64,47398,1,8,0:0:0:0:
64,64,47698,1,0,0:0:0:0:
448,64,47998,1,8,0:0:0:0:
64,64,48298,1,0,0:0:0:0:
448,64,48598,1,8,0:0:0:0:
448,64,48748,1,8,0:0:0:0:
64,64,48898,1,0,0:0:0:0:
448,64,49198,1,8,0:0:0:0:
448,64,49798,1,8,0:0:0:0:
64,64,50098,1,0,0:0:0:0:
448,64,50398,1,2,0:0:0:0:
64,64,50698,1,0,0:0:0:0:
64,64,50848,1,0,0:0:0:0:
64,64,50998,1,0,0:0:0:0:
64,64,51298,1,0,0:0:0:0:
448,64,51598,1,8,0:0:0:0:
448,64,52198,1,8,0:0:0:0:
64,64,52498,1,0,0:0:0:0:
448,64,52798,1,8,0:0:0:0:
64,64,53098,1,0,0:0:0:0:
448,64,53398,1,8,0:0:0:0:
448,64,53548,1,8,0:0:0:0:
64,64,53698,1,0,0:0:0:0:
448,64,53998,1,8,0:0:0:0:
64,64,54298,1,0,0:0:0:0:
64,64,54448,1,0,0:0:0:0:
448,64,54598,1,2,0:0:0:0:
64,64,54898,1,0,0:0:0:0:
448,64,55498,1,8,0:0:0:0:
448,64,55723,1,2,0:0:0:0:
448,64,55948,1,8,0:0:0:0:
64,64,56098,1,4,0:0:0:0:
448,64,56398,1,8,0:0:0:0:
448,64,56998,1,8,0:0:0:0:
64,64,57298,1,0,0:0:0:0:
448,64,57598,1,8,0:0:0:0:
64,64,57898,1,0,0:0:0:0:
448,64,58198,1,8,0:0:0:0:
448,64,58348,1,8,0:0:0:0:
64,64,58498,1,0,0:0:0:0:
448,64,58798,1,8,0:0:0:0:
448,64,59398,1,8,0:0:0:0:
64,64,59698,1,0,0:0:0:0:
448,64,59998,1,8,0:0:0:0:
64,64,60298,1,0,0:0:0:0:
64,64,60448,1,0,0:0:0:0:
64,64,60598,1,0,0:0:0:0:
64,64,60898,1,0,0:0:0:0:
448,64,61198,1,8,0:0:0:0:
448,64,61798,1,8,0:0:0:0:
64,64,62098,1,0,0:0:0:0:
448,64,62398,1,8,0:0:0:0:
64,64,62698,1,0,0:0:0:0:
448,64,62998,1,8,0:0:0:0:
448,64,63148,1,8,0:0:0:0:
64,64,63298,1,0,0:0:0:0:
448,64,63598,1,8,0:0:0:0:
64,64,63898,1,0,0:0:0:0:
64,64,64048,1,0,0:0:0:0:
448,64,64198,1,2,0:0:0:0:
64,64,64498,1,0,0:0:0:0:
64,64,65098,1,0,0:0:0:0:
448,64,65323,1,2,0:0:0:0:
448,64,65548,1,2,0:0:0:0:
64,64,65698,1,4,0:0:0:0:
448,64,65998,1,8,0:0:0:0:
448,64,67798,1,8,0:0:0:0:
64,64,68098,1,0,0:0:0:0:
448,64,68398,1,8,0:0:0:0:
448,64,70198,1,8,0:0:0:0:
64,64,70498,1,0,0:0:0:0:
448,64,70798,1,8,0:0:0:0:
448,64,71998,1,8,0:0:0:0:
448,64,72598,1,8,0:0:0:0:
64,64,72898,1,0,0:0:0:0:
448,64,73198,1,8,0:0:0:0:
448,64,73798,1,8,0:0:0:0:
256,192,74098,12,8,74998,0:0:0:0:
64,64,75298,5,4,0:0:0:0:
64,64,75898,1,0,0:0:0:0:
64,64,76198,1,0,0:0:0:0:
64,64,76348,1,0,0:0:0:0:
448,64,76498,1,8,0:0:0:0:
448,64,76798,1,8,0:0:0:0:
448,64,77098,1,8,0:0:0:0:
64,64,77248,1,0,0:0:0:0:
448,64,77398,1,2,0:0:0:0:
64,64,77698,1,4,0:0:0:0:
64,64,78298,1,0,0:0:0:0:
64,64,78598,1,0,0:0:0:0:
64,64,78748,1,0,0:0:0:0:
448,64,78898,1,8,0:0:0:0:
448,64,79198,1,8,0:0:0:0:
448,64,79498,1,8,0:0:0:0:
64,64,79648,1,0,0:0:0:0:
448,64,79798,1,2,0:0:0:0:
64,64,80098,1,4,0:0:0:0:
64,64,80698,1,0,0:0:0:0:
64,64,80998,1,0,0:0:0:0:
64,64,81148,1,0,0:0:0:0:
448,64,81298,1,8,0:0:0:0:
448,64,81598,1,8,0:0:0:0:
448,64,81898,1,8,0:0:0:0:
448,64,82048,1,2,0:0:0:0:
448,64,82198,1,8,0:0:0:0:
64,64,82498,1,0,0:0:0:0:
64,64,83098,1,0,0:0:0:0:
64,64,83298,1,0,0:0:0:0:
64,64,83498,1,0,0:0:0:0:
64,64,83698,1,0,0:0:0:0:
448,64,83998,1,8,0:0:0:0:
448,64,84298,1,2,0:0:0:0:
448,64,84448,1,8,0:0:0:0:
64,64,84598,1,0,0:0:0:0:
64,64,84898,1,4,0:0:0:0:
64,64,87298,1,0,0:0:0:0:
448,64,87598,1,2,0:0:0:0:
64,64,88048,1,0,0:0:0:0:
448,64,88198,1,8,0:0:0:0:
64,64,88498,1,0,0:0:0:0:
448,64,89098,1,8,0:0:0:0:
64,64,89248,1,0,0:0:0:0:
448,64,89398,1,8,0:0:0:0:
64,64,89698,1,4,0:0:0:0:
448,64,89998,1,8,0:0:0:0:
448,64,90598,1,8,0:0:0:0:
64,64,90898,1,0,0:0:0:0:
448,64,91198,1,8,0:0:0:0:
64,64,91498,1,0,0:0:0:0:
64,64,91648,1,0,0:0:0:0:
448,64,91798,1,8,0:0:0:0:
64,64,92098,1,0,0:0:0:0:
448,64,92398,1,8,0:0:0:0:
448,64,92998,1,8,0:0:0:0:
64,64,93298,1,0,0:0:0:0:
448,64,93598,1,8,0:0:0:0:
448,64,93748,1,2,0:0:0:0:
64,64,94048,1,0,0:0:0:0:
448,64,94198,1,2,0:0:0:0:
64,64,94498,1,0,0:0:0:0:
448,64,94798,1,8,0:0:0:0:
448,64,95398,1,2,0:0:0:0:
64,64,95698,1,0,0:0:0:0:
448,64,95998,1,8,0:0:0:0:
448,64,96148,1,2,0:0:0:0:
64,64,96298,1,0,0:0:0:0:
448,64,96598,1,8,0:0:0:0:
64,64,96898,1,0,0:0:0:0:
448,64,97198,1,8,0:0:0:0:
448,64,97648,1,2,0:0:0:0:
448,64,97798,1,8,0:0:0:0:
64,64,98098,1,0,0:0:0:0:
448,64,98398,1,2,0:0:0:0:
64,64,98548,1,0,0:0:0:0:
448,64,98698,1,2,0:0:0:0:
64,64,99298,1,4,0:0:0:0:
448,64,99598,1,8,0:0:0:0:
448,64,100198,1,8,0:0:0:0:
64,64,100498,1,0,0:0:0:0:
448,64,100798,1,8,0:0:0:0:
64,64,101248,1,0,0:0:0:0:
448,64,101398,1,8,0:0:0:0:
448,64,101548,1,2,0:0:0:0:
64,64,101698,1,0,0:0:0:0:
448,64,101998,1,2,0:0:0:0:
64,64,102148,1,0,0:0:0:0:
448,64,102598,1,2,0:0:0:0:
64,64,102898,1,0,0:0:0:0:
448,64,103198,1,2,0:0:0:0:
64,64,103498,1,0,0:0:0:0:
64,64,103648,1,0,0:0:0:0:
448,64,103798,1,2,0:0:0:0:
448,64,104098,1,12,0:0:0:0:
448,64,104698,1,8,0:0:0:0:
448,64,104998,1,8,0:0:0:0:
64,64,105298,1,0,0:0:0:0:
64,64,105898,1,0,0:0:0:0:
448,64,106198,1,8,0:0:0:0:
64,64,106498,1,0,0:0:0:0:
448,64,106798,1,2,0:0:0:0:
64,64,106948,1,0,0:0:0:0:
448,64,107098,1,2,0:0:0:0:
448,64,107398,1,8,0:0:0:0:
64,64,107698,1,0,0:0:0:0:
448,64,107998,1,2,0:0:0:0:
448,64,108148,1,2,0:0:0:0:
64,64,108298,1,0,0:0:0:0:
448,64,108598,1,2,0:0:0:0:
64,64,108898,1,0,0:0:0:0:
448,64,109198,1,8,0:0:0:0:
64,64,109348,1,0,0:0:0:0:
64,64,109648,1,0,0:0:0:0:
448,64,109798,1,8,0:0:0:0:
64,64,110098,1,0,0:0:0:0:
448,64,110698,1,8,0:0:0:0:
64,64,111298,1,0,0:0:0:0:
64,64,111598,1,0,0:0:0:0:
448,64,111748,1,8,0:0:0:0:
64,64,112198,1,0,0:0:0:0:
448,64,112498,1,8,0:0:0:0:
64,64,112798,1,0,0:0:0:0:
448,64,112948,1,8,0:0:0:0:
64,64,113398,1,0,0:0:0:0:
448,64,113698,1,8,0:0:0:0:
448,64,114148,1,8,0:0:0:0:
64,64,114448,1,0,0:0:0:0:
448,64,114598,1,8,0:0:0:0:
64,64,114898,1,4,0:0:0:0:
