osu file format v14

[General]
AudioFilename: audio.mp3
AudioLeadIn: 0
PreviewTime: 60563
Countdown: 0
SampleSet: Normal
StackLeniency: 0.7
Mode: 1
LetterboxInBreaks: 0
WidescreenStoryboard: 0

[Editor]
Bookmarks: 60723,89523,112563,131763
DistanceSpacing: 1.3
BeatDivisor: 8
GridSize: 32
TimelineZoom: 1.5

[Metadata]
Title:Mute
TitleUnicode:Mute
Artist:Native Construct
ArtistUnicode:Native Construct
Creator:Faputa
Version:Quiet World
Source:osu!
Tags:mappers' guild fa featured artist metal symphonic rock English
BeatmapID:2201028
BeatmapSetID:1053262

[Difficulty]
HPDrainRate:5
CircleSize:2
OverallDifficulty:6
ApproachRate:10
SliderMultiplier:1.4
SliderTickRate:3

[Events]
//Background and Video events
0,0,"sunset.jpg",0,-50
//Break Periods
2,21812,25713
2,256883,261033
2,316883,318033
//Storyboard Layer 0 (Background)
//Storyboard Layer 1 (Fail)
//Storyboard Layer 2 (Pass)
//Storyboard Layer 3 (Foreground)
//Storyboard Layer 4 (Overlay)
//Storyboard Sound Samples

[TimingPoints]
1253,598.802395209581,4,1,0,80,1,0
1552,-100,4,1,0,10,0,0
13229,-83.3333333333333,4,1,0,20,0,0
14426,-83.3333333333333,4,1,0,30,0,0
15624,-71.4285714285714,4,1,0,40,0,0
16821,-71.4285714285714,4,1,0,50,0,0
18019,-62.5,4,1,0,60,0,0
19217,-62.5,4,1,0,70,0,0
20414,-55.5555555555556,4,1,0,80,0,0
21013,-37.037037037037,4,1,0,80,0,0
21911,-33.3333333333333,4,1,0,10,0,0
25205,-40,4,1,0,10,0,0
26163,480,4,1,0,100,1,0
26163,-66.6666666666667,4,1,0,100,0,0
32883,-66.6666666666667,4,1,0,100,0,0
33003,-66.12134191941,4,1,0,100,0,0
33063,-65.8519897507963,4,1,0,100,0,0
33123,-65.5848661609636,4,1,0,100,0,0
33183,-65.3198582820355,4,1,0,100,0,0
33243,-65.0570257359088,4,1,0,100,0,0
33303,-64.7962578865145,4,1,0,100,0,0
33363,-64.5375721610729,4,1,0,100,0,0
33523,-63.8578167395604,4,1,0,100,0,0
33683,-63.1921914672848,4,1,0,100,0,0
33843,-62.5402994054294,4,1,0,100,0,1
49203,-62.5402994054294,4,1,0,100,0,0
49323,-66.6666666666667,4,1,0,100,0,0
53523,-66.6666666666667,4,1,0,100,0,0
53683,-66.1798477069345,4,1,0,100,0,0
53843,-65.7000438219292,4,1,0,100,0,0
53923,-65.462762816627,4,1,0,100,0,0
54003,-65.227189562606,4,1,0,100,0,0
54083,-64.9932634482436,4,1,0,100,0,0
54163,-64.7610511495734,4,1,0,100,0,0
54243,-64.5304922708603,4,1,0,100,0,0
54323,-64.3015692154951,4,1,0,100,0,0
54403,-64.0742235805958,4,1,0,100,0,0
54483,-63.8485206617005,4,1,0,100,0,0
54563,-63.6244022487409,4,1,0,100,0,0
54643,-63.4018517144812,4,1,0,100,0,0
54723,-63.180812745339,4,1,0,100,0,0
54803,-62.9613492868998,4,1,0,100,0,0
54963,-62.52696475355,4,1,0,100,0,1
60723,-50,4,1,0,100,0,0
60843,-71.4285714285714,4,1,0,90,0,0
83883,-71.4285714285714,4,1,0,30,0,0
84243,-71.4285714285714,4,1,0,20,0,0
85203,-90.9090909090909,4,1,0,10,0,0
86523,-125,4,1,0,10,0,0
89403,-125,4,1,0,60,0,0
96243,-125,4,1,0,60,0,0
96283,-124.358929717307,4,1,0,60,0,0
96403,-122.474724278777,4,1,0,60,0,0
96563,-120.049460377676,4,1,0,60,0,0
96723,-117.71838231399,4,1,0,60,0,0
96883,-115.476241340725,4,1,0,60,0,0
97043,-113.317786133076,4,1,0,60,0,0
97203,-111.238541039791,4,1,0,65,0,0
103923,-111.111111111111,4,1,0,65,0,0
104083,-109.111342669627,4,1,0,65,0,0
104243,-107.18228491195,4,1,0,65,0,0
104403,-105.320252557966,4,1,0,65,0,0
104483,-104.413343189953,4,1,0,65,0,0
104563,-103.521919213565,4,1,0,65,0,0
104723,-101.783864000472,4,1,0,65,0,0
104883,-100.103206405804,4,1,0,70,0,0
110643,-100,4,1,0,70,0,0
110803,-99.1778159061381,4,1,0,70,0,0
110963,-98.3690412953235,4,1,0,70,0,0
111123,-97.5733507664387,4,1,0,70,0,0
111283,-96.7903356785632,4,1,0,70,0,0
111363,-96.4035684744906,4,1,0,70,0,0
111443,-96.0198799559461,4,1,0,70,0,0
111523,-95.639233508927,4,1,0,70,0,0
111603,-95.261593097726,4,1,0,70,0,0
112083,-93.0569294377221,4,1,0,70,0,0
112563,-90.9519209955233,4,1,0,75,0,0
119283,-90.9090909090909,4,1,0,75,0,0
119443,-89.5660079086785,4,1,0,75,0,0
119523,-88.9092787501489,4,1,0,75,0,0
119603,-88.2620323215562,4,1,0,75,0,0
119763,-86.9954805847836,4,1,0,75,0,0
119923,-85.7648379602034,4,1,0,75,0,0
120083,-84.568455627777,4,1,0,75,0,0
120243,-83.4049921223985,4,1,0,80,0,0
123123,-83.3333333333333,4,1,0,80,0,0
123283,-82.5714056873533,4,1,0,80,0,0
123443,-81.8233515663035,4,1,0,80,0,0
123603,-81.0886639669548,4,1,0,80,0,0
123763,-80.3670524017292,4,1,0,80,0,0
123843,-80.0110735325769,4,1,0,80,0,0
123923,-79.6582343115099,4,1,0,80,0,0
124083,-78.9617477709099,4,1,0,80,0,0
124563,-76.9435557463756,4,1,0,80,0,0
124883,-75.6544678880828,4,1,0,80,0,0
125043,-75.0259589818077,4,1,0,80,0,0
125523,-73.2016192198171,4,1,0,80,0,0
125843,-72.0339135665071,4,1,0,80,0,0
126003,-71.4638950109626,4,1,0,80,0,0
128163,-76.9230769230769,4,1,0,80,0,0
129603,-66.6666666666667,4,1,0,80,0,0
130803,-66.6666666666667,4,1,0,80,0,0
130923,-68.0701830815644,4,1,0,80,0,0
131043,-69.5340661296783,4,1,0,80,0,0
131163,-71.0622960512103,4,1,0,80,0,0
131283,-72.6591580692718,4,1,0,80,0,0
131523,-76.0784307758555,4,1,0,80,0,0
131763,-79.8354113160309,4,1,0,80,0,0
159603,480,3,1,0,90,1,0
159603,-80,3,1,0,90,0,0
161043,-80,3,1,0,90,0,0
161163,-79.281959152349,3,1,0,90,0,0
161223,-78.9277818688678,3,1,0,90,0,0
161283,-78.5766932098736,3,1,0,90,0,0
161403,-77.8839249136657,3,1,0,90,0,0
161523,-77.2032057859171,3,1,0,90,0,0
161643,-76.5342827666225,3,1,0,90,0,0
161763,-75.8768518694159,3,1,0,90,0,0
161883,-75.2306760604704,3,1,0,90,0,0
161943,-74.9116417185929,3,1,0,90,0,0
162003,-74.5953574833317,3,1,0,90,0,0
162123,-73.970679502059,3,1,0,90,0,0
162243,-73.3563770165668,3,1,0,90,0,0
162303,-73.0530628227119,3,1,0,90,0,0
162363,-72.7522465893747,3,1,0,90,0,0
162483,-72.1579335122369,3,1,0,90,0,0
162723,-70.9979687481141,3,1,0,90,0,0
162783,-70.7138063756982,3,1,0,90,0,0
162843,-70.4319095992354,3,1,0,90,0,0
162963,-69.8747564864736,3,1,0,90,0,0
163083,-69.326348934766,3,1,0,90,0,0
163323,-68.2550061634271,3,1,0,90,0,0
163443,-67.7316337208712,3,1,0,90,0,0
163563,-67.2162265348153,3,1,0,90,0,0
163683,600,4,1,0,90,1,0
163683,-53.475935828877,4,1,0,90,0,0
164133,-54.6306286619593,4,1,0,90,0,0
164208,-54.827958091702,4,1,0,90,0,0
164283,-55.0266879436527,4,1,0,90,0,0
164433,-55.428531836763,4,1,0,90,0,0
164583,-55.8362880035735,4,1,0,90,0,0
164733,-56.250119531504,4,1,0,90,0,0
164883,-56.6700989856619,4,1,0,90,0,0
165183,-57.5291572151055,4,1,0,90,0,0
165333,-57.9685277269265,4,1,0,90,0,0
165483,600,4,1,0,90,1,0
165483,-58.4795321637427,4,1,0,90,0,0
165783,-59.3864430252404,4,1,0,90,0,0
165933,-59.8505292881558,4,1,0,90,0,0
166083,-60.3219260549702,4,1,0,90,0,0
166383,-61.2873531095364,4,1,0,90,0,0
166533,-61.7817485594041,4,1,0,90,0,0
166608,-62.0319303158108,4,1,0,90,0,0
166683,-62.2841852979426,4,1,0,90,0,0
166833,-62.7948611197454,4,1,0,90,0,0
166983,-63.3139803600033,4,1,0,90,0,0
167133,-63.8417541671109,4,1,0,90,0,0
167283,-64.3784007890217,4,1,0,90,0,0
167883,-66.6183461595856,4,1,0,90,0,0
168033,-66.6183461595856,4,1,0,40,0,0
168483,-66.6183461595856,4,1,0,50,0,0
169083,-66.6183461595856,4,1,0,60,0,0
169383,-66.6183461595856,4,1,0,70,0,0
169683,-66.6183461595856,4,1,0,80,0,0
169983,-66.6183461595856,4,1,0,90,0,0
170133,-66.6183461595856,4,1,0,50,0,0
170283,600,7,1,0,50,1,0
178083,600,4,1,0,50,1,0
178083,-100,4,1,0,50,0,0
178383,-97.5855386038632,4,1,0,50,0,0
178458,-96.9999844800025,4,1,0,50,0,0
178533,-96.4215085530699,4,1,0,50,0,0
178608,-95.8497995301443,4,1,0,50,0,0
178683,-95.2848301786114,4,1,0,50,0,0
178883,-93.8104784428211,4,1,0,50,0,0
178933,-93.4489483722595,4,1,0,50,0,0
179083,-92.3809717369655,4,1,0,50,0,0
179133,-92.0303552923896,4,1,0,50,0,0
179283,600,3,1,0,50,1,0
179283,-90.9943774574169,4,1,0,50,0,0
181083,600,4,1,0,50,1,0
181083,-90.9090909090909,4,1,0,50,0,0
185283,600,3,1,0,50,1,0
185283,-90.9090909090909,3,1,0,50,0,0
187083,-90.9090909090909,3,1,0,50,0,0
187283,-89.5660079086785,3,1,0,50,0,0
187483,-88.2620323215562,3,1,0,50,0,0
187683,-86.9954805847836,3,1,0,50,0,0
188283,600,3,1,0,55,1,0
188283,-83.4049921223985,3,1,0,55,0,0
190083,600,4,1,0,55,1,0
190083,-83.3333333333333,4,1,0,55,0,0
192483,600,3,1,0,55,1,0
192483,-83.3333333333333,3,1,0,60,0,0
196083,-83.3333333333333,3,1,0,60,0,0
196383,-81.6498495193273,3,1,0,60,0,0
196458,-81.2395201019068,3,1,0,60,0,0
196533,-80.8333596041752,3,1,0,60,0,0
196608,-80.4311754453273,3,1,0,60,0,0
196683,-80.0329735851171,3,1,0,60,0,0
196883,-78.9902518130238,3,1,0,60,0,0
196933,-78.7337719854217,3,1,0,60,0,0
197083,-77.9742903169967,3,1,0,60,0,0
197133,-77.7243552376111,3,1,0,60,0,0
197283,600,3,1,0,55,1,0
197283,-76.9841312610232,3,1,0,60,0,0
199083,600,4,1,0,55,1,0
199083,-76.9230769230769,4,1,0,55,0,0
201483,600,3,1,0,55,1,0
201483,-76.9230769230769,3,1,0,55,0,0
204183,-75.7575757575758,3,1,0,55,0,0
204483,-74.6268656716418,3,1,0,55,0,0
204783,-73.5294117647059,3,1,0,55,0,0
205083,-72.463768115942,3,1,0,55,0,0
205283,-72.2909508356472,3,1,0,55,0,0
205483,-72.1189558906042,3,1,0,55,0,0
205683,-71.9477774252337,3,1,0,55,0,0
206283,600,3,1,0,60,1,0
206283,-71.4390831793821,3,1,0,60,0,0
208083,600,4,1,0,60,1,0
208083,-71.4285714285714,4,1,0,60,0,0
210483,600,3,1,0,60,1,0
210483,-71.4285714285714,3,1,0,60,0,0
214083,-71.4285714285714,3,1,0,60,0,0
214533,-69.5839506009618,3,1,0,60,0,0
214608,-69.2857128010204,3,1,0,60,0,0
214683,-68.9900205935212,3,1,0,60,0,0
214883,-68.2138011526768,3,1,0,60,0,0
214933,-68.0224446858485,3,1,0,60,0,0
215083,-67.4548086509443,3,1,0,60,0,0
215133,-67.2676809736055,3,1,0,60,0,0
215283,600,3,1,0,60,1,0
215283,-66.7125204056922,3,1,0,60,0,0
217083,600,4,1,0,60,1,0
217083,-66.6666666666667,4,1,0,60,0,0
219483,600,3,1,0,60,1,0
219483,-66.6666666666667,3,1,0,60,0,0
223383,-65.7894736842105,3,1,0,60,0,0
223683,-64.9350649350649,3,1,0,60,0,0
223983,-64.1025641025641,3,1,0,60,0,0
224283,600,3,1,0,60,1,0
224283,-63.2911392405063,3,1,0,65,0,0
224583,-66.6666666666667,3,1,0,65,0,0
226083,600,4,1,0,65,1,0
226083,-66.6666666666667,4,1,0,65,0,0
228483,600,3,1,0,65,1,0
228483,-66.6666666666667,3,1,0,65,0,0
232083,-66.6666666666667,3,1,0,65,0,0
232383,-65.5848661609636,3,1,0,65,0,0
232458,-65.3198582820355,3,1,0,65,0,0
232533,-65.0570257359088,3,1,0,65,0,0
232608,-64.7962578865145,3,1,0,65,0,0
232683,-64.5375721610729,3,1,0,65,0,0
232883,-63.8578167395604,3,1,0,65,0,0
232933,-63.6900891215417,3,1,0,65,0,0
233083,-63.1921914672848,3,1,0,65,0,0
233133,-63.0279377636931,3,1,0,65,0,0
233283,600,3,1,0,65,1,0
233283,-62.5402994054294,3,1,0,70,0,0
233433,-66.6666666666667,3,1,0,70,0,0
235083,600,4,1,0,70,1,0
235083,-66.6666666666667,4,1,0,70,0,0
237483,600,3,1,0,70,1,0
237483,-66.6666666666667,3,1,0,70,0,0
241383,-65.7894736842105,3,1,0,70,0,0
241683,-64.9350649350649,3,1,0,70,0,0
241983,-64.1025641025641,3,1,0,70,0,0
242283,600,4,1,0,70,1,0
242283,-63.2911392405063,4,1,0,70,0,0
243783,-100,4,1,0,70,0,0
243858,-95.3002673172498,4,1,0,70,0,0
243933,-91.0224552397076,4,1,0,70,0,0
244008,-87.1121874305825,4,1,0,70,0,0
244083,-83.5240465730084,4,1,0,70,0,0
244158,-80.2198022581874,4,1,0,70,0,0
244233,-77.1670434990624,4,1,0,70,0,0
244308,-74.3381120349686,4,1,0,70,0,0
244383,-71.7092105461302,4,1,0,70,0,0
244458,-69.2599436501098,4,1,0,70,0,0
244533,-66.9724629324161,4,1,0,70,0,0
244608,-64.8312507374555,4,1,0,70,0,0
244683,-62.8227124208669,4,1,0,70,0,0
254883,-67.1140939597315,4,1,0,70,0,0
255483,-71.9424460431655,4,1,0,70,0,0
256083,-77.5193798449612,4,1,0,70,0,0
256683,-84.0336134453781,4,1,0,70,0,0
256983,-100,4,1,0,40,0,0
259083,-100,4,1,0,40,0,0
260883,-133.333333333333,4,1,0,40,0,0
262983,-133.333333333333,4,1,0,30,0,0
266208,-133.333333333333,4,1,0,40,0,0
278883,-133.333333333333,4,1,0,40,0,0
279183,-129.060901258086,4,1,0,40,0,0
279258,-128.035399227178,4,1,0,40,0,0
279333,-127.025904392683,4,1,0,40,0,0
279483,-125.0539295071,4,1,0,40,0,0
279683,-122.517939689319,4,1,0,40,0,0
279883,-120.082761038908,4,1,0,40,0,0
280083,-117.74263814155,4,1,0,40,0,0
280683,-111.23891226142,4,1,0,60,0,0
293883,-105.263157894737,4,1,0,60,0,0
294283,-100,4,1,0,60,0,0
294683,-95.2380952380952,4,1,0,60,0,0
295083,-90.9090909090909,4,1,0,60,0,0
295383,-117.647058823529,4,1,0,70,0,0
298083,-117.647058823529,4,1,0,70,0,0
298233,-115.953590734844,4,1,0,70,0,0
298383,-114.308184008742,4,1,0,70,0,0
298683,-111.153720037125,4,1,0,70,0,0
298983,-108.168565565835,4,1,0,70,0,0
299133,-106.735318823734,4,1,0,70,0,0
299283,-105.339667758688,4,1,0,70,0,0
299583,-102.654859989036,4,1,0,70,0,0
299883,-100.103507026265,4,1,0,70,0,0
303483,-100,4,1,0,70,0,0
303683,-99.0119596546067,4,1,0,70,0,0
303883,-98.0432527613882,4,1,0,70,0,0
304083,-97.093223087215,4,1,0,70,0,0
304233,-96.3927890482369,4,1,0,70,0,0
304383,-95.7023885402132,4,1,0,70,0,0
304433,-95.4744171525519,4,1,0,70,0,0
304533,-95.0217172134691,4,1,0,70,0,0
304683,-94.3507489090695,4,1,0,70,0,0
304833,-93.6891020836456,4,1,0,70,0,0
304908,-93.3617900069275,4,1,0,70,0,0
304983,-93.0367569619405,4,1,0,70,0,0
305058,-92.7139792283601,4,1,0,70,0,0
305133,-92.3934334139004,4,1,0,70,0,0
305283,-91.7588613826409,4,1,0,70,0,0
305583,-90.5155949318508,4,1,0,70,0,0
305883,-89.3055688273554,4,1,0,70,0,0
306033,-88.712646431312,4,1,0,70,0,0
306108,-88.419127886774,4,1,0,70,0,0
306183,-88.1275452336658,4,1,0,70,0,0
306333,-87.5500348449139,4,1,0,70,0,0
306633,-86.4175019638377,4,1,0,70,0,0
306783,-85.862189468659,4,1,0,70,0,0
306933,-85.3139682000715,4,1,0,70,0,0
307083,-84.7726313255218,4,1,0,70,0,0
307233,-84.2381919114488,4,1,0,70,0,0
307308,-83.9734912482827,4,1,0,70,0,0
307383,-83.7103788313194,4,1,0,70,0,0
307533,-83.1892080304206,4,1,0,70,0,0
307683,-82.6744865707698,4,1,0,70,0,0
307983,-81.6638519859016,4,1,0,70,0,0
308283,-80.6776275291428,4,1,0,70,0,0
308483,-80.0332938502417,4,1,0,70,0,0
308683,-79.3991705962639,4,1,0,70,0,0
308883,-78.774954921032,4,1,0,70,0,0
309033,-78.3132577297143,4,1,0,70,0,0
309183,-77.8569409852173,4,1,0,70,0,0
309483,-76.9600177315881,4,1,0,70,0,0
311883,-74.0740740740741,4,1,0,70,0,0
312483,-71.4285714285714,4,1,0,70,0,0
313083,-68.9655172413793,4,1,0,70,0,0
313683,-66.6666666666667,4,1,0,70,0,0
314283,-64.5161290322581,4,1,0,70,0,0
314583,-63.4973045394223,4,1,0,70,0,0
314733,-62.9998248604869,4,1,0,70,0,0
314883,-62.5101188254849,4,1,0,70,0,0
315183,-61.5531964267138,4,1,0,70,0,0
315333,-61.085601085369,4,1,0,70,0,0
315483,-60.6250932110808,4,1,0,70,0,0
315633,-60.1714766742262,4,1,0,70,0,0
315783,-59.7245979340067,4,1,0,70,0,0
315858,-59.5036207953254,4,1,0,70,0,0
315933,-59.2842728309663,4,1,0,70,0,0
316008,-59.0665709788217,4,1,0,70,0,0
316083,-58.8504275189307,4,1,0,70,0,0
316233,-58.4228858802401,4,1,0,70,0,0
316383,-58.0015115193902,4,1,0,70,0,0
316458,-57.7930788164671,4,1,0,70,0,0
316533,-57.5861719477025,4,1,0,70,0,0
316608,-57.3807083763211,4,1,0,70,0,0
316683,300,3,1,0,80,1,0
316683,-114.353411505325,4,1,0,80,0,0
318483,-90.9090909090909,4,1,0,100,0,1
322683,-90.0900900900901,4,1,0,100,0,1
322758,-89.2857142857143,4,1,0,100,0,1
322833,-88.4955752212389,4,1,0,100,0,1
322908,-87.719298245614,4,1,0,100,0,1
322983,-86.9565217391304,4,1,0,100,0,1
323283,-83.3333333333333,4,1,0,100,0,1
323583,-80,4,1,0,100,0,1
323883,-76.9230769230769,4,1,0,100,0,1
324183,-74.0740740740741,4,1,0,100,0,1
324633,-90.9090909090909,4,1,0,100,0,1
325983,-74.0740740740741,4,1,0,100,0,1
326433,-90.9090909090909,4,1,0,100,0,1
330333,-90.9090909090909,4,1,0,100,0,1
330408,-88.9052474544205,4,1,0,100,0,1
330483,-86.9877616918076,4,1,0,100,0,1
330558,-85.1513138847732,4,1,0,100,0,1
330633,-83.3907339552058,4,1,0,100,0,1
330708,-81.7015491430733,4,1,0,100,0,1
330783,-80.0794388032929,4,1,0,100,0,1
330858,-78.520423947473,4,1,0,100,0,1
330933,-77.0210121023116,4,1,0,100,0,1
331008,-75.5777922215336,4,1,0,100,0,1
331083,-74.1876085921121,4,1,0,100,0,0
331233,-95.2380952380952,4,1,0,100,0,0
344583,-95.2380952380952,4,1,0,100,0,0
344683,-92.3273225168797,4,1,0,100,0,0
344783,-89.5891174307275,4,1,0,100,0,0
344883,-87.0087269753156,4,1,0,100,0,0
344983,-84.5727469397351,4,1,0,100,0,0
345083,-82.2695198833089,4,1,0,100,0,0
345183,-80.0883534715498,4,1,0,100,0,0
345283,-78.0199169243924,4,1,0,100,0,0
345383,-76.0555753300051,4,1,0,100,0,0
345483,-74.1877737065176,4,1,0,100,0,1
345633,-90.9090909090909,4,1,0,100,0,1
349983,-90.9090909090909,4,1,0,100,0,0
350283,-86.9565217391304,4,1,0,100,0,0
350433,-83.3333333333333,4,1,0,100,0,0
350583,-80,4,1,0,100,0,0
350733,-76.9230769230769,4,1,0,100,0,0
350883,-74.0740740740741,4,1,0,100,0,0
351033,-95.2380952380952,4,1,0,100,0,0
351783,-95.2380952380952,4,1,0,100,0,0
351933,-90.9376122511151,4,1,0,100,0,0
352083,-87.0087269753156,4,1,0,100,0,0
352233,-83.405200814702,4,1,0,100,0,0
352383,-80.0883534715498,4,1,0,100,0,0
352533,-77.0252242204277,4,1,0,100,0,0
352683,-74.1877737065176,4,1,0,100,0,1
352983,-90.9090909090909,4,1,0,100,0,1
357483,-95.2380952380952,4,1,0,100,0,1
357633,-93.5715415256466,4,1,0,100,0,1
357783,-91.9622255962141,4,1,0,100,0,1
357933,-90.4074119612622,4,1,0,100,0,1
358083,-88.9042989673766,4,1,0,100,0,1
358183,-87.9296351887366,4,1,0,100,0,1
358283,-86.976185920295,4,1,0,100,0,1
358383,-86.0431179272557,4,1,0,100,0,1
358483,-85.1299295549833,4,1,0,100,0,1
358583,-84.2358502724609,4,1,0,100,0,1
358683,-83.3604254716116,4,1,0,100,0,1
358783,-82.5029412298548,4,1,0,100,0,1
358883,-81.6629850270917,4,1,0,100,0,1
358983,-80.8398941644106,4,1,0,100,0,1
359083,-80.0332297970117,4,1,0,100,0,1
359183,-79.2425678395623,4,1,0,100,0,1
359283,-78.4673136558235,4,1,0,100,0,1
359383,-77.7071419857128,4,1,0,100,0,1
359483,-76.9614984711598,4,1,0,100,0,1
359583,-76.2300867955768,4,1,0,100,0,1
359683,-75.5123893177153,4,1,0,100,0,1
359783,-74.8081358336207,4,1,0,100,0,1
359883,-74.1168422371131,4,1,0,100,0,0
360033,-90.9090909090909,4,1,0,100,0,0
369483,300,3,1,0,100,1,0
369483,-90.9090909090909,3,1,0,100,0,0
369633,-95.2380952380952,3,1,0,100,0,0
373233,-95.2380952380952,3,1,0,60,0,0
373983,-95.2380952380952,3,1,0,50,0,0
374883,-95.2380952380952,3,1,0,40,0,0
375783,-95.2380952380952,3,1,0,30,0,0
376683,-95.2380952380952,3,1,0,20,0,0
377583,-95.2380952380952,3,1,0,10,0,0
378483,-95.2380952380952,3,1,0,5,0,0
378783,-95.2380952380952,3,1,0,10,0,0
379083,-95.2380952380952,3,1,0,20,0,0
379383,-95.2380952380952,3,1,0,30,0,0
379683,-95.2380952380952,3,1,0,40,0,0
379983,-95.2380952380952,3,1,0,50,0,0
380283,-95.2380952380952,3,1,0,60,0,0

[HitObjects]
256,192,1253,5,8,0:0:0:0:
256,192,1851,12,0,21013,0:0:0:0:
256,192,21612,5,8,0:0:0:0:
256,192,26163,5,12,0:0:0:0:
256,192,27123,1,12,0:0:0:0:
256,192,28083,1,4,0:0:0:0:
256,192,28563,1,8,0:0:0:0:
256,192,28723,1,0,0:0:0:0:
256,192,28883,1,0,0:0:0:0:
256,192,29043,1,8,0:0:0:0:
256,192,29363,1,0,0:0:0:0:
256,192,29683,1,0,0:0:0:0:
256,192,30003,1,12,0:0:0:0:
0,160,30323,2,0,L|512:224,1,490.000018692017
256,192,31923,1,8,0:0:0:0:
256,192,32403,1,8,0:0:0:0:
256,192,32883,1,8,0:0:0:0:
256,192,33003,1,0,0:0:0:0:
256,192,33063,1,0,0:0:0:0:
256,192,33123,1,0,0:0:0:0:
256,192,33183,1,0,0:0:0:0:
256,192,33243,1,0,0:0:0:0:
256,192,33303,1,0,0:0:0:0:
256,192,33363,1,8,0:0:0:0:
256,192,33523,1,8,0:0:0:0:
256,192,33683,1,8,0:0:0:0:
256,192,33843,1,4,0:0:0:0:
256,192,34003,1,0,0:0:0:0:
256,192,34083,1,8,0:0:0:0:
256,192,34163,1,0,0:0:0:0:
256,192,34243,1,0,0:0:0:0:
256,192,34323,1,8,0:0:0:0:
256,192,34403,1,8,0:0:0:0:
256,192,34483,1,8,0:0:0:0:
256,192,34563,1,0,0:0:0:0:
256,192,34643,1,0,0:0:0:0:
256,192,34723,1,0,0:0:0:0:
256,192,34803,1,8,0:0:0:0:
256,192,34883,1,8,0:0:0:0:
256,192,34963,1,0,0:0:0:0:
256,192,35043,1,0,0:0:0:0:
256,192,35123,1,8,0:0:0:0:
256,192,35203,1,0,0:0:0:0:
256,192,35283,1,0,0:0:0:0:
256,192,35363,1,0,0:0:0:0:
256,192,35443,1,8,0:0:0:0:
256,192,35523,1,8,0:0:0:0:
256,192,35603,1,0,0:0:0:0:
256,192,35683,1,0,0:0:0:0:
256,192,35763,1,8,0:0:0:0:
256,192,35923,1,0,0:0:0:0:
256,192,36003,1,8,0:0:0:0:
256,192,36083,1,0,0:0:0:0:
256,192,36163,1,0,0:0:0:0:
256,192,36243,1,8,0:0:0:0:
256,192,36323,1,8,0:0:0:0:
256,192,36403,1,0,0:0:0:0:
256,192,36483,1,0,0:0:0:0:
256,192,36563,1,0,0:0:0:0:
256,192,36643,1,0,0:0:0:0:
256,192,36723,1,8,0:0:0:0:
256,192,36803,1,8,0:0:0:0:
256,192,36883,1,0,0:0:0:0:
256,192,36963,1,0,0:0:0:0:
256,192,37043,1,8,0:0:0:0:
256,192,37123,1,0,0:0:0:0:
256,192,37203,1,0,0:0:0:0:
256,192,37283,1,0,0:0:0:0:
256,192,37363,1,8,0:0:0:0:
256,192,37443,1,8,0:0:0:0:
256,192,37523,1,0,0:0:0:0:
256,192,37603,1,0,0:0:0:0:
256,192,37683,1,8,0:0:0:0:
256,192,37843,1,0,0:0:0:0:
256,192,37923,1,8,0:0:0:0:
256,192,38003,1,0,0:0:0:0:
256,192,38083,1,0,0:0:0:0:
256,192,38163,1,8,0:0:0:0:
256,192,38243,1,0,0:0:0:0:
256,192,38323,1,8,0:0:0:0:
256,192,38403,1,0,0:0:0:0:
256,192,38483,1,8,0:0:0:0:
256,192,38563,1,0,0:0:0:0:
256,192,38643,1,8,0:0:0:0:
256,192,38723,1,8,0:0:0:0:
256,192,38803,1,0,0:0:0:0:
256,192,38883,1,0,0:0:0:0:
256,192,38963,1,8,0:0:0:0:
256,192,39043,1,0,0:0:0:0:
256,192,39123,1,0,0:0:0:0:
256,192,39203,1,0,0:0:0:0:
256,192,39283,1,8,0:0:0:0:
256,192,39363,1,8,0:0:0:0:
256,192,39443,1,0,0:0:0:0:
256,192,39523,1,0,0:0:0:0:
256,192,39603,1,8,0:0:0:0:
256,192,39763,1,0,0:0:0:0:
256,192,39843,1,0,0:0:0:0:
256,192,39923,1,0,0:0:0:0:
256,192,40003,1,0,0:0:0:0:
256,192,40083,1,8,0:0:0:0:
256,192,40163,1,0,0:0:0:0:
256,192,40243,1,8,0:0:0:0:
256,192,40323,1,0,0:0:0:0:
256,192,40403,1,8,0:0:0:0:
256,192,40483,1,0,0:0:0:0:
256,192,40563,1,0,0:0:0:0:
256,192,40643,1,0,0:0:0:0:
256,192,40723,1,8,0:0:0:0:
256,192,40803,1,8,0:0:0:0:
256,192,40883,1,8,0:0:0:0:
256,192,40963,1,0,0:0:0:0:
256,192,41043,1,0,0:0:0:0:
256,192,41123,1,0,0:0:0:0:
256,192,41203,1,8,0:0:0:0:
256,192,41283,1,8,0:0:0:0:
256,192,41363,1,0,0:0:0:0:
256,192,41523,1,12,0:0:0:0:
256,192,41683,1,0,0:0:0:0:
256,192,41763,1,8,0:0:0:0:
256,192,41843,1,0,0:0:0:0:
256,192,41923,1,0,0:0:0:0:
256,192,42003,1,8,0:0:0:0:
256,192,42083,1,8,0:0:0:0:
256,192,42163,1,8,0:0:0:0:
256,192,42243,1,0,0:0:0:0:
256,192,42323,1,0,0:0:0:0:
256,192,42403,1,0,0:0:0:0:
256,192,42483,1,8,0:0:0:0:
256,192,42563,1,8,0:0:0:0:
256,192,42643,1,0,0:0:0:0:
256,192,42723,1,0,0:0:0:0:
256,192,42803,1,8,0:0:0:0:
256,192,42883,1,0,0:0:0:0:
256,192,42963,1,0,0:0:0:0:
256,192,43043,1,0,0:0:0:0:
256,192,43123,1,8,0:0:0:0:
256,192,43203,1,8,0:0:0:0:
256,192,43283,1,0,0:0:0:0:
256,192,43363,1,0,0:0:0:0:
256,192,43443,1,8,0:0:0:0:
256,192,43603,1,0,0:0:0:0:
256,192,43683,1,0,0:0:0:0:
256,192,43763,1,8,0:0:0:0:
256,192,43843,1,0,0:0:0:0:
256,192,43923,1,8,0:0:0:0:
256,192,44003,1,8,0:0:0:0:
256,192,44083,1,0,0:0:0:0:
256,192,44163,1,0,0:0:0:0:
256,192,44243,1,0,0:0:0:0:
256,192,44323,1,0,0:0:0:0:
256,192,44403,1,8,0:0:0:0:
256,192,44483,1,8,0:0:0:0:
256,192,44563,1,0,0:0:0:0:
256,192,44643,1,0,0:0:0:0:
256,192,44723,1,8,0:0:0:0:
256,192,44803,1,0,0:0:0:0:
256,192,44883,1,0,0:0:0:0:
256,192,44963,1,0,0:0:0:0:
256,192,45043,1,8,0:0:0:0:
256,192,45123,1,8,0:0:0:0:
256,192,45203,1,0,0:0:0:0:
256,192,45283,1,0,0:0:0:0:
256,192,45363,1,8,0:0:0:0:
256,192,45523,1,0,0:0:0:0:
256,192,45603,1,8,0:0:0:0:
256,192,45683,1,0,0:0:0:0:
256,192,45763,1,0,0:0:0:0:
256,192,45843,1,8,0:0:0:0:
256,192,45923,1,0,0:0:0:0:
256,192,46003,1,8,0:0:0:0:
256,192,46083,1,0,0:0:0:0:
256,192,46163,1,8,0:0:0:0:
256,192,46243,1,0,0:0:0:0:
256,192,46323,1,8,0:0:0:0:
256,192,46403,1,8,0:0:0:0:
256,192,46483,1,0,0:0:0:0:
256,192,46563,1,0,0:0:0:0:
256,192,46643,1,8,0:0:0:0:
256,192,46723,1,0,0:0:0:0:
256,192,46803,1,0,0:0:0:0:
256,192,46883,1,0,0:0:0:0:
256,192,46963,1,8,0:0:0:0:
256,192,47043,1,8,0:0:0:0:
256,192,47123,1,0,0:0:0:0:
256,192,47203,1,0,0:0:0:0:
256,192,47283,1,8,0:0:0:0:
256,192,47443,1,0,0:0:0:0:
256,192,47523,1,0,0:0:0:0:
256,192,47603,1,0,0:0:0:0:
256,192,47683,1,0,0:0:0:0:
256,192,47763,1,8,0:0:0:0:
256,192,47843,1,0,0:0:0:0:
256,192,47923,1,8,0:0:0:0:
256,192,48003,1,0,0:0:0:0:
256,192,48083,1,8,0:0:0:0:
256,192,48163,1,0,0:0:0:0:
256,192,48243,1,0,0:0:0:0:
256,192,48323,1,0,0:0:0:0:
256,192,48403,1,8,0:0:0:0:
256,192,48483,1,8,0:0:0:0:
256,192,48563,1,8,0:0:0:0:
256,192,48643,1,0,0:0:0:0:
256,192,48723,1,8,0:0:0:0:
256,192,48803,1,8,0:0:0:0:
256,192,48883,1,8,0:0:0:0:
256,192,48963,1,8,0:0:0:0:
256,192,49043,1,0,0:0:0:0:
256,192,49203,1,12,0:0:0:0:
256,192,49523,1,0,0:0:0:0:
256,192,49683,1,8,0:0:0:0:
256,192,49843,1,0,0:0:0:0:
256,192,50003,1,0,0:0:0:0:
256,192,50163,1,8,0:0:0:0:
256,192,50483,1,0,0:0:0:0:
256,192,50643,1,8,0:0:0:0:
256,192,50803,1,0,0:0:0:0:
256,192,51123,1,8,0:0:0:0:
256,192,51443,1,0,0:0:0:0:
256,192,51603,1,8,0:0:0:0:
256,192,51763,1,8,0:0:0:0:
256,192,51923,1,8,0:0:0:0:
256,192,52083,1,0,0:0:0:0:
256,192,52403,1,0,0:0:0:0:
256,192,52563,1,8,0:0:0:0:
256,192,52723,1,0,0:0:0:0:
256,192,52883,1,8,0:0:0:0:
256,192,52963,1,8,0:0:0:0:
256,192,53043,1,0,0:0:0:0:
256,192,53363,1,0,0:0:0:0:
256,192,53523,1,8,0:0:0:0:
256,192,53683,1,0,0:0:0:0:
256,192,53843,1,0,0:0:0:0:
256,192,53923,1,0,0:0:0:0:
256,192,54003,1,8,0:0:0:0:
256,192,54083,1,8,0:0:0:0:
256,192,54163,1,8,0:0:0:0:
256,192,54243,1,8,0:0:0:0:
256,192,54323,1,0,0:0:0:0:
256,192,54403,1,8,0:0:0:0:
256,192,54483,1,8,0:0:0:0:
256,192,54563,1,8,0:0:0:0:
256,192,54643,1,0,0:0:0:0:
256,192,54723,1,0,0:0:0:0:
256,192,54803,1,8,0:0:0:0:
256,192,54963,1,4,0:0:0:0:
256,192,55123,1,8,0:0:0:0:
256,192,55203,1,0,0:0:0:0:
256,192,55283,1,8,0:0:0:0:
256,192,55363,1,0,0:0:0:0:
256,192,55443,1,8,0:0:0:0:
256,192,55523,1,8,0:0:0:0:
256,192,55603,1,8,0:0:0:0:
256,192,55683,1,0,0:0:0:0:
256,192,55763,1,0,0:0:0:0:
256,192,55843,1,0,0:0:0:0:
256,192,55923,1,8,0:0:0:0:
256,192,56003,1,8,0:0:0:0:
256,192,56083,1,0,0:0:0:0:
256,192,56163,1,0,0:0:0:0:
256,192,56243,1,8,0:0:0:0:
256,192,56323,1,0,0:0:0:0:
256,192,56403,1,8,0:0:0:0:
256,192,56483,1,0,0:0:0:0:
256,192,56563,1,8,0:0:0:0:
256,192,56643,1,8,0:0:0:0:
256,192,56723,1,0,0:0:0:0:
256,192,56803,1,0,0:0:0:0:
256,192,56883,1,8,0:0:0:0:
256,192,56963,1,8,0:0:0:0:
256,192,57043,1,0,0:0:0:0:
256,192,57123,1,8,0:0:0:0:
256,192,57203,1,0,0:0:0:0:
256,192,57283,1,0,0:0:0:0:
256,192,57363,1,8,0:0:0:0:
256,192,57443,1,8,0:0:0:0:
256,192,57523,1,8,0:0:0:0:
256,192,57603,1,8,0:0:0:0:
256,192,57683,1,0,0:0:0:0:
256,192,57763,1,0,0:0:0:0:
256,192,57843,1,8,0:0:0:0:
256,192,57923,1,8,0:0:0:0:
256,192,58003,1,0,0:0:0:0:
256,192,58083,1,0,0:0:0:0:
256,192,58163,1,0,0:0:0:0:
256,192,58243,1,0,0:0:0:0:
256,192,58323,1,8,0:0:0:0:
256,192,58403,1,0,0:0:0:0:
256,192,58483,1,0,0:0:0:0:
256,192,58563,1,0,0:0:0:0:
256,192,58643,1,0,0:0:0:0:
256,192,58803,1,8,0:0:0:0:
256,192,58883,1,8,0:0:0:0:
256,192,58963,1,0,0:0:0:0:
256,192,59043,1,0,0:0:0:0:
256,192,59123,1,0,0:0:0:0:
256,192,59203,1,0,0:0:0:0:
256,192,59283,1,8,0:0:0:0:
256,192,59363,1,8,0:0:0:0:
256,192,59443,1,0,0:0:0:0:
256,192,59523,1,0,0:0:0:0:
256,192,59603,1,0,0:0:0:0:
256,192,59683,1,0,0:0:0:0:
256,192,59763,1,8,0:0:0:0:
256,192,60723,1,12,0:0:0:0:
256,192,61043,1,0,0:0:0:0:
256,192,61203,1,8,0:0:0:0:
256,192,61363,1,8,0:0:0:0:
256,192,61523,1,0,0:0:0:0:
256,192,61683,1,8,0:0:0:0:
256,192,61843,1,0,0:0:0:0:
256,192,62003,1,0,0:0:0:0:
256,192,62163,1,8,0:0:0:0:
256,192,62323,1,8,0:0:0:0:
256,192,62483,1,0,0:0:0:0:
256,192,62643,1,8,0:0:0:0:
256,192,62803,1,8,0:0:0:0:
256,192,62963,1,0,0:0:0:0:
256,192,63123,1,8,0:0:0:0:
256,192,63283,1,0,0:0:0:0:
256,192,63443,1,8,0:0:0:0:
256,192,63603,1,8,0:0:0:0:
256,192,63763,1,0,0:0:0:0:
256,192,63923,1,8,0:0:0:0:
256,192,64083,1,0,0:0:0:0:
256,192,64243,1,0,0:0:0:0:
256,192,64563,1,8,0:0:0:0:
256,192,64723,1,8,0:0:0:0:
256,192,64883,1,0,0:0:0:0:
256,192,65043,1,8,0:0:0:0:
256,192,65203,1,0,0:0:0:0:
256,192,65363,1,0,0:0:0:0:
256,192,65523,1,8,0:0:0:0:
256,192,65683,1,8,0:0:0:0:
256,192,65843,1,0,0:0:0:0:
256,192,66003,1,8,0:0:0:0:
256,192,66163,1,0,0:0:0:0:
256,192,66323,1,8,0:0:0:0:
256,192,66483,1,8,0:0:0:0:
256,192,66643,1,0,0:0:0:0:
256,192,66723,1,0,0:0:0:0:
256,192,66803,1,0,0:0:0:0:
256,192,66963,1,8,0:0:0:0:
256,192,67123,1,0,0:0:0:0:
256,192,67203,1,0,0:0:0:0:
256,192,67283,1,0,0:0:0:0:
256,192,67443,1,8,0:0:0:0:
256,192,67523,1,8,0:0:0:0:
256,192,67603,1,0,0:0:0:0:
256,192,67683,1,0,0:0:0:0:
256,192,67763,1,0,0:0:0:0:
256,192,67843,1,8,0:0:0:0:
256,192,67923,1,8,0:0:0:0:
256,192,68083,1,8,0:0:0:0:
256,192,68163,1,8,0:0:0:0:
256,192,68243,1,8,0:0:0:0:
256,192,68403,1,4,0:0:0:0:
256,192,68723,1,0,0:0:0:0:
256,192,68883,1,8,0:0:0:0:
256,192,69043,1,0,0:0:0:0:
256,192,69203,1,0,0:0:0:0:
256,192,69363,1,8,0:0:0:0:
256,192,69523,1,8,0:0:0:0:
256,192,69683,1,0,0:0:0:0:
256,192,69843,1,8,0:0:0:0:
256,192,70003,1,8,0:0:0:0:
256,192,70163,1,8,0:0:0:0:
256,192,70323,1,0,0:0:0:0:
256,192,70483,1,0,0:0:0:0:
256,192,70643,1,0,0:0:0:0:
256,192,70803,1,8,0:0:0:0:
256,192,70963,1,8,0:0:0:0:
256,192,71123,1,0,0:0:0:0:
256,192,71283,1,8,0:0:0:0:
256,192,71443,1,0,0:0:0:0:
256,192,71603,1,8,0:0:0:0:
256,192,71763,1,0,0:0:0:0:
256,192,71923,1,0,0:0:0:0:
256,192,72243,1,8,0:0:0:0:
256,192,72403,1,8,0:0:0:0:
256,192,72563,1,0,0:0:0:0:
256,192,72723,1,8,0:0:0:0:
256,192,72883,1,0,0:0:0:0:
256,192,73043,1,0,0:0:0:0:
256,192,73203,1,8,0:0:0:0:
256,192,73363,1,0,0:0:0:0:
256,192,73523,1,0,0:0:0:0:
256,192,73683,1,8,0:0:0:0:
256,192,73843,1,8,0:0:0:0:
256,192,74003,1,8,0:0:0:0:
256,192,74163,1,0,0:0:0:0:
256,192,74323,1,8,0:0:0:0:
256,192,74403,1,8,0:0:0:0:
256,192,74483,1,8,0:0:0:0:
256,192,74643,1,0,0:0:0:0:
256,192,74803,1,8,0:0:0:0:
256,192,74883,1,8,0:0:0:0:
256,192,74963,1,8,0:0:0:0:
256,192,75123,1,0,0:0:0:0:
256,192,75203,1,0,0:0:0:0:
256,192,75283,1,8,0:0:0:0:
256,192,75363,1,8,0:0:0:0:
256,192,75443,1,8,0:0:0:0:
256,192,75523,1,0,0:0:0:0:
256,192,75603,1,8,0:0:0:0:
256,192,75763,1,0,0:0:0:0:
256,192,75843,1,0,0:0:0:0:
256,192,75923,1,8,0:0:0:0:
256,192,76083,1,4,0:0:0:0:
256,192,76243,1,0,0:0:0:0:
256,192,76323,1,0,0:0:0:0:
256,192,76403,1,0,0:0:0:0:
256,192,76563,1,8,0:0:0:0:
256,192,76723,1,0,0:0:0:0:
256,192,76803,1,0,0:0:0:0:
256,192,76883,1,8,0:0:0:0:
256,192,77043,1,8,0:0:0:0:
256,192,77203,1,0,0:0:0:0:
256,192,77283,1,0,0:0:0:0:
256,192,77363,1,0,0:0:0:0:
256,192,77523,1,8,0:0:0:0:
256,192,77683,1,0,0:0:0:0:
256,192,77843,1,0,0:0:0:0:
256,192,78003,1,8,0:0:0:0:
256,192,78163,1,0,0:0:0:0:
256,192,78243,1,0,0:0:0:0:
256,192,78323,1,0,0:0:0:0:
256,192,78483,1,8,0:0:0:0:
256,192,78643,1,8,0:0:0:0:
256,192,78723,1,0,0:0:0:0:
256,192,78803,1,0,0:0:0:0:
256,192,78963,1,8,0:0:0:0:
256,192,79283,1,0,0:0:0:0:
256,192,79443,1,8,0:0:0:0:
256,192,79603,1,8,0:0:0:0:
256,192,79923,1,8,0:0:0:0:
256,192,80083,1,0,0:0:0:0:
256,192,80163,1,0,0:0:0:0:
256,192,80243,1,0,0:0:0:0:
256,192,80403,1,8,0:0:0:0:
256,192,80563,1,0,0:0:0:0:
256,192,80643,1,0,0:0:0:0:
256,192,80723,1,8,0:0:0:0:
256,192,80883,1,8,0:0:0:0:
256,192,80963,1,8,0:0:0:0:
256,192,81043,1,0,0:0:0:0:
256,192,81203,1,0,0:0:0:0:
256,192,81283,1,0,0:0:0:0:
256,192,81363,1,8,0:0:0:0:
256,192,81523,1,8,0:0:0:0:
256,192,81683,1,0,0:0:0:0:
256,192,81763,1,0,0:0:0:0:
256,192,81843,1,8,0:0:0:0:
256,192,82323,1,0,0:0:0:0:
256,192,82483,1,0,0:0:0:0:
256,192,82643,1,0,0:0:0:0:
256,192,82803,1,8,0:0:0:0:
256,192,83123,1,0,0:0:0:0:
256,192,83443,1,0,0:0:0:0:
256,192,83763,1,12,0:0:0:0:
256,192,83923,12,0,86403,0:0:0:0:
128,96,86643,6,8,B|224:224|224:224|466:218|466:218|288:64,1,616
256,192,89523,1,8,0:0:0:0:
256,192,90963,1,8,0:0:0:0:
256,192,91283,1,8,0:0:0:0:
256,192,91763,1,8,0:0:0:0:
256,192,92243,1,8,0:0:0:0:
256,192,92883,1,8,0:0:0:0:
256,192,93203,1,0,0:0:0:0:
256,192,93363,1,8,0:0:0:0:
256,192,94163,1,8,0:0:0:0:
256,192,94643,1,0,0:0:0:0:
256,192,95123,1,0,0:0:0:0:
256,192,95283,1,8,0:0:0:0:
256,192,96243,1,8,0:0:0:0:
256,192,96283,1,8,0:0:0:0:
256,192,96403,1,0,0:0:0:0:
256,192,96563,1,0,0:0:0:0:
256,192,96723,1,8,0:0:0:0:
256,192,96883,1,8,0:0:0:0:
256,192,97043,1,0,0:0:0:0:
256,192,97203,1,12,0:0:0:0:
256,192,97683,1,0,0:0:0:0:
256,192,98163,1,8,0:0:0:0:
256,192,98483,1,0,0:0:0:0:
256,192,98643,1,0,0:0:0:0:
256,192,98963,1,0,0:0:0:0:
256,192,99123,1,8,0:0:0:0:
256,192,99443,1,8,0:0:0:0:
256,192,99603,1,0,0:0:0:0:
256,192,99923,1,8,0:0:0:0:
256,192,100083,1,8,0:0:0:0:
256,192,100403,1,0,0:0:0:0:
256,192,100563,1,8,0:0:0:0:
256,192,100723,1,0,0:0:0:0:
256,192,100883,1,8,0:0:0:0:
256,192,101043,1,8,0:0:0:0:
256,192,101523,1,0,0:0:0:0:
256,192,101843,1,8,0:0:0:0:
256,192,102003,1,0,0:0:0:0:
256,192,102323,1,8,0:0:0:0:
256,192,102483,1,0,0:0:0:0:
256,192,102643,1,0,0:0:0:0:
256,192,102803,1,0,0:0:0:0:
256,192,102963,1,8,0:0:0:0:
256,192,103923,1,0,0:0:0:0:
256,192,104083,1,8,0:0:0:0:
256,192,104243,1,8,0:0:0:0:
256,192,104403,1,0,0:0:0:0:
256,192,104483,1,0,0:0:0:0:
256,192,104563,1,8,0:0:0:0:
256,192,104723,1,0,0:0:0:0:
256,192,104883,1,12,0:0:0:0:
256,192,105363,1,0,0:0:0:0:
256,192,105843,1,8,0:0:0:0:
256,192,106163,1,0,0:0:0:0:
256,192,106323,1,0,0:0:0:0:
256,192,106643,1,8,0:0:0:0:
256,192,106803,1,8,0:0:0:0:
256,192,107123,1,0,0:0:0:0:
256,192,107283,1,8,0:0:0:0:
256,192,107603,1,12,0:0:0:0:
256,192,108083,1,0,0:0:0:0:
256,192,108163,1,0,0:0:0:0:
256,192,108243,1,8,0:0:0:0:
256,192,108563,1,8,0:0:0:0:
256,192,109523,1,8,0:0:0:0:
256,192,109603,1,8,0:0:0:0:
256,192,109683,1,8,0:0:0:0:
256,192,110163,1,8,0:0:0:0:
256,192,110643,1,4,0:0:0:0:
256,192,110803,1,0,0:0:0:0:
256,192,110963,1,0,0:0:0:0:
256,192,111123,1,8,0:0:0:0:
256,192,111283,1,0,0:0:0:0:
256,192,111363,1,0,0:0:0:0:
256,192,111443,1,0,0:0:0:0:
256,192,111523,1,0,0:0:0:0:
256,192,111603,1,8,0:0:0:0:
256,192,112083,1,0,0:0:0:0:
256,192,112563,1,12,0:0:0:0:
256,192,112883,1,0,0:0:0:0:
256,192,113043,1,8,0:0:0:0:
256,192,113363,1,0,0:0:0:0:
256,192,113523,1,8,0:0:0:0:
256,192,113843,1,8,0:0:0:0:
256,192,114003,1,0,0:0:0:0:
256,192,114323,1,0,0:0:0:0:
256,192,114483,1,8,0:0:0:0:
256,192,114803,1,8,0:0:0:0:
256,192,114963,1,0,0:0:0:0:
256,192,115123,1,0,0:0:0:0:
256,192,115283,1,8,0:0:0:0:
256,192,115443,1,8,0:0:0:0:
256,192,115763,1,0,0:0:0:0:
256,192,115923,1,8,0:0:0:0:
256,192,116243,1,8,0:0:0:0:
256,192,116403,1,8,0:0:0:0:
256,192,116723,1,0,0:0:0:0:
256,192,116803,1,0,0:0:0:0:
256,192,116883,1,0,0:0:0:0:
256,192,117203,1,8,0:0:0:0:
256,192,117363,1,0,0:0:0:0:
256,192,117683,1,8,0:0:0:0:
256,192,117843,1,0,0:0:0:0:
256,192,118003,1,0,0:0:0:0:
256,192,118163,1,8,0:0:0:0:
256,192,118323,1,12,0:0:0:0:
256,192,119283,1,8,0:0:0:0:
256,192,119443,1,0,0:0:0:0:
256,192,119523,1,0,0:0:0:0:
256,192,119603,1,0,0:0:0:0:
256,192,119763,1,8,0:0:0:0:
256,192,119923,1,0,0:0:0:0:
256,192,120083,1,8,0:0:0:0:
256,192,120243,1,12,0:0:0:0:
256,192,120563,1,0,0:0:0:0:
256,192,120723,1,8,0:0:0:0:
256,192,120883,1,0,0:0:0:0:
256,192,120963,1,0,0:0:0:0:
256,192,121043,1,0,0:0:0:0:
256,192,121203,1,8,0:0:0:0:
256,192,121363,1,0,0:0:0:0:
256,192,121523,1,8,0:0:0:0:
256,192,122003,1,0,0:0:0:0:
256,192,122163,1,12,0:0:0:0:
256,192,122643,1,8,0:0:0:0:
256,192,122963,1,8,0:0:0:0:
256,192,123123,1,0,0:0:0:0:
256,192,123283,1,0,0:0:0:0:
256,192,123443,1,0,0:0:0:0:
256,192,123603,1,8,0:0:0:0:
256,192,123763,1,0,0:0:0:0:
256,192,123843,1,0,0:0:0:0:
256,192,123923,1,8,0:0:0:0:
256,192,124083,1,12,0:0:0:0:
256,192,124563,1,8,0:0:0:0:
256,192,124883,1,0,0:0:0:0:
256,192,125043,1,8,0:0:0:0:
256,192,125523,1,0,0:0:0:0:
256,192,125843,1,0,0:0:0:0:
256,192,126003,1,12,0:0:0:0:
256,192,126483,1,12,0:0:0:0:
256,192,126963,1,4,0:0:0:0:
256,192,127923,1,12,0:0:0:0:
256,192,128403,1,0,0:0:0:0:
256,192,128563,1,0,0:0:0:0:
256,192,128723,1,0,0:0:0:0:
256,192,128883,1,8,0:0:0:0:
256,192,129203,1,0,0:0:0:0:
256,192,129363,1,8,0:0:0:0:
256,192,129683,1,12,0:0:0:0:
256,192,129843,12,0,130643,0:0:0:0:
256,192,130803,5,0,0:0:0:0:
256,192,130923,1,0,0:0:0:0:
256,192,131043,1,8,0:0:0:0:
256,192,131163,1,8,0:0:0:0:
256,192,131283,1,0,0:0:0:0:
256,192,131523,1,0,0:0:0:0:
256,192,131763,1,12,0:0:0:0:
256,192,132003,1,0,0:0:0:0:
256,192,132123,1,0,0:0:0:0:
256,192,132243,1,12,0:0:0:0:
256,192,132483,1,12,0:0:0:0:
256,192,132723,1,0,0:0:0:0:
256,192,133083,1,8,0:0:0:0:
256,192,133143,1,8,0:0:0:0:
256,192,133203,1,8,0:0:0:0:
256,192,133323,1,0,0:0:0:0:
256,192,133443,1,8,0:0:0:0:
256,192,133683,1,0,0:0:0:0:
256,192,133803,1,8,0:0:0:0:
256,192,133923,1,8,0:0:0:0:
256,192,134163,1,0,0:0:0:0:
256,192,134283,1,8,0:0:0:0:
256,192,134343,1,8,0:0:0:0:
256,192,134403,1,8,0:0:0:0:
256,192,134643,1,0,0:0:0:0:
256,192,134763,1,0,0:0:0:0:
256,192,134883,1,8,0:0:0:0:
256,192,135003,1,0,0:0:0:0:
256,192,135063,1,0,0:0:0:0:
256,192,135123,1,8,0:0:0:0:
256,192,135243,1,8,0:0:0:0:
256,192,135363,1,0,0:0:0:0:
256,192,135483,1,0,0:0:0:0:
256,192,135603,1,12,0:0:0:0:
256,192,135963,1,8,0:0:0:0:
256,192,136083,1,0,0:0:0:0:
256,192,136323,1,8,0:0:0:0:
256,192,136803,1,8,0:0:0:0:
256,192,137283,1,8,0:0:0:0:
256,192,137403,1,8,0:0:0:0:
256,192,137523,1,0,0:0:0:0:
256,192,137643,1,0,0:0:0:0:
256,192,137763,1,8,0:0:0:0:
256,192,137883,1,0,0:0:0:0:
256,192,138003,1,8,0:0:0:0:
256,192,138243,1,8,0:0:0:0:
256,192,138483,1,0,0:0:0:0:
256,192,138843,1,0,0:0:0:0:
256,192,138963,1,8,0:0:0:0:
256,192,139083,1,8,0:0:0:0:
256,192,139203,1,8,0:0:0:0:
256,192,139323,1,0,0:0:0:0:
256,192,139443,1,8,0:0:0:0:
256,192,139683,1,8,0:0:0:0:
256,192,139723,1,8,0:0:0:0:
256,192,139803,1,0,0:0:0:0:
256,192,139923,1,8,0:0:0:0:
256,192,140163,1,8,0:0:0:0:
256,192,140403,1,0,0:0:0:0:
256,192,140763,1,8,0:0:0:0:
256,192,140823,1,8,0:0:0:0:
256,192,140883,1,8,0:0:0:0:
256,192,141003,1,0,0:0:0:0:
256,192,141123,1,8,0:0:0:0:
256,192,141363,1,0,0:0:0:0:
256,192,141483,1,8,0:0:0:0:
256,192,141603,1,8,0:0:0:0:
256,192,141843,1,0,0:0:0:0:
256,192,141963,1,8,0:0:0:0:
256,192,142023,1,8,0:0:0:0:
256,192,142083,1,8,0:0:0:0:
256,192,142323,1,0,0:0:0:0:
256,192,142443,1,0,0:0:0:0:
256,192,142563,1,8,0:0:0:0:
256,192,142683,1,0,0:0:0:0:
256,192,142803,1,8,0:0:0:0:
256,192,143043,1,8,0:0:0:0:
256,192,143283,1,0,0:0:0:0:
256,192,143763,1,0,0:0:0:0:
256,192,144003,1,8,0:0:0:0:
256,192,144483,1,8,0:0:0:0:
256,192,144963,1,8,0:0:0:0:
256,192,145203,1,0,0:0:0:0:
256,192,145323,1,0,0:0:0:0:
256,192,145383,1,0,0:0:0:0:
256,192,145443,1,0,0:0:0:0:
256,192,145563,1,8,0:0:0:0:
256,192,145683,1,0,0:0:0:0:
256,192,145743,1,0,0:0:0:0:
256,192,145803,1,0,0:0:0:0:
256,192,145923,1,8,0:0:0:0:
256,192,146043,1,8,0:0:0:0:
256,192,146403,1,8,0:0:0:0:
256,192,146463,1,8,0:0:0:0:
256,192,146523,1,0,0:0:0:0:
256,192,146583,1,0,0:0:0:0:
256,192,146643,1,8,0:0:0:0:
256,192,147123,1,12,0:0:0:0:
256,192,147363,1,0,0:0:0:0:
256,192,147603,1,8,0:0:0:0:
256,192,147723,1,0,0:0:0:0:
256,192,147843,1,8,0:0:0:0:
256,192,147963,1,8,0:0:0:0:
256,192,148083,1,8,0:0:0:0:
256,192,148323,1,0,0:0:0:0:
256,192,148443,1,8,0:0:0:0:
256,192,148563,1,8,0:0:0:0:
256,192,148683,1,0,0:0:0:0:
256,192,148803,1,0,0:0:0:0:
256,192,148923,1,0,0:0:0:0:
256,192,149043,1,12,0:0:0:0:
256,192,149403,1,0,0:0:0:0:
256,192,149463,1,0,0:0:0:0:
256,192,149523,1,8,0:0:0:0:
256,192,149643,1,0,0:0:0:0:
256,192,149763,1,8,0:0:0:0:
256,192,150003,1,8,0:0:0:0:
256,192,150243,1,8,0:0:0:0:
256,192,150363,1,0,0:0:0:0:
256,192,150483,1,8,0:0:0:0:
256,192,150603,1,0,0:0:0:0:
256,192,150723,1,8,0:0:0:0:
256,192,150843,1,8,0:0:0:0:
256,192,150963,1,4,0:0:0:0:
256,192,151203,1,0,0:0:0:0:
256,192,151323,1,0,0:0:0:0:
256,192,151383,1,0,0:0:0:0:
256,192,151443,1,8,0:0:0:0:
256,192,151563,1,8,0:0:0:0:
256,192,151683,1,0,0:0:0:0:
256,192,151803,1,0,0:0:0:0:
256,192,151923,1,8,0:0:0:0:
256,192,152043,1,8,0:0:0:0:
256,192,152163,1,0,0:0:0:0:
256,192,152283,1,8,0:0:0:0:
256,192,152343,1,8,0:0:0:0:
256,192,152403,1,8,0:0:0:0:
256,192,152523,1,0,0:0:0:0:
256,192,152643,1,8,0:0:0:0:
256,192,152683,1,8,0:0:0:0:
256,192,152883,1,4,0:0:0:0:
256,192,153243,1,0,0:0:0:0:
256,192,153303,1,0,0:0:0:0:
256,192,153363,1,0,0:0:0:0:
256,192,153603,1,12,0:0:0:0:
256,192,153843,1,8,0:0:0:0:
256,192,154083,1,0,0:0:0:0:
256,192,154203,1,0,0:0:0:0:
256,192,154323,1,8,0:0:0:0:
256,192,154443,1,0,0:0:0:0:
256,192,154563,1,8,0:0:0:0:
256,192,154683,1,8,0:0:0:0:
256,192,154803,1,0,0:0:0:0:
256,192,154923,1,8,0:0:0:0:
256,192,155163,1,8,0:0:0:0:
256,192,155223,1,8,0:0:0:0:
256,192,155283,1,0,0:0:0:0:
256,192,155403,1,0,0:0:0:0:
256,192,155523,1,8,0:0:0:0:
256,192,155643,1,0,0:0:0:0:
256,192,155763,1,8,0:0:0:0:
256,192,155883,1,8,0:0:0:0:
256,192,156003,1,0,0:0:0:0:
256,192,156123,1,8,0:0:0:0:
256,192,156183,1,8,0:0:0:0:
256,192,156243,1,8,0:0:0:0:
256,192,156363,1,0,0:0:0:0:
256,192,156483,1,0,0:0:0:0:
256,192,156603,1,0,0:0:0:0:
256,192,156723,1,12,0:0:0:0:
256,192,156963,1,0,0:0:0:0:
256,192,157083,1,0,0:0:0:0:
256,192,157203,1,8,0:0:0:0:
256,192,157323,1,8,0:0:0:0:
256,192,157443,1,0,0:0:0:0:
256,192,157923,1,8,0:0:0:0:
256,192,158163,1,8,0:0:0:0:
256,192,158403,1,0,0:0:0:0:
256,192,158643,1,8,0:0:0:0:
256,192,158883,1,0,0:0:0:0:
256,192,159003,1,0,0:0:0:0:
256,192,159123,1,8,0:0:0:0:
256,192,159243,1,8,0:0:0:0:
256,192,159303,1,8,0:0:0:0:
256,192,159363,1,0,0:0:0:0:
256,192,159483,1,0,0:0:0:0:
256,192,159603,1,12,0:0:0:0:
256,192,159843,1,0,0:0:0:0:
256,192,159903,1,0,0:0:0:0:
256,192,159963,1,8,0:0:0:0:
256,192,160083,1,0,0:0:0:0:
256,192,160203,1,0,0:0:0:0:
256,192,160323,1,12,0:0:0:0:
256,192,160803,1,0,0:0:0:0:
256,192,160923,1,0,0:0:0:0:
256,192,161043,1,8,0:0:0:0:
256,192,161163,1,0,0:0:0:0:
256,192,161223,1,0,0:0:0:0:
256,192,161283,1,0,0:0:0:0:
256,192,161403,1,8,0:0:0:0:
256,192,161523,1,0,0:0:0:0:
256,192,161643,1,0,0:0:0:0:
256,192,161763,1,8,0:0:0:0:
256,192,161883,1,0,0:0:0:0:
256,192,161943,1,8,0:0:0:0:
256,192,162003,1,8,0:0:0:0:
256,192,162123,1,8,0:0:0:0:
256,192,162243,1,0,0:0:0:0:
256,192,162303,1,0,0:0:0:0:
256,192,162363,1,0,0:0:0:0:
256,192,162483,1,12,0:0:0:0:
256,192,162723,1,0,0:0:0:0:
256,192,162783,1,0,0:0:0:0:
256,192,162843,1,8,0:0:0:0:
256,192,162963,1,0,0:0:0:0:
256,192,163083,1,8,0:0:0:0:
256,192,163323,1,0,0:0:0:0:
256,192,163443,1,0,0:0:0:0:
256,192,163563,1,8,0:0:0:0:
256,192,163683,1,4,0:0:0:0:
256,192,164133,1,8,0:0:0:0:
256,192,164208,1,8,0:0:0:0:
256,192,164283,1,8,0:0:0:0:
256,192,164433,1,8,0:0:0:0:
256,192,164583,1,8,0:0:0:0:
256,192,164733,1,0,0:0:0:0:
256,192,164883,1,8,0:0:0:0:
256,192,165183,1,0,0:0:0:0:
256,192,165333,1,0,0:0:0:0:
256,192,165483,1,8,0:0:0:0:
256,192,165783,1,0,0:0:0:0:
256,192,165933,1,8,0:0:0:0:
256,192,166083,1,8,0:0:0:0:
256,192,166383,1,0,0:0:0:0:
256,192,166533,1,8,0:0:0:0:
256,192,166608,1,8,0:0:0:0:
256,192,166683,1,8,0:0:0:0:
256,192,166833,1,0,0:0:0:0:
256,192,166983,1,0,0:0:0:0:
256,192,167133,1,0,0:0:0:0:
256,192,167283,1,8,0:0:0:0:
256,192,167883,1,0,0:0:0:0:
256,192,168033,12,0,170133,0:0:0:0:
256,192,170283,5,12,0:0:0:0:
256,192,170583,1,0,0:0:0:0:
256,192,170733,1,0,0:0:0:0:
256,192,171183,1,0,0:0:0:0:
256,192,171483,1,0,0:0:0:0:
256,192,171633,1,8,0:0:0:0:
256,192,171933,1,0,0:0:0:0:
256,192,172383,1,0,0:0:0:0:
256,192,172533,1,0,0:0:0:0:
256,192,172983,1,8,0:0:0:0:
256,192,173283,1,0,0:0:0:0:
256,192,173433,1,0,0:0:0:0:
256,192,173883,1,8,0:0:0:0:
256,192,174183,1,0,0:0:0:0:
256,192,174333,1,0,0:0:0:0:
256,192,174483,1,8,0:0:0:0:
256,192,174783,1,0,0:0:0:0:
256,192,174933,1,8,0:0:0:0:
256,192,175383,1,8,0:0:0:0:
256,192,175683,1,0,0:0:0:0:
256,192,175833,1,0,0:0:0:0:
256,192,176133,1,8,0:0:0:0:
256,192,176583,1,0,0:0:0:0:
256,192,176733,1,0,0:0:0:0:
256,192,177183,1,8,0:0:0:0:
256,192,177483,1,8,0:0:0:0:
256,192,177633,1,0,0:0:0:0:
256,192,178083,1,8,0:0:0:0:
256,192,178383,1,0,0:0:0:0:
256,192,178458,1,0,0:0:0:0:
256,192,178533,1,0,0:0:0:0:
256,192,178608,1,0,0:0:0:0:
256,192,178683,1,8,0:0:0:0:
256,192,178883,1,0,0:0:0:0:
256,192,178933,1,0,0:0:0:0:
256,192,179083,1,0,0:0:0:0:
256,192,179133,1,0,0:0:0:0:
256,192,179283,1,8,0:0:0:0:
256,192,179333,1,8,0:0:0:0:
256,192,179583,1,0,0:0:0:0:
256,192,179733,1,0,0:0:0:0:
256,192,180183,1,8,0:0:0:0:
256,192,180483,1,0,0:0:0:0:
256,192,180633,1,8,0:0:0:0:
256,192,180933,1,8,0:0:0:0:
256,192,181083,1,0,0:0:0:0:
256,192,181383,1,8,0:0:0:0:
256,192,181533,1,8,0:0:0:0:
256,192,181683,1,0,0:0:0:0:
256,192,181983,1,8,0:0:0:0:
256,192,182283,1,0,0:0:0:0:
256,192,182433,1,8,0:0:0:0:
256,192,182883,1,0,0:0:0:0:
256,192,183183,1,8,0:0:0:0:
256,192,183333,1,8,0:0:0:0:
256,192,183483,1,0,0:0:0:0:
256,192,183783,1,8,0:0:0:0:
256,192,183933,1,8,0:0:0:0:
256,192,184383,1,0,0:0:0:0:
256,192,184683,1,8,0:0:0:0:
256,192,184833,1,0,0:0:0:0:
256,192,185133,1,8,0:0:0:0:
256,192,185283,1,0,0:0:0:0:
256,192,185583,1,8,0:0:0:0:
256,192,185733,1,8,0:0:0:0:
256,192,185883,1,0,0:0:0:0:
256,192,186183,1,8,0:0:0:0:
256,192,186483,1,0,0:0:0:0:
256,192,186633,1,8,0:0:0:0:
256,192,187083,1,4,0:0:0:0:
256,192,187283,1,0,0:0:0:0:
256,192,187483,1,0,0:0:0:0:
256,192,187683,1,8,0:0:0:0:
256,192,188283,1,4,0:0:0:0:
256,192,188583,1,8,0:0:0:0:
256,192,188733,1,8,0:0:0:0:
256,192,188883,1,0,0:0:0:0:
256,192,189183,1,8,0:0:0:0:
256,192,189483,1,0,0:0:0:0:
256,192,189633,1,0,0:0:0:0:
256,192,189933,1,8,0:0:0:0:
256,192,190083,1,0,0:0:0:0:
256,192,190383,1,8,0:0:0:0:
256,192,190533,1,8,0:0:0:0:
256,192,190683,1,0,0:0:0:0:
256,192,190983,1,8,0:0:0:0:
256,192,191283,1,8,0:0:0:0:
256,192,191433,1,0,0:0:0:0:
256,192,191883,1,8,0:0:0:0:
256,192,192183,1,0,0:0:0:0:
256,192,192333,1,0,0:0:0:0:
256,192,192483,1,8,0:0:0:0:
256,192,192783,1,0,0:0:0:0:
256,192,192933,1,8,0:0:0:0:
256,192,193083,1,0,0:0:0:0:
256,192,193383,1,8,0:0:0:0:
256,192,193683,1,8,0:0:0:0:
256,192,193833,1,8,0:0:0:0:
256,192,194133,1,8,0:0:0:0:
256,192,194283,1,0,0:0:0:0:
256,192,194583,1,0,0:0:0:0:
256,192,194733,1,8,0:0:0:0:
256,192,194883,1,0,0:0:0:0:
256,192,195183,1,8,0:0:0:0:
256,192,195483,1,0,0:0:0:0:
256,192,195633,1,0,0:0:0:0:
256,192,195783,1,8,0:0:0:0:
256,192,195933,1,8,0:0:0:0:
256,192,196008,1,8,0:0:0:0:
256,192,196083,1,0,0:0:0:0:
256,192,196383,1,0,0:0:0:0:
256,192,196458,1,0,0:0:0:0:
256,192,196533,1,0,0:0:0:0:
256,192,196608,1,0,0:0:0:0:
256,192,196683,1,8,0:0:0:0:
256,192,196883,1,0,0:0:0:0:
256,192,196933,1,0,0:0:0:0:
256,192,197083,1,0,0:0:0:0:
256,192,197133,1,0,0:0:0:0:
256,192,197283,1,8,0:0:0:0:
256,192,197333,1,8,0:0:0:0:
256,192,197583,1,0,0:0:0:0:
256,192,197733,1,0,0:0:0:0:
256,192,197883,1,8,0:0:0:0:
256,192,198183,1,0,0:0:0:0:
256,192,198483,1,8,0:0:0:0:
256,192,198633,1,0,0:0:0:0:
256,192,198933,1,0,0:0:0:0:
256,192,199083,1,8,0:0:0:0:
256,192,199383,1,0,0:0:0:0:
256,192,199533,1,0,0:0:0:0:
256,192,199683,1,8,0:0:0:0:
256,192,199983,1,0,0:0:0:0:
256,192,200283,1,8,0:0:0:0:
256,192,200433,1,0,0:0:0:0:
256,192,200883,1,8,0:0:0:0:
256,192,201183,1,0,0:0:0:0:
256,192,201333,1,8,0:0:0:0:
256,192,201483,1,8,0:0:0:0:
256,192,201783,1,8,0:0:0:0:
256,192,201933,1,8,0:0:0:0:
256,192,202083,1,0,0:0:0:0:
256,192,202383,1,8,0:0:0:0:
256,192,202683,1,0,0:0:0:0:
256,192,202833,1,0,0:0:0:0:
256,192,202983,1,8,0:0:0:0:
256,192,203133,1,0,0:0:0:0:
256,192,203283,1,8,0:0:0:0:
256,192,203583,1,0,0:0:0:0:
256,192,203733,1,0,0:0:0:0:
256,192,203883,1,0,0:0:0:0:
256,192,204183,1,8,0:0:0:0:
256,192,204483,1,8,0:0:0:0:
256,192,204783,1,8,0:0:0:0:
256,192,205083,1,12,0:0:0:0:
256,192,205283,1,0,0:0:0:0:
256,192,205483,1,0,0:0:0:0:
256,192,205683,1,8,0:0:0:0:
256,192,206283,1,4,0:0:0:0:
256,192,206583,1,0,0:0:0:0:
256,192,206733,1,8,0:0:0:0:
256,192,206883,1,0,0:0:0:0:
256,192,207033,1,0,0:0:0:0:
256,192,207183,1,8,0:0:0:0:
256,192,207483,1,0,0:0:0:0:
256,192,207633,1,0,0:0:0:0:
256,192,207783,1,8,0:0:0:0:
256,192,208083,1,8,0:0:0:0:
256,192,208383,1,0,0:0:0:0:
256,192,208533,1,0,0:0:0:0:
256,192,208683,1,8,0:0:0:0:
256,192,208983,1,0,0:0:0:0:
256,192,209133,1,8,0:0:0:0:
256,192,209283,1,0,0:0:0:0:
256,192,209433,1,0,0:0:0:0:
256,192,209733,1,0,0:0:0:0:
256,192,209883,1,8,0:0:0:0:
256,192,210183,1,8,0:0:0:0:
256,192,210333,1,8,0:0:0:0:
256,192,210483,1,0,0:0:0:0:
256,192,210783,1,8,0:0:0:0:
256,192,210933,1,0,0:0:0:0:
256,192,211083,1,8,0:0:0:0:
256,192,211383,1,0,0:0:0:0:
256,192,211533,1,0,0:0:0:0:
256,192,211683,1,8,0:0:0:0:
256,192,211833,1,8,0:0:0:0:
256,192,212133,1,8,0:0:0:0:
256,192,212283,1,0,0:0:0:0:
256,192,212433,1,0,0:0:0:0:
256,192,212583,1,8,0:0:0:0:
256,192,212733,1,0,0:0:0:0:
256,192,212883,1,8,0:0:0:0:
256,192,213183,1,0,0:0:0:0:
256,192,213333,1,0,0:0:0:0:
256,192,213408,1,0,0:0:0:0:
256,192,213483,1,8,0:0:0:0:
256,192,213633,1,0,0:0:0:0:
256,192,213783,1,8,0:0:0:0:
256,192,213933,1,0,0:0:0:0:
256,192,214083,1,8,0:0:0:0:
256,192,214533,1,8,0:0:0:0:
256,192,214608,1,8,0:0:0:0:
256,192,214683,1,0,0:0:0:0:
256,192,214883,1,8,0:0:0:0:
256,192,214933,1,8,0:0:0:0:
256,192,215083,1,0,0:0:0:0:
256,192,215133,1,0,0:0:0:0:
256,192,215283,1,12,0:0:0:0:
256,192,215583,1,0,0:0:0:0:
256,192,215733,1,8,0:0:0:0:
256,192,215883,1,0,0:0:0:0:
256,192,216033,1,0,0:0:0:0:
256,192,216183,1,8,0:0:0:0:
256,192,216483,1,8,0:0:0:0:
256,192,216633,1,8,0:0:0:0:
256,192,216783,1,0,0:0:0:0:
256,192,216933,1,0,0:0:0:0:
256,192,217083,1,8,0:0:0:0:
256,192,217383,1,0,0:0:0:0:
256,192,217533,1,0,0:0:0:0:
256,192,217683,1,8,0:0:0:0:
256,192,217983,1,0,0:0:0:0:
256,192,218133,1,8,0:0:0:0:
256,192,218208,1,8,0:0:0:0:
256,192,218283,1,0,0:0:0:0:
256,192,218433,1,8,0:0:0:0:
256,192,218733,1,8,0:0:0:0:
256,192,218883,1,0,0:0:0:0:
256,192,219183,1,0,0:0:0:0:
256,192,219333,1,0,0:0:0:0:
256,192,219483,1,8,0:0:0:0:
256,192,219783,1,0,0:0:0:0:
256,192,219933,1,8,0:0:0:0:
256,192,220083,1,0,0:0:0:0:
256,192,220233,1,0,0:0:0:0:
256,192,220383,1,8,0:0:0:0:
256,192,220683,1,0,0:0:0:0:
256,192,220833,1,0,0:0:0:0:
256,192,221133,1,0,0:0:0:0:
256,192,221283,1,8,0:0:0:0:
256,192,221433,1,0,0:0:0:0:
256,192,221583,1,0,0:0:0:0:
256,192,221733,1,0,0:0:0:0:
256,192,221883,1,8,0:0:0:0:
256,192,222183,1,8,0:0:0:0:
256,192,222333,1,8,0:0:0:0:
256,192,222408,1,8,0:0:0:0:
256,192,222483,1,0,0:0:0:0:
256,192,222633,1,0,0:0:0:0:
256,192,222783,1,8,0:0:0:0:
256,192,222933,1,0,0:0:0:0:
256,192,223083,1,12,0:0:0:0:
256,192,223383,1,0,0:0:0:0:
256,192,223683,1,12,0:0:0:0:
256,192,223983,1,8,0:0:0:0:
256,192,224283,1,4,0:0:0:0:
256,192,224733,1,0,0:0:0:0:
256,192,224883,1,8,0:0:0:0:
256,192,225033,1,8,0:0:0:0:
256,192,225183,1,0,0:0:0:0:
256,192,225483,1,8,0:0:0:0:
256,192,225633,1,8,0:0:0:0:
256,192,225783,1,0,0:0:0:0:
256,192,225933,1,0,0:0:0:0:
256,192,226083,1,8,0:0:0:0:
256,192,226383,1,0,0:0:0:0:
256,192,226533,1,0,0:0:0:0:
256,192,226683,1,8,0:0:0:0:
256,192,226983,1,0,0:0:0:0:
256,192,227133,1,8,0:0:0:0:
256,192,227283,1,8,0:0:0:0:
256,192,227433,1,0,0:0:0:0:
256,192,227733,1,0,0:0:0:0:
256,192,227883,1,8,0:0:0:0:
256,192,228183,1,0,0:0:0:0:
256,192,228333,1,0,0:0:0:0:
256,192,228483,1,8,0:0:0:0:
256,192,228783,1,8,0:0:0:0:
256,192,228933,1,8,0:0:0:0:
256,192,229083,1,0,0:0:0:0:
256,192,229233,1,8,0:0:0:0:
256,192,229383,1,0,0:0:0:0:
256,192,229683,1,8,0:0:0:0:
256,192,229833,1,8,0:0:0:0:
256,192,229983,1,0,0:0:0:0:
256,192,230133,1,0,0:0:0:0:
256,192,230283,1,8,0:0:0:0:
256,192,230583,1,0,0:0:0:0:
256,192,230733,1,8,0:0:0:0:
256,192,230883,1,8,0:0:0:0:
256,192,231183,1,0,0:0:0:0:
256,192,231333,1,0,0:0:0:0:
256,192,231408,1,0,0:0:0:0:
256,192,231483,1,8,0:0:0:0:
256,192,231633,1,8,0:0:0:0:
256,192,231783,1,8,0:0:0:0:
256,192,231933,1,0,0:0:0:0:
256,192,232083,1,12,0:0:0:0:
256,192,232383,1,0,0:0:0:0:
256,192,232458,1,0,0:0:0:0:
256,192,232533,1,8,0:0:0:0:
256,192,232608,1,8,0:0:0:0:
256,192,232683,1,0,0:0:0:0:
256,192,232883,1,8,0:0:0:0:
256,192,232933,1,8,0:0:0:0:
256,192,233083,1,0,0:0:0:0:
256,192,233133,1,0,0:0:0:0:
256,192,233283,1,12,0:0:0:0:
256,192,233583,1,0,0:0:0:0:
256,192,233733,1,8,0:0:0:0:
256,192,233883,1,8,0:0:0:0:
256,192,234033,1,0,0:0:0:0:
256,192,234183,1,8,0:0:0:0:
256,192,234483,1,0,0:0:0:0:
256,192,234633,1,0,0:0:0:0:
256,192,234783,1,8,0:0:0:0:
256,192,234933,1,8,0:0:0:0:
256,192,235083,1,0,0:0:0:0:
256,192,235383,1,8,0:0:0:0:
256,192,235533,1,8,0:0:0:0:
256,192,235683,1,0,0:0:0:0:
256,192,235983,1,8,0:0:0:0:
256,192,236133,1,0,0:0:0:0:
256,192,236283,1,8,0:0:0:0:
256,192,236433,1,8,0:0:0:0:
256,192,236733,1,0,0:0:0:0:
256,192,236883,1,8,0:0:0:0:
256,192,237183,1,0,0:0:0:0:
256,192,237333,1,0,0:0:0:0:
256,192,237483,1,8,0:0:0:0:
256,192,237783,1,0,0:0:0:0:
256,192,237933,1,0,0:0:0:0:
256,192,238083,1,8,0:0:0:0:
256,192,238233,1,8,0:0:0:0:
256,192,238383,1,8,0:0:0:0:
256,192,238683,1,0,0:0:0:0:
256,192,238833,1,8,0:0:0:0:
256,192,238983,1,0,0:0:0:0:
256,192,239133,1,8,0:0:0:0:
256,192,239283,1,8,0:0:0:0:
256,192,239433,1,0,0:0:0:0:
256,192,239583,1,0,0:0:0:0:
256,192,239733,1,0,0:0:0:0:
256,192,239883,1,8,0:0:0:0:
256,192,240183,1,0,0:0:0:0:
256,192,240333,1,0,0:0:0:0:
256,192,240483,1,8,0:0:0:0:
256,192,240633,1,8,0:0:0:0:
256,192,240783,1,8,0:0:0:0:
256,192,240933,1,8,0:0:0:0:
256,192,241083,1,4,0:0:0:0:
256,192,241383,1,0,0:0:0:0:
256,192,241683,1,12,0:0:0:0:
256,192,241983,1,0,0:0:0:0:
256,192,242283,1,12,0:0:0:0:
256,192,243783,1,0,0:0:0:0:
256,192,243858,1,0,0:0:0:0:
256,192,243933,1,0,0:0:0:0:
256,192,244008,1,0,0:0:0:0:
256,192,244083,1,0,0:0:0:0:
256,192,244158,1,0,0:0:0:0:
256,192,244233,1,0,0:0:0:0:
256,192,244308,1,0,0:0:0:0:
256,192,244383,1,0,0:0:0:0:
256,192,244458,1,0,0:0:0:0:
256,192,244533,1,0,0:0:0:0:
256,192,244608,1,0,0:0:0:0:
256,192,244683,1,12,0:0:0:0:
256,192,247083,1,4,0:0:0:0:
256,192,247683,1,0,0:0:0:0:
256,192,248283,1,0,0:0:0:0:
256,192,248883,1,0,0:0:0:0:
256,192,249483,1,12,0:0:0:0:
256,192,250083,1,8,0:0:0:0:
256,192,250683,1,8,0:0:0:0:
256,192,251283,1,0,0:0:0:0:
256,192,251583,1,0,0:0:0:0:
256,192,251883,1,12,0:0:0:0:
256,192,254283,1,4,0:0:0:0:
256,192,254883,1,8,0:0:0:0:
256,192,255483,1,8,0:0:0:0:
256,192,256083,1,0,0:0:0:0:
256,192,256683,1,12,0:0:0:0:
256,192,261483,5,8,0:0:0:0:
256,192,262083,1,8,0:0:0:0:
256,192,262683,1,0,0:0:0:0:
256,192,263283,1,0,0:0:0:0:
256,192,266133,1,0,0:0:0:0:
256,192,266283,1,8,0:0:0:0:
256,192,266583,1,8,0:0:0:0:
256,192,266883,1,0,0:0:0:0:
256,192,271083,1,8,0:0:0:0:
256,192,271683,1,8,0:0:0:0:
256,192,272283,1,0,0:0:0:0:
256,192,275883,1,0,0:0:0:0:
256,192,276483,1,0,0:0:0:0:
256,192,277083,1,8,0:0:0:0:
256,192,277683,1,8,0:0:0:0:
256,192,278283,1,0,0:0:0:0:
256,192,278883,1,0,0:0:0:0:
256,192,279183,1,8,0:0:0:0:
256,192,279258,1,8,0:0:0:0:
256,192,279333,1,0,0:0:0:0:
256,192,279483,1,8,0:0:0:0:
256,192,279683,1,0,0:0:0:0:
256,192,279883,1,0,0:0:0:0:
256,192,280083,1,8,0:0:0:0:
256,192,280683,1,12,0:0:0:0:
256,192,281283,1,8,0:0:0:0:
256,192,281583,1,8,0:0:0:0:
256,192,281883,1,0,0:0:0:0:
256,192,282383,1,8,0:0:0:0:
256,192,282683,1,0,0:0:0:0:
256,192,283083,1,8,0:0:0:0:
256,192,285483,1,4,0:0:0:0:
256,192,286383,1,0,0:0:0:0:
256,192,286683,1,8,0:0:0:0:
256,192,287283,1,0,0:0:0:0:
256,192,287883,1,8,0:0:0:0:
256,192,288183,1,8,0:0:0:0:
256,192,289683,1,0,0:0:0:0:
256,192,289983,1,0,0:0:0:0:
256,192,290283,1,12,0:0:0:0:
256,192,290883,1,0,0:0:0:0:
256,192,291483,1,8,0:0:0:0:
256,192,292083,1,0,0:0:0:0:
256,192,292683,1,8,0:0:0:0:
256,192,292983,1,8,0:0:0:0:
256,192,293283,1,0,0:0:0:0:
256,192,293883,1,8,0:0:0:0:
256,192,294283,1,8,0:0:0:0:
256,192,294683,1,8,0:0:0:0:
256,192,295083,1,4,0:0:0:0:
256,192,295983,1,0,0:0:0:0:
256,192,296283,1,0,0:0:0:0:
256,192,297183,1,0,0:0:0:0:
256,192,297483,1,0,0:0:0:0:
256,192,297633,1,8,0:0:0:0:
256,192,297933,1,8,0:0:0:0:
256,192,298083,1,0,0:0:0:0:
256,192,298233,1,0,0:0:0:0:
256,192,298383,1,0,0:0:0:0:
256,192,298683,1,8,0:0:0:0:
256,192,298983,1,0,0:0:0:0:
256,192,299133,1,0,0:0:0:0:
256,192,299283,1,8,0:0:0:0:
256,192,299583,1,0,0:0:0:0:
256,192,299883,1,12,0:0:0:0:
256,192,300183,1,0,0:0:0:0:
256,192,300333,1,0,0:0:0:0:
256,192,300483,1,0,0:0:0:0:
256,192,300633,1,0,0:0:0:0:
256,192,300783,1,0,0:0:0:0:
256,192,301083,1,8,0:0:0:0:
256,192,301233,1,8,0:0:0:0:
256,192,301383,1,0,0:0:0:0:
256,192,301533,1,0,0:0:0:0:
256,192,301683,1,0,0:0:0:0:
256,192,301833,1,8,0:0:0:0:
256,192,302283,1,12,0:0:0:0:
256,192,302583,1,0,0:0:0:0:
256,192,302733,1,0,0:0:0:0:
256,192,302883,1,8,0:0:0:0:
256,192,303183,1,8,0:0:0:0:
256,192,303483,1,0,0:0:0:0:
256,192,303683,1,8,0:0:0:0:
256,192,303883,1,8,0:0:0:0:
256,192,304083,1,8,0:0:0:0:
256,192,304233,1,0,0:0:0:0:
256,192,304383,1,8,0:0:0:0:
256,192,304433,1,8,0:0:0:0:
256,192,304533,1,0,0:0:0:0:
256,192,304683,1,12,0:0:0:0:
256,192,304833,1,8,0:0:0:0:
256,192,304908,1,8,0:0:0:0:
256,192,304983,1,0,0:0:0:0:
256,192,305058,1,0,0:0:0:0:
256,192,305133,1,0,0:0:0:0:
256,192,305283,1,8,0:0:0:0:
256,192,305583,1,0,0:0:0:0:
256,192,305883,1,8,0:0:0:0:
256,192,306033,1,0,0:0:0:0:
256,192,306108,1,0,0:0:0:0:
256,192,306183,1,0,0:0:0:0:
256,192,306333,1,8,0:0:0:0:
256,192,306633,1,8,0:0:0:0:
256,192,306783,1,0,0:0:0:0:
256,192,306933,1,8,0:0:0:0:
256,192,307083,1,4,0:0:0:0:
256,192,307233,1,8,0:0:0:0:
256,192,307308,1,8,0:0:0:0:
256,192,307383,1,8,0:0:0:0:
256,192,307533,1,8,0:0:0:0:
256,192,307683,1,0,0:0:0:0:
256,192,307983,1,0,0:0:0:0:
256,192,308283,1,0,0:0:0:0:
256,192,308483,1,8,0:0:0:0:
256,192,308683,1,8,0:0:0:0:
256,192,308883,1,8,0:0:0:0:
256,192,309033,1,0,0:0:0:0:
256,192,309183,1,12,0:0:0:0:
256,192,309483,1,12,0:0:0:0:
256,192,310083,1,0,0:0:0:0:
256,192,310233,1,0,0:0:0:0:
256,192,310383,1,8,0:0:0:0:
256,192,310683,1,12,0:0:0:0:
256,192,310983,1,0,0:0:0:0:
256,192,311133,1,0,0:0:0:0:
256,192,311283,1,0,0:0:0:0:
256,192,311433,1,0,0:0:0:0:
256,192,311583,1,8,0:0:0:0:
256,192,311883,1,12,0:0:0:0:
256,192,312483,1,12,0:0:0:0:
256,192,313083,1,4,0:0:0:0:
256,192,313683,1,4,0:0:0:0:
256,192,314283,1,12,0:0:0:0:
256,192,314583,1,0,0:0:0:0:
256,192,314733,1,0,0:0:0:0:
256,192,314883,1,12,0:0:0:0:
256,192,315183,1,8,0:0:0:0:
256,192,315333,1,8,0:0:0:0:
256,192,315483,1,4,0:0:0:0:
256,192,315633,1,8,0:0:0:0:
256,192,315783,1,8,0:0:0:0:
256,192,315858,1,8,0:0:0:0:
256,192,315933,1,8,0:0:0:0:
256,192,316008,1,8,0:0:0:0:
256,192,316083,1,4,0:0:0:0:
256,192,316233,1,0,0:0:0:0:
256,192,316383,1,0,0:0:0:0:
256,192,316458,1,0,0:0:0:0:
256,192,316533,1,0,0:0:0:0:
256,192,316608,1,0,0:0:0:0:
256,192,316683,1,12,0:0:0:0:
256,192,318483,5,12,0:0:0:0:
256,192,318633,1,0,0:0:0:0:
256,192,318708,1,8,0:0:0:0:
256,192,318783,1,0,0:0:0:0:
256,192,318858,1,8,0:0:0:0:
256,192,318933,1,0,0:0:0:0:
256,192,319008,1,0,0:0:0:0:
256,192,319083,1,8,0:0:0:0:
256,192,319158,1,8,0:0:0:0:
256,192,319233,1,0,0:0:0:0:
256,192,319308,1,8,0:0:0:0:
256,192,319383,1,0,0:0:0:0:
256,192,319458,1,8,0:0:0:0:
256,192,319533,1,0,0:0:0:0:
256,192,319608,1,8,0:0:0:0:
256,192,319683,1,0,0:0:0:0:
256,192,319758,1,0,0:0:0:0:
256,192,319833,1,8,0:0:0:0:
256,192,319908,1,8,0:0:0:0:
256,192,319983,1,0,0:0:0:0:
256,192,320058,1,8,0:0:0:0:
256,192,320133,1,0,0:0:0:0:
256,192,320208,1,0,0:0:0:0:
256,192,320283,1,8,0:0:0:0:
256,192,320358,1,8,0:0:0:0:
256,192,320433,1,0,0:0:0:0:
256,192,320508,1,8,0:0:0:0:
256,192,320583,1,0,0:0:0:0:
256,192,320658,1,0,0:0:0:0:
256,192,320733,1,8,0:0:0:0:
256,192,320808,1,0,0:0:0:0:
256,192,320883,1,8,0:0:0:0:
256,192,320958,1,8,0:0:0:0:
256,192,321033,1,0,0:0:0:0:
256,192,321108,1,8,0:0:0:0:
256,192,321183,1,0,0:0:0:0:
256,192,321258,1,0,0:0:0:0:
256,192,321333,1,8,0:0:0:0:
256,192,321408,1,0,0:0:0:0:
256,192,321483,1,8,0:0:0:0:
256,192,321558,1,8,0:0:0:0:
256,192,321633,1,0,0:0:0:0:
256,192,321708,1,8,0:0:0:0:
256,192,321783,1,0,0:0:0:0:
256,192,321858,1,0,0:0:0:0:
256,192,321933,1,8,0:0:0:0:
256,192,322008,1,0,0:0:0:0:
256,192,322083,1,8,0:0:0:0:
256,192,322158,1,8,0:0:0:0:
256,192,322233,1,8,0:0:0:0:
256,192,322308,1,8,0:0:0:0:
256,192,322383,1,8,0:0:0:0:
256,192,322458,1,8,0:0:0:0:
256,192,322533,1,8,0:0:0:0:
256,192,322608,1,8,0:0:0:0:
256,192,322683,1,8,0:0:0:0:
256,192,322758,1,8,0:0:0:0:
256,192,322833,1,8,0:0:0:0:
256,192,322908,1,8,0:0:0:0:
256,192,322983,1,4,0:0:0:0:
256,192,323283,1,12,0:0:0:0:
256,192,323583,1,4,0:0:0:0:
256,192,323883,1,12,0:0:0:0:
256,192,324183,1,4,0:0:0:0:
256,192,324483,1,4,0:0:0:0:
256,192,324783,1,0,0:0:0:0:
256,192,324858,1,0,0:0:0:0:
256,192,324933,1,8,0:0:0:0:
256,192,325008,1,0,0:0:0:0:
256,192,325083,1,8,0:0:0:0:
256,192,325158,1,8,0:0:0:0:
256,192,325233,1,0,0:0:0:0:
256,192,325308,1,0,0:0:0:0:
256,192,325383,1,8,0:0:0:0:
256,192,325458,1,0,0:0:0:0:
256,192,325533,1,0,0:0:0:0:
256,192,325608,1,0,0:0:0:0:
256,192,325683,1,8,0:0:0:0:
256,192,325833,1,8,0:0:0:0:
256,192,325983,1,4,0:0:0:0:
256,192,326283,1,4,0:0:0:0:
256,192,326583,1,8,0:0:0:0:
256,192,326658,1,0,0:0:0:0:
256,192,326733,1,0,0:0:0:0:
256,192,326808,1,0,0:0:0:0:
256,192,326883,1,8,0:0:0:0:
256,192,326958,1,8,0:0:0:0:
256,192,327033,1,8,0:0:0:0:
256,192,327108,1,0,0:0:0:0:
256,192,327183,1,8,0:0:0:0:
256,192,327258,1,8,0:0:0:0:
256,192,327333,1,8,0:0:0:0:
256,192,327408,1,0,0:0:0:0:
256,192,327483,1,8,0:0:0:0:
256,192,327633,1,0,0:0:0:0:
256,192,327708,1,0,0:0:0:0:
256,192,327783,1,0,0:0:0:0:
256,192,327858,1,8,0:0:0:0:
256,192,327933,1,0,0:0:0:0:
256,192,328008,1,0,0:0:0:0:
256,192,328083,1,8,0:0:0:0:
256,192,328158,1,0,0:0:0:0:
256,192,328233,1,0,0:0:0:0:
256,192,328308,1,0,0:0:0:0:
256,192,328383,1,8,0:0:0:0:
256,192,328458,1,8,0:0:0:0:
256,192,328533,1,0,0:0:0:0:
256,192,328608,1,8,0:0:0:0:
256,192,328683,1,0,0:0:0:0:
256,192,328758,1,0,0:0:0:0:
256,192,328833,1,8,0:0:0:0:
256,192,328908,1,0,0:0:0:0:
256,192,328983,1,8,0:0:0:0:
256,192,329133,1,8,0:0:0:0:
256,192,329283,1,0,0:0:0:0:
256,192,329358,1,0,0:0:0:0:
256,192,329433,1,0,0:0:0:0:
256,192,329508,1,0,0:0:0:0:
256,192,329583,1,8,0:0:0:0:
256,192,329658,1,8,0:0:0:0:
256,192,329733,1,8,0:0:0:0:
256,192,329808,1,8,0:0:0:0:
256,192,329883,1,0,0:0:0:0:
256,192,330033,1,0,0:0:0:0:
256,192,330183,1,12,0:0:0:0:
256,192,330333,1,0,0:0:0:0:
256,192,330408,1,0,0:0:0:0:
256,192,330483,1,8,0:0:0:0:
256,192,330558,1,0,0:0:0:0:
256,192,330633,1,8,0:0:0:0:
256,192,330708,1,8,0:0:0:0:
256,192,330783,1,0,0:0:0:0:
256,192,330858,1,8,0:0:0:0:
256,192,330933,1,8,0:0:0:0:
256,192,331008,1,8,0:0:0:0:
256,192,331083,1,4,0:0:0:0:
256,192,331383,1,0,0:0:0:0:
256,192,331533,1,8,0:0:0:0:
256,192,331683,1,0,0:0:0:0:
256,192,331758,1,0,0:0:0:0:
256,192,331833,1,0,0:0:0:0:
256,192,331908,1,0,0:0:0:0:
256,192,331983,1,8,0:0:0:0:
256,192,332133,1,8,0:0:0:0:
256,192,332283,1,0,0:0:0:0:
256,192,332433,1,0,0:0:0:0:
256,192,332583,1,8,0:0:0:0:
256,192,332883,1,0,0:0:0:0:
256,192,333033,1,0,0:0:0:0:
256,192,333108,1,0,0:0:0:0:
256,192,333183,1,8,0:0:0:0:
256,192,333333,1,8,0:0:0:0:
256,192,333483,1,0,0:0:0:0:
256,192,333633,1,8,0:0:0:0:
256,192,333783,1,0,0:0:0:0:
256,192,333933,1,8,0:0:0:0:
256,192,334008,1,8,0:0:0:0:
256,192,334083,1,8,0:0:0:0:
256,192,334233,1,0,0:0:0:0:
256,192,334383,1,8,0:0:0:0:
256,192,334533,1,0,0:0:0:0:
256,192,334683,1,12,0:0:0:0:
256,192,334983,1,0,0:0:0:0:
256,192,335283,1,8,0:0:0:0:
256,192,335358,1,8,0:0:0:0:
256,192,335433,1,0,0:0:0:0:
256,192,335508,1,0,0:0:0:0:
256,192,335583,1,8,0:0:0:0:
256,192,335733,1,0,0:0:0:0:
256,192,335883,1,8,0:0:0:0:
256,192,336033,1,8,0:0:0:0:
256,192,336183,1,0,0:0:0:0:
256,192,336333,1,0,0:0:0:0:
256,192,336483,1,8,0:0:0:0:
256,192,336633,1,0,0:0:0:0:
256,192,336708,1,0,0:0:0:0:
256,192,336783,1,0,0:0:0:0:
256,192,336933,1,0,0:0:0:0:
256,192,337083,1,8,0:0:0:0:
256,192,337233,1,8,0:0:0:0:
256,192,337383,1,0,0:0:0:0:
256,192,337533,1,8,0:0:0:0:
256,192,337683,1,0,0:0:0:0:
256,192,337758,1,0,0:0:0:0:
256,192,337833,1,8,0:0:0:0:
256,192,337908,1,8,0:0:0:0:
256,192,337983,1,0,0:0:0:0:
256,192,338133,1,0,0:0:0:0:
256,192,338283,1,12,0:0:0:0:
256,192,338583,1,0,0:0:0:0:
256,192,338733,1,8,0:0:0:0:
256,192,338883,1,0,0:0:0:0:
256,192,338958,1,0,0:0:0:0:
256,192,339033,1,0,0:0:0:0:
256,192,339108,1,0,0:0:0:0:
256,192,339183,1,8,0:0:0:0:
256,192,339333,1,8,0:0:0:0:
256,192,339483,1,0,0:0:0:0:
256,192,339633,1,0,0:0:0:0:
256,192,339783,1,8,0:0:0:0:
256,192,339933,1,0,0:0:0:0:
256,192,340083,1,8,0:0:0:0:
256,192,340383,1,0,0:0:0:0:
256,192,340533,1,8,0:0:0:0:
256,192,340683,1,0,0:0:0:0:
256,192,340758,1,0,0:0:0:0:
256,192,340833,1,0,0:0:0:0:
256,192,340983,1,8,0:0:0:0:
256,192,341133,1,8,0:0:0:0:
256,192,341208,1,0,0:0:0:0:
256,192,341283,1,0,0:0:0:0:
256,192,341433,1,8,0:0:0:0:
256,192,341583,1,0,0:0:0:0:
256,192,341733,1,0,0:0:0:0:
256,192,341883,1,8,0:0:0:0:
256,192,342183,1,0,0:0:0:0:
256,192,342333,1,0,0:0:0:0:
256,192,342483,1,8,0:0:0:0:
256,192,342558,1,8,0:0:0:0:
256,192,342633,1,0,0:0:0:0:
256,192,342708,1,0,0:0:0:0:
256,192,342783,1,8,0:0:0:0:
256,192,342933,1,0,0:0:0:0:
256,192,343083,1,8,0:0:0:0:
256,192,343233,1,8,0:0:0:0:
256,192,343383,1,0,0:0:0:0:
256,192,343533,1,0,0:0:0:0:
256,192,343683,1,12,0:0:0:0:
256,192,343983,1,0,0:0:0:0:
256,192,344133,1,0,0:0:0:0:
256,192,344283,1,0,0:0:0:0:
256,192,344433,1,0,0:0:0:0:
256,192,344583,1,8,0:0:0:0:
256,192,344683,1,8,0:0:0:0:
256,192,344783,1,8,0:0:0:0:
256,192,344883,1,0,0:0:0:0:
256,192,344983,1,8,0:0:0:0:
256,192,345083,1,8,0:0:0:0:
256,192,345183,1,0,0:0:0:0:
256,192,345283,1,0,0:0:0:0:
256,192,345383,1,0,0:0:0:0:
256,192,345483,1,12,0:0:0:0:
256,192,345633,1,0,0:0:0:0:
256,192,345708,1,0,0:0:0:0:
256,192,345783,1,0,0:0:0:0:
256,192,345858,1,0,0:0:0:0:
256,192,345933,1,8,0:0:0:0:
256,192,346008,1,0,0:0:0:0:
256,192,346083,1,8,0:0:0:0:
256,192,346158,1,8,0:0:0:0:
256,192,346233,1,0,0:0:0:0:
256,192,346308,1,0,0:0:0:0:
256,192,346383,1,8,0:0:0:0:
256,192,346458,1,8,0:0:0:0:
256,192,346533,1,8,0:0:0:0:
256,192,346608,1,0,0:0:0:0:
256,192,346683,1,8,0:0:0:0:
256,192,346758,1,8,0:0:0:0:
256,192,346833,1,0,0:0:0:0:
256,192,346908,1,0,0:0:0:0:
256,192,346983,1,8,0:0:0:0:
256,192,347058,1,0,0:0:0:0:
256,192,347133,1,0,0:0:0:0:
256,192,347208,1,0,0:0:0:0:
256,192,347283,1,8,0:0:0:0:
256,192,347358,1,8,0:0:0:0:
256,192,347433,1,8,0:0:0:0:
256,192,347508,1,0,0:0:0:0:
256,192,347583,1,8,0:0:0:0:
256,192,347658,1,8,0:0:0:0:
256,192,347733,1,0,0:0:0:0:
256,192,347808,1,0,0:0:0:0:
256,192,347883,1,8,0:0:0:0:
256,192,348033,1,0,0:0:0:0:
256,192,348183,1,8,0:0:0:0:
256,192,348283,1,8,0:0:0:0:
256,192,348383,1,0,0:0:0:0:
256,192,348483,1,8,0:0:0:0:
256,192,348583,1,0,0:0:0:0:
256,192,348683,1,0,0:0:0:0:
256,192,348783,1,8,0:0:0:0:
256,192,348883,1,8,0:0:0:0:
256,192,348983,1,8,0:0:0:0:
256,192,349083,1,4,0:0:0:0:
256,192,349233,1,8,0:0:0:0:
256,192,349308,1,0,0:0:0:0:
256,192,349383,1,8,0:0:0:0:
256,192,349483,1,0,0:0:0:0:
256,192,349583,1,0,0:0:0:0:
256,192,349683,1,8,0:0:0:0:
256,192,349758,1,8,0:0:0:0:
256,192,349833,1,0,0:0:0:0:
256,192,349908,1,0,0:0:0:0:
256,192,349983,1,8,0:0:0:0:
256,192,350283,1,0,0:0:0:0:
256,192,350433,1,0,0:0:0:0:
256,192,350583,1,8,0:0:0:0:
256,192,350733,1,8,0:0:0:0:
256,192,350883,1,4,0:0:0:0:
256,192,351083,1,0,0:0:0:0:
256,192,351183,1,8,0:0:0:0:
256,192,351283,1,8,0:0:0:0:
256,192,351383,1,0,0:0:0:0:
256,192,351483,1,8,0:0:0:0:
256,192,351633,1,0,0:0:0:0:
256,192,351708,1,0,0:0:0:0:
256,192,351783,1,8,0:0:0:0:
256,192,351933,1,8,0:0:0:0:
256,192,352083,1,0,0:0:0:0:
256,192,352233,1,0,0:0:0:0:
256,192,352383,1,8,0:0:0:0:
256,192,352533,1,0,0:0:0:0:
256,192,352683,1,12,0:0:0:0:
256,192,353283,1,8,0:0:0:0:
256,192,353883,1,8,0:0:0:0:
256,192,354183,1,0,0:0:0:0:
256,192,354258,1,0,0:0:0:0:
256,192,354333,1,0,0:0:0:0:
256,192,354408,1,0,0:0:0:0:
256,192,354483,1,8,0:0:0:0:
256,192,354783,1,8,0:0:0:0:
256,192,354933,1,0,0:0:0:0:
256,192,355083,1,8,0:0:0:0:
256,192,355233,1,8,0:0:0:0:
256,192,355383,1,0,0:0:0:0:
256,192,355483,1,0,0:0:0:0:
256,192,355583,1,0,0:0:0:0:
256,192,355683,1,8,0:0:0:0:
256,192,355783,1,8,0:0:0:0:
256,192,355883,1,0,0:0:0:0:
256,192,355983,1,8,0:0:0:0:
256,192,356083,1,8,0:0:0:0:
256,192,356183,1,8,0:0:0:0:
256,192,356283,1,4,0:0:0:0:
256,192,356483,1,0,0:0:0:0:
256,192,356583,1,8,0:0:0:0:
256,192,356683,1,0,0:0:0:0:
256,192,356783,1,0,0:0:0:0:
256,192,356883,1,8,0:0:0:0:
256,192,356983,1,8,0:0:0:0:
256,192,357083,1,8,0:0:0:0:
256,192,357183,1,0,0:0:0:0:
256,192,357483,1,8,0:0:0:0:
256,192,357633,1,8,0:0:0:0:
256,192,357783,1,0,0:0:0:0:
256,192,357933,1,0,0:0:0:0:
256,192,358083,1,8,0:0:0:0:
256,192,358183,1,0,0:0:0:0:
256,192,358283,1,0,0:0:0:0:
256,192,358383,1,8,0:0:0:0:
256,192,358483,1,8,0:0:0:0:
256,192,358583,1,0,0:0:0:0:
256,192,358683,1,8,0:0:0:0:
256,192,358783,1,0,0:0:0:0:
256,192,358883,1,0,0:0:0:0:
256,192,358983,1,8,0:0:0:0:
256,192,359083,1,8,0:0:0:0:
256,192,359183,1,8,0:0:0:0:
256,192,359283,1,0,0:0:0:0:
256,192,359383,1,8,0:0:0:0:
256,192,359483,1,8,0:0:0:0:
256,192,359583,1,0,0:0:0:0:
256,192,359683,1,0,0:0:0:0:
256,192,359783,1,0,0:0:0:0:
256,192,359883,1,12,0:0:0:0:
256,192,361083,1,8,0:0:0:0:
256,192,361158,1,8,0:0:0:0:
256,192,361233,1,0,0:0:0:0:
256,192,361308,1,0,0:0:0:0:
256,192,361383,1,0,0:0:0:0:
256,192,361458,1,0,0:0:0:0:
256,192,361533,1,0,0:0:0:0:
256,192,361608,1,0,0:0:0:0:
256,192,361683,1,12,0:0:0:0:
256,192,361833,1,0,0:0:0:0:
256,192,361983,1,12,0:0:0:0:
256,192,362133,1,0,0:0:0:0:
256,192,362283,1,12,0:0:0:0:
256,192,362433,1,8,0:0:0:0:
256,192,362583,1,12,0:0:0:0:
256,192,362733,1,0,0:0:0:0:
256,192,362883,1,12,0:0:0:0:
256,192,363183,1,4,0:0:0:0:
256,192,363483,1,12,0:0:0:0:
256,192,363633,1,8,0:0:0:0:
256,192,363783,1,12,0:0:0:0:
256,192,363933,1,0,0:0:0:0:
256,192,364083,1,12,0:0:0:0:
256,192,364233,1,0,0:0:0:0:
256,192,364383,1,12,0:0:0:0:
256,192,364533,1,0,0:0:0:0:
256,192,364608,1,0,0:0:0:0:
256,192,364683,1,8,0:0:0:0:
256,192,364758,1,8,0:0:0:0:
256,192,364833,1,8,0:0:0:0:
256,192,364908,1,8,0:0:0:0:
256,192,364983,1,0,0:0:0:0:
256,192,365058,1,0,0:0:0:0:
256,192,365133,1,8,0:0:0:0:
256,192,365208,1,8,0:0:0:0:
256,192,365283,1,0,0:0:0:0:
256,192,365358,1,0,0:0:0:0:
256,192,365433,1,8,0:0:0:0:
256,192,365583,1,0,0:0:0:0:
256,192,365658,1,0,0:0:0:0:
256,192,365733,1,8,0:0:0:0:
256,192,365883,1,8,0:0:0:0:
256,192,365958,1,8,0:0:0:0:
256,192,366033,1,8,0:0:0:0:
256,192,366108,1,8,0:0:0:0:
256,192,366183,1,0,0:0:0:0:
256,192,366258,1,0,0:0:0:0:
256,192,366333,1,0,0:0:0:0:
256,192,366483,1,8,0:0:0:0:
256,192,366558,1,8,0:0:0:0:
256,192,366633,1,0,0:0:0:0:
256,192,366783,1,8,0:0:0:0:
256,192,366858,1,8,0:0:0:0:
256,192,366933,1,8,0:0:0:0:
256,192,367008,1,8,0:0:0:0:
256,192,367083,1,0,0:0:0:0:
256,192,367158,1,0,0:0:0:0:
256,192,367233,1,8,0:0:0:0:
256,192,367383,1,0,0:0:0:0:
256,192,367533,1,12,0:0:0:0:
256,192,367683,1,0,0:0:0:0:
256,192,367758,1,0,0:0:0:0:
256,192,367833,1,0,0:0:0:0:
256,192,367983,1,12,0:0:0:0:
256,192,368133,1,12,0:0:0:0:
256,192,368283,1,0,0:0:0:0:
256,192,368358,1,0,0:0:0:0:
256,192,368433,1,0,0:0:0:0:
256,192,368508,1,0,0:0:0:0:
256,192,368583,1,8,0:0:0:0:
256,192,368733,1,8,0:0:0:0:
256,192,368808,1,8,0:0:0:0:
256,192,368883,1,8,0:0:0:0:
256,192,368958,1,8,0:0:0:0:
256,192,369033,1,0,0:0:0:0:
256,192,369108,1,0,0:0:0:0:
256,192,369183,1,8,0:0:0:0:
256,192,369258,1,8,0:0:0:0:
256,192,369333,1,0,0:0:0:0:
256,192,369408,1,0,0:0:0:0:
256,192,369483,1,12,0:0:0:0:
256,192,370233,1,0,0:0:0:0:
256,192,370308,1,0,0:0:0:0:
256,192,370383,1,8,0:0:0:0:
256,192,370533,1,8,0:0:0:0:
256,192,370683,1,4,0:0:0:0:
256,192,370983,1,12,0:0:0:0:
256,192,371283,1,4,0:0:0:0:
256,192,372483,1,0,0:0:0:0:
256,192,373083,1,12,0:0:0:0:
256,192,373233,12,0,380283,0:0:0:0:
