osu file format v14

[General]
AudioFilename: audio.mp3
AudioLeadIn: 0
PreviewTime: 304440
Countdown: 0
SampleSet: Soft
StackLeniency: 0.2
Mode: 0
LetterboxInBreaks: 0
WidescreenStoryboard: 0

[Editor]
Bookmarks: 10040,17240,23240,30440,36440,44840,54440,64040,73640,83240,92840,101240,108440,116840,124840,126440,133640,136040,142440,147840,152640,156640,162040,169106,177840,181640,187240,194040,200040,206440,210440,218640,227440,246640,256240,265840,275440,285040,294640,305440,315040,324640,334240,343840,353440
DistanceSpacing: 1.1
BeatDivisor: 4
GridSize: 4
TimelineZoom: 2.6

[Metadata]
Title:Come Hell or High Water
TitleUnicode:Come Hell or High Water
Artist:Native Construct
ArtistUnicode:Native Construct
Creator:Daycore
Version:Banquet in the Hell
Source:osu!
Tags:marathon quiet world metal rock english fa featured artist mappers' guild mg
BeatmapID:2196830
BeatmapSetID:1051167

[Difficulty]
HPDrainRate:6.6
CircleSize:5.5
OverallDifficulty:8.8
ApproachRate:9
SliderMultiplier:2
SliderTickRate:1

[Events]
//Background and Video events
0,0,"mappersguild.jpg",0,0
//Break Periods
//Storyboard Layer 0 (Background)
//Storyboard Layer 1 (Fail)
//Storyboard Layer 2 (Pass)
//Storyboard Layer 3 (Foreground)
//Storyboard Layer 4 (Overlay)
//Storyboard Sound Samples

[TimingPoints]
40,400,3,2,1,40,1,0
2840,400,3,2,1,40,1,0
6040,400,3,2,1,40,1,0
8840,400,3,2,1,40,1,0
10040,-100,3,2,1,40,0,0
11240,-100,3,2,1,40,0,0
11440,-100,3,2,1,40,0,0
13640,-100,3,2,1,40,0,0
13840,-100,3,2,1,40,0,0
16040,-76.9230769230769,3,2,1,40,0,0
17240,-100,3,2,1,40,0,0
17440,-100,3,2,1,40,0,0
19640,-100,3,2,1,40,0,0
19840,-100,3,2,1,40,0,0
23240,-100,3,2,1,40,0,0
23440,-100,3,2,1,40,0,0
25840,-100,3,2,1,40,0,0
25940,-100,3,2,1,5,0,0
26040,-100,3,2,1,40,0,0
27040,-100,3,2,1,5,0,0
28040,-100,3,2,1,20,0,0
28140,-100,3,2,1,25,0,0
28240,-76.9230769230769,3,2,1,30,0,0
28340,-76.9230769230769,3,2,1,35,0,0
28440,-62.5,3,2,1,40,0,0
28540,-62.5,3,2,1,45,0,0
28640,-52.6315789473684,3,2,1,50,0,0
28740,-52.6315789473684,3,2,1,55,0,0
28840,-45.4545454545455,3,2,1,60,0,0
28940,-45.4545454545455,3,2,1,65,0,0
29140,-45.4545454545455,3,2,1,70,0,0
29240,-58.8235294117647,3,2,1,40,0,0
29740,-58.8235294117647,3,2,1,5,0,0
29840,-58.8235294117647,3,2,1,40,0,0
30440,-86.9565217391304,3,2,1,40,0,0
30740,-86.9565217391304,3,2,1,5,0,0
30840,-80,3,2,1,40,0,0
31140,-80,3,2,1,5,0,0
31240,-100,3,2,1,40,0,0
31540,-100,3,2,1,5,0,0
31640,-86.9565217391304,3,2,1,40,0,0
31940,-86.9565217391304,3,2,1,5,0,0
32040,-76.9230769230769,3,2,1,40,0,0
32340,-76.9230769230769,3,2,1,5,0,0
32440,-100,3,2,1,40,0,0
32740,-100,3,2,1,5,0,0
32840,-90.9090909090909,3,2,1,40,0,0
33140,-90.9090909090909,3,2,1,5,0,0
33240,-90.9090909090909,3,2,1,40,0,0
34040,-1000,3,2,1,40,0,0
35140,-1000,3,2,1,5,0,0
35240,-66.6666666666667,3,2,1,40,0,0
35340,-66.6666666666667,3,2,1,5,0,0
35640,-66.6666666666667,3,2,1,40,0,0
36440,-83.3333333333333,3,2,1,50,0,0
37640,-66.6666666666667,3,2,1,50,0,0
38440,-83.3333333333333,3,2,1,50,0,0
39440,-74.0740740740741,3,2,1,50,0,0
39840,-83.3333333333333,3,2,1,50,0,0
41240,-66.6666666666667,3,2,1,50,0,0
41340,-66.6666666666667,3,2,1,5,0,0
41840,-66.6666666666667,3,2,1,30,0,0
42440,-200,3,2,1,40,0,0
42540,-200,3,2,1,5,0,0
43040,-200,3,2,1,20,0,0
43440,-200,3,2,1,20,0,0
44840,-133.333333333333,3,2,1,25,0,0
80440,-111.111111111111,3,2,1,25,0,0
80840,-133.333333333333,3,2,1,25,0,0
83240,-133.333333333333,3,2,1,42,0,0
85640,-83.3333333333333,3,2,1,42,0,0
86040,-133.333333333333,3,2,1,42,0,0
88040,-111.111111111111,3,2,1,42,0,0
88440,-133.333333333333,3,2,1,42,0,0
90440,-133.333333333333,3,2,1,45,0,0
90840,-133.333333333333,3,2,1,50,0,0
91240,-133.333333333333,3,2,1,55,0,0
91640,-133.333333333333,3,2,1,50,0,0
92840,-100,3,2,1,50,0,0
94440,-100,3,2,1,50,0,0
95540,-100,3,2,1,5,0,0
95640,-100,3,2,1,50,0,0
99140,-100,3,2,1,5,0,0
99240,-100,3,2,1,50,0,0
106040,-71.4285714285714,3,2,1,50,0,0
106440,-100,3,2,1,50,0,0
106640,-80,3,2,1,50,0,0
106840,-66.6666666666667,3,2,1,50,0,0
107040,-57.1428571428571,3,2,1,50,0,0
107240,-100,3,2,1,50,0,0
108440,-74.074074074074,3,2,1,50,0,0
116840,-66.6666666666667,3,2,1,50,0,0
117140,-66.6666666666667,3,2,1,5,0,0
117240,-66.6666666666667,3,2,1,50,0,0
117540,-66.6666666666667,3,2,1,5,0,0
117640,-66.6666666666667,3,2,1,50,0,0
118040,-66.6666666666667,3,2,1,50,0,0
118340,-66.6666666666667,3,2,1,5,0,0
118440,-66.6666666666667,3,2,1,50,0,0
119540,-66.6666666666667,3,2,1,5,0,0
119640,-66.6666666666667,3,2,1,50,0,0
120740,-66.6666666666667,3,2,1,5,0,0
120840,-66.6666666666667,3,2,1,50,0,0
121140,-66.6666666666667,3,2,1,5,0,0
121240,-66.6666666666667,3,2,1,50,0,0
121640,-66.6666666666667,3,2,1,50,0,0
121940,-66.6666666666667,3,2,1,5,0,0
122040,-66.6666666666667,3,2,1,50,0,0
122740,-66.6666666666667,3,2,1,5,0,0
122840,-55.5555555555556,3,2,1,50,0,0
123140,-55.5555555555556,3,2,1,5,0,0
123240,-55.5555555555556,3,2,1,50,0,0
124340,-55.5555555555556,3,2,1,5,0,0
124440,-55.5555555555556,3,2,1,50,0,0
125040,-100,3,2,1,50,0,0
125240,-76.9230769230769,3,2,1,50,0,0
133640,-55.5555555555556,3,2,1,50,0,0
133840,-60.5693519079346,3,2,1,50,0,0
134040,-66.6666666666667,3,2,1,50,0,0
134240,-74.0740740740741,3,2,1,50,0,0
134440,-83.3333333333333,3,2,1,50,0,0
134640,-95.2380952380952,3,2,1,50,0,0
136940,-100,3,2,1,5,0,0
137040,-100,3,2,1,50,0,0
137140,-100,3,2,1,5,0,0
137240,-100,3,2,1,50,0,0
139140,-100,3,2,1,35,0,0
139240,-100,3,2,1,50,0,0
139740,-100,3,2,1,5,0,0
139840,-100,3,2,1,50,0,0
139940,-100,3,2,1,5,0,0
140040,-100,3,2,1,50,0,0
142440,400,3,2,1,50,1,0
146440,-66.6666666666667,3,2,1,50,0,0
147840,400,4,2,1,50,1,0
147840,-76.9230769230769,4,2,1,50,0,0
148340,-76.9230769230769,4,2,1,5,0,0
148640,-76.9230769230769,4,2,1,50,0,0
148740,-76.9230769230769,4,2,1,5,0,0
148840,-76.9230769230769,4,2,1,50,0,0
148940,-76.9230769230769,4,2,1,5,0,0
149040,-76.9230769230769,4,2,1,50,0,0
149540,-76.9230769230769,4,2,1,5,0,0
149640,-76.9230769230769,4,2,1,50,0,0
149740,-76.9230769230769,4,2,1,5,0,0
149840,-76.9230769230769,4,2,1,50,0,0
149940,-76.9230769230769,4,2,1,5,0,0
150240,-62.5,4,2,1,50,0,0
150340,-62.5,4,2,1,5,0,0
150440,-62.5,4,2,1,50,0,0
150540,-62.5,4,2,1,5,0,0
150640,-62.5,4,2,1,50,0,0
151840,-86.9565217391304,4,2,1,70,0,0
152440,-86.9565217391304,4,2,1,5,0,0
152640,-86.9565217391304,4,2,1,50,0,1
155040,-86.9565217391304,4,2,1,50,0,0
155840,-100,4,2,1,50,0,0
156540,-100,4,2,1,5,0,0
156640,-100,4,2,1,50,0,0
158940,-100,4,2,1,5,0,0
159040,-100,4,2,1,50,0,0
162040,400,4,2,1,50,1,0
162740,-100,4,2,1,5,0,0
162840,-100,4,2,1,50,0,0
168340,-100,4,2,1,5,0,0
168440,-100,4,2,1,50,0,0
168840,-83.3333333333333,4,2,1,50,0,0
169840,400,4,2,1,50,1,0
177740,-100,4,2,1,5,0,0
177840,-100,4,2,1,50,0,0
178140,-100,4,2,1,5,0,0
178240,-100,4,2,1,50,0,0
178440,-100,4,2,1,5,0,0
178840,400,3,2,1,50,1,0
178840,-100,3,2,1,50,0,0
179140,-100,3,2,1,5,0,0
179240,-100,3,2,1,30,0,0
179440,-100,3,2,1,5,0,0
179640,-100,3,2,1,50,0,0
180440,-76.9230769230769,3,2,1,50,0,0
181540,-76.9230769230769,3,2,1,5,0,0
181640,400,3,2,1,50,1,0
187240,400,3,2,1,50,1,0
192840,-166.666666666667,3,2,1,50,0,0
193440,-100,3,2,1,50,0,0
194040,400,3,2,1,50,1,0
199940,-100,3,2,1,5,0,0
200040,400,4,2,1,50,1,0
206440,-86.9565217391304,4,2,1,50,0,0
210640,-148.148148148148,4,2,1,50,0,0
211640,-86.9565217391304,4,2,1,50,0,0
216240,400,4,2,1,50,1,0
217840,400,3,2,1,25,1,0
218640,-222.222222222222,3,2,1,25,0,0
223240,-222.222222222222,3,2,1,5,0,0
223440,-222.222222222222,3,2,1,25,0,0
226040,-222.222222222222,3,2,1,5,0,0
226240,-200,3,2,1,25,0,0
227340,-200,3,2,1,5,0,0
227440,-153.846153846154,3,2,1,25,0,0
228440,-153.846153846154,3,2,1,5,0,0
228640,-153.846153846154,3,2,1,25,0,0
229640,-153.846153846154,3,2,1,5,0,0
229840,-153.846153846154,3,2,1,25,0,0
230840,-153.846153846154,3,2,1,5,0,0
231040,-153.846153846154,3,2,1,25,0,0
232840,-153.846153846154,3,2,1,5,0,0
233040,-153.846153846154,3,2,1,25,0,0
233240,-153.846153846154,3,2,1,5,0,0
233440,-153.846153846154,3,2,1,25,0,0
234440,-153.846153846154,3,2,1,5,0,0
234640,-153.846153846154,3,2,1,25,0,0
235640,-153.846153846154,3,2,1,5,0,0
235840,-153.846153846154,3,2,1,25,0,0
237040,-125,3,2,1,25,0,0
238040,-125,3,2,1,5,0,0
238240,-125,3,2,1,25,0,0
239240,-125,3,2,1,5,0,0
239440,-125,3,2,1,25,0,0
240440,-125,3,2,1,5,0,0
240640,-125,3,2,1,25,0,0
242440,-125,3,2,1,5,0,0
242640,-125,3,2,1,25,0,0
242840,-125,3,2,1,5,0,0
243040,-125,3,2,1,25,0,0
244040,-125,3,2,1,5,0,0
244240,-125,3,2,1,25,0,0
244290,-125,3,2,1,5,0,0
245440,-125,3,2,1,25,0,0
246640,-125,3,2,1,32,0,0
248140,-125,3,2,1,5,0,0
248240,-125,3,2,1,32,0,0
248540,-125,3,2,1,5,0,0
248640,-125,3,2,1,32,0,0
248940,-125,3,2,1,5,0,0
249040,-125,3,2,1,32,0,0
250540,-125,3,2,1,5,0,0
250640,-125,3,2,1,32,0,0
250940,-125,3,2,1,5,0,0
251040,-125,3,2,1,32,0,0
257740,-125,3,2,1,5,0,0
257840,-125,3,2,1,32,0,0
258140,-125,3,2,1,5,0,0
258240,-125,3,2,1,32,0,0
258540,-125,3,2,1,5,0,0
258640,-125,3,2,1,32,0,0
260140,-125,3,2,1,5,0,0
260240,-125,3,2,1,32,0,0
260540,-125,3,2,1,5,0,0
260640,-125,3,2,1,32,0,0
264640,-1000,3,2,1,32,0,0
265440,-111.111111111111,3,2,1,40,0,0
267340,-111.111111111111,3,2,1,5,0,0
267440,-111.111111111111,3,2,1,40,0,0
276940,-111.111111111111,3,2,1,5,0,0
277040,-111.111111111111,3,2,1,40,0,0
285040,-90.9090909090908,3,2,1,50,0,0
299040,-41.6666666666667,3,2,1,50,0,0
299440,-90.9090909090909,3,2,1,50,0,0
305440,-76.9230769230769,3,2,1,50,0,1
323640,-90.9090909090909,3,2,1,50,0,0
324640,-76.9230769230769,3,2,1,50,0,1
339040,-100,3,2,1,50,0,1
343840,-90.9090909090909,3,2,1,50,0,0
346240,-151.515151515152,3,2,1,50,0,0
353440,-90.9090909090909,3,2,1,5,0,0

[Colours]
Combo1 : 0,64,128
Combo2 : 255,0,0
Combo3 : 0,128,192
Combo4 : 255,128,128

[HitObjects]
177,153,10040,6,0,B|232:155|260:106|260:106|281:162|365:156,1,200,4|2,0:3|0:0,0:0:0:0:
120,97,10640,1,2,0:0:0:0:
120,97,10840,2,8,P|96:148|125:222,1,100,8|2,0:2|0:0,0:0:0:0:
233,294,11240,6,2,B|182:168|182:168|192:207|165:241|165:241|192:219|276:198,1,300,6|0,0:3|0:0,0:0:0:0:
269,362,12040,2,0,P|207:366|170:335,1,100,2|0,0:0|0:0,0:0:0:0:
377,272,12440,2,0,B|218:256|218:256|240:312,1,200,10|0,0:0|0:0,0:0:0:0:
348,349,13040,1,2,0:0:0:0:
430,230,13240,2,0,P|443:277|424:322,1,100,2|2,0:0|0:0,0:0:0:0:
315,191,13640,6,0,B|348:154|393:167|393:167|362:204|356:238|383:284,1,200,6|0,0:3|0:0,0:0:0:0:
256,320,14240,1,6,0:3:0:0:
153,268,14440,2,0,B|145:218|113:199|113:199|96:207|99:227,1,100,2|0,0:3|0:0,0:0:0:0:
106,335,14840,2,0,B|144:353|200:354|238:300|230:254|230:254|218:213|173:212|142:244|155:279,1,300,10|0,0:0|0:0,0:0:0:0:
299,203,15640,2,0,P|254:158|209:143,1,100,2|0,0:0|0:0,0:0:0:0:
336,279,16040,6,0,B|319:245|331:216|331:216|319:186|319:186|329:159|329:159|319:130|326:107|326:107|361:92|397:119|392:161,1,259.999988098145,4|0,0:2|0:0,0:0:0:0:
403,318,16640,1,8,0:0:0:0:
290,338,16840,2,0,P|362:351|414:282,1,129.999994049073,10|6,0:3|0:3,0:0:0:0:
412,235,17240,6,2,B|369:231|349:178|349:178|380:234|335:278|335:278|381:220|452:256,1,300,6|0,0:3|0:0,0:0:0:0:
194,229,18040,2,0,P|294:221|340:224,1,100,2|0,0:0|0:0,0:0:0:0:
168,304,18440,2,0,P|173:217|189:86,1,200,10|0,0:0|0:0,0:0:0:0:
95,200,19040,1,2,0:0:0:0:
236,43,19240,2,0,P|190:24|143:39,1,100,2|2,0:0|0:0,0:0:0:0:
289,119,19640,6,0,L|90:116,1,200,6|0,0:3|0:0,0:0:0:0:
302,190,20240,1,6,0:3:0:0:
137,194,20440,2,0,P|211:208|245:181,1,100,2|0,0:0|0:0,0:0:0:0:
58,203,20840,2,0,P|90:257|184:134,1,300,8|0,0:0|0:0,0:0:0:0:
321,201,21640,2,0,P|247:187|213:214,1,100,8|0,0:0|0:0,0:0:0:0:
464,336,22040,5,10,0:0:0:0:
414,80,22440,1,2,0:0:0:0:
422,98,22640,1,2,0:0:0:0:
433,234,22840,1,10,0:0:0:0:
469,163,23040,1,10,0:3:0:0:
454,328,23240,6,2,B|499:333|513:289|513:289|465:235|408:269|408:269|347:308|279:265,1,300,6|0,0:3|0:0,0:0:0:0:
344,111,24040,2,0,P|345:156|352:224,1,100,2|0,0:0|0:0,0:0:0:0:
210,358,24440,2,0,P|223:258|235:154,1,200,10|0,0:0|0:0,0:0:0:0:
131,268,25040,1,2,0:0:0:0:
314,217,25240,1,2,0:0:0:0:
110,191,25440,1,2,0:0:0:0:
339,240,25640,6,0,P|339:179|349:86,1,150,6|0,0:3|0:0,0:0:0:0:
399,42,26040,1,8,0:0:0:0:
370,318,26240,2,2,B|247:325|316:252|158:272,1,200,2|0,0:0|0:0,0:0:0:0:
348,90,26840,2,0,P|339:165|341:236,1,100,8|0,0:0|0:0,0:0:0:0:
338,189,28040,6,0,P|333:161|340:140,1,50,8|4,0:0|0:3,0:0:0:0:
422,217,28240,2,0,P|431:246|418:285,1,64.9999970245363,8|4,0:0|0:3,0:0:0:0:
271,188,28440,2,0,P|267:157|286:97,1,80,8|4,0:0|0:3,0:0:0:0:
483,203,28640,2,0,P|491:243|479:305,1,94.9999974632264,8|4,0:0|0:3,0:0:0:0:
198,172,28840,2,0,P|199:130|249:27,1,110.000003356934,8|4,0:0|0:3,0:0:0:0:
296,268,29040,1,8,0:0:0:0:
232,342,29140,1,4,0:3:0:0:
154,291,29240,6,2,B|160:273|139:239|92:251|64:283|82:334|94:353|115:368|167:378|191:361|220:320|220:320|272:252|358:315,1,425.000008106232,6|0,0:3|0:0,0:0:0:0:
286,359,29840,1,8,0:0:0:0:
435,231,30040,1,4,0:3:0:0:
388,51,30240,1,4,0:3:0:0:
247,195,30440,6,0,B|248:74|248:74|237:108|198:132,1,172.500003290176,6|0,0:2|0:0,0:0:0:0:
182,55,30840,2,0,P|211:16|310:47,1,125,2|0,0:0|3:0,0:0:0:0:
320,232,31240,6,0,L|154:220,1,150,4|0,0:3|0:0,0:0:0:0:
224,319,31640,2,0,L|399:307,1,172.500003290176,8|0,0:0|0:0,0:0:0:0:
471,168,32040,2,0,B|447:194|449:237|449:237|493:279|474:342,1,129.999994049073,2|0,0:0|3:0,0:0:0:0:
323,324,32440,6,0,L|215:318,1,100,4|2,0:3|0:0,0:0:0:0:
158,348,32840,2,0,B|144:308|166:272|166:272|192:225|161:173,1,165.000005035401,4|0,0:3|0:0,0:0:0:0:
108,230,33240,5,8,0:0:0:0:
373,329,33440,1,4,0:3:0:0:
373,329,33640,1,4,0:3:0:0:
381,63,34040,6,0,L|326:58,1,55,2|0,0:0|0:0,0:0:0:0:
393,74,35240,6,2,L|293:65,1,75.0000028610231,4|0,0:2|0:0,0:0:0:0:
405,85,35640,5,4,0:3:0:0:
434,222,35840,1,4,0:3:0:0:
287,313,36040,5,8,0:0:0:0:
328,130,36240,1,8,0:3:0:0:
207,358,36440,6,0,B|211:337|241:324|241:324|192:308|142:319|142:319|112:293|112:293|87:304|40:295,1,239.999992675781,6|0,0:0|0:0,0:0:0:0:
64,101,37040,1,0,0:3:0:0:
64,101,37240,2,0,P|72:127|74:240,1,119.999996337891,6|2,0:3|0:0,0:0:0:0:
238,102,37640,6,0,B|228:60|279:33|279:33|339:62|338:166|245:225,1,300.000011444092,14|0,0:2|0:0,0:0:0:0:
263,211,38240,1,0,0:0:0:0:
463,122,38440,2,0,P|426:102|343:90,1,119.999996337891,6|2,0:3|0:0,0:0:0:0:
390,332,38840,6,0,B|416:172|416:172|386:149|306:158,1,239.999992675781,6|0,0:2|0:0,0:0:0:0:
331,383,39440,2,0,P|435:367|516:378,1,135.000000514984,6|0,0:2|0:0,0:0:0:0:
272,304,39840,1,4,0:3:0:0:
199,306,40040,6,0,B|198:260|246:231|246:231|174:256|185:197|82:220,1,239.999992675781,14|4,0:0|0:3,0:0:0:0:
103,216,40840,1,10,0:0:0:0:
213,73,41040,1,10,0:0:0:0:
412,38,41240,6,0,L|399:143,1,75.0000028610231,6|0,0:0|0:0,0:0:0:0:
402,112,41840,5,2,0:0:0:0:
402,112,42040,1,2,0:0:0:0:
402,112,42440,6,0,L|413:146,1,25,2|0,0:0|0:0,0:0:0:0:
409,135,43040,5,2,0:0:0:0:
409,135,43240,1,0,0:0:0:0:
390,206,43440,6,0,L|382:228,4,12.5,0|0|0|0|0,3:0|3:0|3:0|3:0|3:0,3:0:0:0:
38,292,44840,6,0,P|31:277|42:211,1,75.0000028610231,2|2,0:0|0:0,0:0:0:0:
179,256,45240,2,0,L|84:256,1,75.0000028610231,2|2,0:0|0:0,0:0:0:0:
259,233,45640,2,0,P|261:268|252:292,3,37.5000014305115,2|2|2|2,0:0|0:0|0:0|0:0,0:0:0:0:
221,163,46040,6,0,P|272:153|315:175,1,75.0000028610231,2|2,0:0|0:0,0:0:0:0:
382,149,46440,2,0,P|347:109|345:61,1,75.0000028610231,2|2,0:0|0:0,0:0:0:0:
416,90,46740,1,2,0:0:0:0:
416,90,46840,1,2,0:0:0:0:
411,218,47040,6,0,P|403:264|403:308,1,75.0000028610231,2|2,0:0|0:0,0:0:0:0:
421,333,47340,1,2,0:0:0:0:
421,333,47440,2,0,L|325:326,1,75.0000028610231,2|2,0:0|0:0,0:0:0:0:
318,207,47840,1,2,0:0:0:0:
223,278,48040,2,0,L|319:271,1,75.0000028610231,2|2,0:0|0:0,0:0:0:0:
154,305,48440,6,0,P|148:278|158:239,1,37.5000014305115,2|2,0:0|0:0,0:0:0:0:
159,201,48640,2,0,P|173:177|208:157,1,37.5000014305115,2|2,0:0|0:0,0:0:0:0:
244,149,48840,2,0,P|197:122|174:73,1,75.0000028610231,2|2,0:0|0:0,0:0:0:0:
315,91,49240,1,2,0:0:0:0:
334,178,49440,1,2,0:0:0:0:
405,74,49640,6,0,P|405:43|390:-19,2,75.0000028610231,2|2|2,0:0|0:0|0:0,0:0:0:0:
458,137,50240,1,2,0:0:0:0:
431,215,50440,2,0,P|415:265|412:309,1,75.0000028610231,2|2,0:0|0:0,0:0:0:0:
482,329,50840,6,0,P|394:321|299:324,1,150.000005722046,2|0,0:0|3:0,0:0:0:0:
332,321,51640,1,2,0:0:0:0:
255,342,51840,1,2,0:0:0:0:
369,250,52040,6,0,P|405:292|375:389,1,150.000005722046,2|0,0:0|3:0,0:0:0:0:
301,224,52640,1,2,0:0:0:0:
301,224,52840,2,0,P|330:184|367:178,1,75.0000028610231,2|0,0:0|0:0,0:0:0:0:
240,280,53240,6,0,P|194:221|123:198,1,150.000005722046,2|2,0:0|3:0,0:0:0:0:
195,336,54040,2,0,P|242:353|285:339,1,75.0000028610231,0|2,3:0|0:0,0:0:0:0:
239,205,54440,6,0,L|240:297,1,75.0000028610231,2|2,3:0|0:0,0:0:0:0:
289,143,54840,2,0,P|242:126|199:140,1,75.0000028610231,2|2,0:0|0:0,0:0:0:0:
343,203,55240,2,0,L|391:202,3,37.5000014305115,2|2|2|2,0:0|0:0|0:0|0:0,0:0:0:0:
446,163,55640,2,0,P|457:209|443:249,1,75.0000028610231,2|2,3:0|0:0,0:0:0:0:
374,350,56040,2,0,P|367:313|378:277,1,75.0000028610231,2|2,0:0|0:0,0:0:0:0:
444,322,56340,1,2,0:0:0:0:
444,322,56440,1,2,0:0:0:0:
304,283,56640,6,0,P|242:268|207:269,1,75.0000028610231,2|2,0:0|3:0,0:0:0:0:
202,302,56940,1,2,0:0:0:0:
202,302,57040,1,2,0:0:0:0:
144,232,57240,1,2,0:0:0:0:
217,113,57440,2,0,P|213:160|199:208,1,75.0000028610231,2|2,0:0|0:0,0:0:0:0:
183,40,57840,1,2,0:0:0:0:
294,47,58040,6,0,L|249:44,1,37.5000014305115,2|2,3:0|0:0,0:0:0:0:
183,40,58240,2,0,L|138:37,1,37.5000014305115,2|2,0:0|0:0,0:0:0:0:
78,2,58440,2,0,P|70:40|83:83,1,75.0000028610231,2|2,0:0|0:0,0:0:0:0:
134,139,58840,2,0,P|142:177|129:220,1,75.0000028610231,2|2,0:0|0:0,0:0:0:0:
0,177,59240,6,0,P|17:170|80:181,2,75.0000028610231,2|2|2,3:0|0:0|0:0,0:0:0:0:
73,248,59840,1,2,0:0:0:0:
205,210,60040,2,0,P|188:217|125:206,1,75.0000028610231,2|2,0:0|0:0,0:0:0:0:
266,135,60440,6,0,P|251:197|253:290,1,150.000005722046,2|0,3:0|3:0,0:0:0:0:
251,282,61240,2,0,P|256:279|336:289,1,75.0000028610231,2|2,0:0|0:0,0:0:0:0:
341,352,61640,2,0,B|320:270|373:306|358:188,1,150.000005722046,2|0,3:0|3:0,0:0:0:0:
307,74,62240,1,2,0:0:0:0:
307,74,62440,2,0,P|298:117|305:164,1,75.0000028610231,2|0,0:0|0:0,0:0:0:0:
379,45,62840,6,0,L|207:49,1,150.000005722046,2|0,3:0|3:0,0:0:0:0:
229,48,63640,1,2,0:0:0:0:
221,152,63840,1,2,0:0:0:0:
202,285,64040,6,0,B|108:281|166:235|31:228,1,150.000005722046,2|2,3:0|0:0,0:0:0:0:
153,146,64640,1,0,0:0:0:0:
153,146,64840,2,0,P|186:203|188:228,1,75.0000028610231,2|0,0:0|0:0,0:0:0:0:
222,363,65240,2,0,P|215:319|287:251,1,150.000005722046,2|2,3:0|0:0,0:0:0:0:
370,333,65840,1,0,0:0:0:0:
370,333,66040,2,0,L|287:328,1,75.0000028610231,2|0,0:0|0:0,0:0:0:0:
434,258,66440,6,0,L|278:250,1,150.000005722046,2|2,3:0|0:0,0:0:0:0:
371,105,67040,1,0,0:0:0:0:
371,105,67240,2,0,L|364:193,1,75.0000028610231,2|0,0:0|0:0,0:0:0:0:
440,75,67640,2,0,P|396:34|304:74,1,150.000005722046,2|2,3:0|0:0,0:0:0:0:
166,80,68440,2,0,P|214:89|268:89,1,75.0000028610231,2|0,0:0|0:0,0:0:0:0:
92,60,68840,6,0,B|101:41|129:37|129:37|140:82|128:167,1,150.000005722046,2|2,3:0|0:0,0:0:0:0:
117,301,69440,1,0,0:0:0:0:
117,301,69640,2,0,P|117:222|126:196,1,75.0000028610231,2|0,0:0|0:0,0:0:0:0:
198,345,70040,2,0,P|102:338|40:340,1,150.000005722046,2|0,3:0|0:0,0:0:0:0:
329,224,70840,2,0,P|383:227|416:223,1,75.0000028610231,2|2,0:0|0:0,0:0:0:0:
303,154,71240,6,0,P|294:219|307:311,1,150.000005722046,2|0,3:0|0:0,0:0:0:0:
341,86,71840,1,2,0:0:0:0:
341,86,72040,2,0,P|305:75|263:85,1,75.0000028610231,2|0,0:0|0:0,0:0:0:0:
397,141,72440,2,0,P|418:97|368:6,1,150.000005722046,2|2,3:0|0:0,0:0:0:0:
269,81,73240,2,0,P|305:75|341:86,1,75.0000028610231,2|0,3:0|0:0,0:0:0:0:
287,262,73640,6,0,B|300:144|300:144|322:159|349:155,1,150.000005722046,2|2,3:0|0:0,0:0:0:0:
317,331,74240,1,0,0:0:0:0:
317,331,74440,2,0,P|272:337|234:313,1,75.0000028610231,2|0,0:0|0:0,0:0:0:0:
160,208,74840,1,2,3:0:0:0:
170,327,75040,1,0,0:0:0:0:
114,151,75240,2,0,P|169:135|208:156,1,75.0000028610231,2|0,0:0|0:0,0:0:0:0:
86,220,75640,1,2,3:0:0:0:
86,220,75840,1,0,0:0:0:0:
76,70,76040,6,0,L|87:235,1,150.000005722046,2|2,3:0|0:0,0:0:0:0:
26,16,76640,1,0,0:0:0:0:
26,16,76840,2,0,P|68:-4|110:6,1,75.0000028610231,2|0,0:0|0:0,0:0:0:0:
222,67,77240,2,0,P|184:68|152:50,1,75.0000028610231,2|0,3:0|0:0,0:0:0:0:
333,92,77640,2,0,P|331:54|349:22,1,75.0000028610231,2|0,0:0|0:0,0:0:0:0:
253,176,78040,1,2,3:0:0:0:
253,176,78240,1,0,0:0:0:0:
411,200,78440,6,0,B|404:92|404:92|404:123|376:155,1,150.000005722046,2|2,3:0|0:0,0:0:0:0:
485,258,79040,1,0,0:0:0:0:
477,183,79240,2,0,L|485:262,1,75.0000028610231,2|0,0:0|0:0,0:0:0:0:
407,278,79640,2,0,P|480:287|512:361,1,150.000005722046,2|2,3:0|0:0,0:0:0:0:
314,229,80240,1,0,0:0:0:0:
227,291,80440,2,0,P|154:300|130:331,1,89.9999972534181,2|0,3:0|0:0,0:0:0:0:
325,377,80840,6,0,P|328:308|313:226,1,150.000005722046,2|0,3:0|0:0,0:0:0:0:
313,228,81640,1,8,0:3:0:0:
308,97,81840,2,8,L|299:74,2,25.0000009536744
321,107,82040,5,12,0:0:0:0:
171,36,82306,5,8,0:0:0:0:
144,105,82440,6,0,P|151:165|140:184,2,50.0000019073487,4|8|8,0:3|0:3|0:3,0:0:0:0:
77,135,82840,5,8,0:0:0:0:
141,232,82973,6,2,P|124:225|99:196,1,50.0000019073487,10|6,0:3|0:3,0:0:0:0:
205,268,83240,6,0,P|286:262|315:263,1,75.0000028610231,6|0,0:3|0:0,0:0:0:0:
323,272,83540,1,4,0:3:0:0:
323,272,83640,1,6,0:3:0:0:
399,223,83840,1,4,0:3:0:0:
483,255,84040,2,0,P|490:207|477:176,1,75.0000028610231,6|0,0:3|0:0,0:0:0:0:
378,150,84440,6,0,L|400:228,1,75.0000028610231,6|0,0:3|0:0,0:0:0:0:
403,267,84740,1,0,0:3:0:0:
403,267,84840,1,6,0:3:0:0:
481,182,85040,1,0,0:0:0:0:
318,113,85240,2,0,P|359:80|412:90,1,75.0000028610231,6|0,0:3|0:0,0:0:0:0:
301,118,85640,6,2,P|356:68|403:72,1,119.999996337891,6|0,0:3|0:0,0:0:0:0:
459,108,85940,1,4,0:3:0:0:
459,108,86040,1,6,0:3:0:0:
378,150,86240,1,0,0:0:0:0:
236,48,86440,2,0,P|193:44|145:48,1,75.0000028610231,6|0,0:3|0:0,0:0:0:0:
237,197,86840,6,0,L|235:17,1,150.000005722046,6|6,0:3|0:3,0:0:0:0:
198,267,87440,1,0,0:0:0:0:
198,267,87640,2,2,P|249:276|286:260,1,75.0000028610231,6|0,0:3|0:0,0:0:0:0:
158,334,88040,6,0,P|231:351|341:317,1,179.999994506836,6|6,0:3|0:3,0:0:0:0:
237,197,88640,1,4,0:3:0:0:
198,267,88840,2,0,P|249:276|286:260,1,75.0000028610231,6|4,0:3|0:3,0:0:0:0:
237,84,89240,6,0,L|237:160,1,75.0000028610231,6|4,0:3|0:3,0:0:0:0:
241,200,89540,1,4,0:3:0:0:
241,200,89640,1,4,0:3:0:0:
316,141,89840,1,4,0:3:0:0:
164,84,90040,2,4,P|204:76|247:89,1,75.0000028610231,4|6,0:3|0:3,0:3:0:0:
370,74,90440,6,4,P|399:75|425:70,1,37.5000014305115,4|4,0:3|0:3,0:3:0:0:
458,145,90640,1,4,0:3:0:0:
458,145,90740,1,8,0:3:0:0:
458,145,90840,2,0,P|442:169|433:194,1,37.5000014305115,8|0,0:3|0:0,0:0:0:0:
398,244,91040,1,4,0:3:0:0:
398,244,91140,1,4,0:3:0:0:
398,244,91240,2,0,P|413:268|422:293,1,37.5000014305115,4|8,0:3|0:0,0:0:0:0:
417,363,91440,1,8,0:0:0:0:
374,347,91540,1,4,0:3:0:0:
328,367,91640,5,8,0:0:0:0:
303,243,91840,1,4,0:3:0:0:
312,263,91940,1,4,0:3:0:0:
321,282,92040,2,4,L|229:272,1,75.0000028610231,4|4,0:3|0:3,0:3:0:0:
334,142,92440,1,4,0:3:0:0:
328,367,92640,1,4,0:3:0:0:
131,258,92840,6,0,P|70:249|3:254,1,100,12|0,0:0|0:0,0:0:0:0:
172,329,93240,1,4,0:3:0:0:
218,176,93440,1,0,3:0:0:0:
413,290,93640,1,4,0:3:0:0:
385,278,93740,1,4,0:3:0:0:
357,266,93840,1,8,0:0:0:0:
260,240,94040,6,0,B|329:231|287:197|382:196,1,100,12|4,0:0|0:3,0:0:0:0:
414,38,94440,2,4,P|410:91|426:167,1,100,4|4,0:3|0:3,0:3:0:0:
445,193,94740,1,4,0:3:0:0:
482,243,94840,5,8,0:0:0:0:
464,218,94940,1,8,0:3:0:0:
445,193,95040,1,4,0:3:0:0:
421,211,95140,1,4,0:3:0:0:
400,232,95240,6,0,B|309:230|346:265|265:292,1,150,12|0,0:0|0:0,0:0:0:0:
256,209,95640,2,0,L|268:147,2,50,4|4|8,0:3|0:3|0:0,0:0:0:0:
383,306,96040,1,4,0:3:0:0:
267,291,96240,1,4,0:3:0:0:
408,91,96440,6,0,P|412:155|412:213,1,100,12|4,0:0|0:3,0:0:0:0:
404,235,96740,1,4,0:3:0:0:
404,235,96840,1,8,0:0:0:0:
486,162,97040,1,4,3:3:0:0:
326,164,97240,1,4,0:3:0:0:
408,91,97440,1,4,0:3:0:0:
290,228,97640,6,0,P|254:178|274:113,1,100,12|4,0:0|0:3,0:0:0:0:
408,91,98040,1,4,0:3:0:0:
472,270,98240,1,4,3:0:0:0:
458,262,98340,1,4,0:3:0:0:
444,255,98440,5,8,0:0:0:0:
444,294,98540,1,8,0:3:0:0:
445,333,98640,1,4,0:3:0:0:
445,333,98740,1,4,0:3:0:0:
445,333,98840,6,0,B|353:323|400:369|298:371,1,150,12|0,0:0|0:0,0:0:0:0:
315,241,99240,2,0,P|320:273|315:310,1,50,4|4,0:3|0:3,0:0:0:0:
279,167,99440,1,8,0:0:0:0:
395,188,99640,1,4,0:3:0:0:
199,220,99840,1,4,3:3:0:0:
315,241,100040,6,0,P|320:273|248:306,1,100,12|4,0:0|0:3,0:0:0:0:
395,188,100440,1,4,0:3:0:0:
199,220,100640,1,4,0:3:0:0:
209,197,100740,1,4,0:3:0:0:
208,172,100840,5,8,0:0:0:0:
163,173,100940,1,8,0:3:0:0:
118,174,101040,1,0,0:0:0:0:
73,175,101140,1,8,0:3:0:0:
28,177,101240,6,0,B|56:195|108:187|110:128|110:128|92:69|138:30,1,200,12|8,0:0|0:3,0:0:0:0:
123,46,101740,1,8,0:3:0:0:
126,42,101840,1,8,0:3:0:0:
130,39,101940,1,4,0:3:0:0:
166,34,102040,1,8,0:0:0:0:
279,167,102240,1,4,0:3:0:0:
405,25,102440,5,6,0:3:0:0:
231,102,102640,1,4,0:3:0:0:
311,273,102840,1,4,0:3:0:0:
314,269,102940,1,4,0:3:0:0:
244,239,103040,1,4,0:0:0:0:
358,335,103240,1,12,0:0:0:0:
379,186,103440,1,4,0:3:0:0:
249,344,103640,5,12,0:0:0:0:
435,270,103840,1,4,0:3:0:0:
288,149,104040,1,4,3:3:0:0:
291,158,104140,1,4,0:3:0:0:
337,86,104240,1,12,0:0:0:0:
195,180,104440,1,12,0:0:0:0:
349,251,104640,1,4,0:3:0:0:
237,73,104840,5,12,0:0:0:0:
139,259,105040,1,4,0:3:0:0:
349,251,105240,1,4,0:3:0:0:
337,241,105340,1,4,0:3:0:0:
375,327,105440,1,8,0:0:0:0:
355,147,105640,1,8,0:0:0:0:
300,143,105740,1,8,0:0:0:0:
254,174,105840,1,8,0:3:0:0:
199,178,105940,1,4,0:3:0:0:
152,149,106040,6,0,P|180:178|186:242,1,69.9999978637696,8|0,0:0|0:0,0:0:0:0:
171,341,106240,1,4,0:3:0:0:
229,302,106340,1,4,0:3:0:0:
285,343,106440,6,0,P|318:333|352:335,1,50,14|0,0:3|0:0,0:0:0:0:
353,252,106640,2,0,P|383:268|412:305,1,62.5,6|0,0:3|0:0,0:0:0:0:
480,368,106840,6,0,B|479:345|468:333|468:333|479:318|480:283,1,75.0000028610231,10|0,0:3|0:0,0:0:0:0:
443,119,107040,2,0,B|438:139|454:160|454:160|440:183|446:210,1,87.500000834465,10|0,0:3|0:0,0:0:0:0:
474,49,107240,6,0,P|431:40|411:46,3,50,2|0|0|0,0:0|0:0|0:0|0:0,0:0:0:0:
352,25,107640,2,0,P|309:34|289:28,3,50,2|0|0|0,0:0|0:0|0:0|0:0,0:0:0:0:
227,40,108040,2,0,P|170:36|150:42,1,50,2|0,0:0|0:0,0:0:0:0:
88,70,108240,1,2,0:0:0:0:
88,70,108340,1,2,0:0:0:0:
88,70,108440,6,0,B|140:23|140:23|136:93|136:93|140:99|140:99|137:173|137:173|173:129,1,270.000001029968,12|4,0:0|0:3,0:0:0:0:
234,145,108940,1,4,0:3:0:0:
300,155,109040,1,4,0:3:0:0:
347,293,109240,5,4,0:3:0:0:
280,302,109340,1,4,0:3:0:0:
213,311,109440,1,4,0:3:0:0:
421,342,109640,6,0,B|455:275|402:218|402:218|341:148|420:69,1,270.000001029968,8|4,0:0|0:3,0:0:0:0:
451,54,110140,1,4,0:3:0:0:
506,15,110240,1,4,0:3:0:0:
511,169,110440,5,4,0:3:0:0:
454,132,110540,1,4,0:3:0:0:
397,94,110640,1,4,0:3:0:0:
140,74,110840,6,0,B|185:69|209:25|209:25|185:69|183:107|183:107|212:156|182:219,1,270.000001029968,8|4,0:0|0:3,0:0:0:0:
168,263,111340,1,4,0:3:0:0:
144,326,111440,1,4,0:3:0:0:
315,370,111640,5,4,0:3:0:0:
303,303,111740,1,4,0:3:0:0:
290,236,111840,1,4,0:3:0:0:
383,75,112040,6,0,B|430:115|430:115|333:100|333:100|264:135|264:135|282:196,1,270.000001029968,8|4,0:0|0:3,0:0:0:0:
290,236,112540,1,4,0:3:0:0:
303,303,112640,1,4,0:3:0:0:
414,181,112840,5,4,0:3:0:0:
429,115,112940,1,4,0:3:0:0:
451,51,113040,1,4,0:3:0:0:
507,355,113240,6,0,B|454:362|340:317|463:260|343:209|263:242,1,270.000001029968,8|4,0:0|0:3,0:0:0:0:
216,249,113740,1,4,0:3:0:0:
244,180,113840,1,4,0:3:0:0:
227,45,114040,5,4,0:3:0:0:
271,104,114140,1,4,0:3:0:0:
197,114,114240,1,4,0:3:0:0:
465,3,114440,6,0,B|441:48|441:48|449:124|449:124|451:126|451:126|461:209|461:209|428:261,1,270.000001029968,8|4,0:0|0:3,0:0:0:0:
365,220,114940,1,4,0:3:0:0:
358,147,115040,1,4,0:3:0:0:
311,277,115240,5,4,0:3:0:0:
375,296,115340,1,4,0:3:0:0:
430,256,115440,1,4,0:3:0:0:
274,345,115640,6,0,B|308:305|302:213|236:198|236:198|185:238|229:293,1,270.000001029968,8|4,0:0|0:3,0:0:0:0:
156,304,116140,1,4,0:3:0:0:
106,258,116240,1,4,0:3:0:0:
151,0,116440,5,8,0:0:0:0:
144,73,116540,1,8,0:0:0:0:
139,147,116640,1,8,0:0:0:0:
171,139,116740,1,4,0:3:0:0:
203,130,116840,6,0,P|100:108|46:218,1,225.000008583069,4|0,0:0|0:0,0:0:0:0:
248,221,117240,2,0,P|288:172|274:106,1,75.0000028610231,8|4,0:0|0:3,0:3:0:0:
272,74,117440,1,4,0:3:0:0:
294,293,117640,1,4,0:3:0:0:
216,296,117740,1,4,0:3:0:0:
248,221,117840,2,0,P|283:166|353:171,1,75.0000028610231,4|0,0:3|0:0,0:0:0:0:
363,265,118040,6,0,P|274:251|123:278,1,225.000008583069,8|0,0:0|0:0,0:0:0:0:
438,242,118440,1,4,0:3:0:0:
427,315,118540,1,4,0:3:0:0:
359,344,118640,1,4,0:3:0:0:
344,187,118840,2,0,P|343:150|355:115,1,75.0000028610231,8|4,0:0|0:3,0:3:0:0:
438,242,119040,1,4,0:3:0:0:
443,0,119240,6,0,B|397:-21|325:5|316:58|316:58|360:32|410:63,1,225.000008583069,4|0,0:3|0:0,0:0:0:0:
418,155,119640,2,0,P|372:131|336:83,1,75.0000028610231,8|4,0:0|0:3,0:0:0:0:
416,220,119840,2,0,P|341:185|287:126,1,150.000005722046,4|4,0:3|0:3,0:0:0:0:
230,95,120140,1,4,0:3:0:0:
177,148,120240,1,4,0:3:0:0:
152,282,120440,6,0,B|173:256|214:264|221:292|224:312|215:334|188:356|159:365|128:360|89:340|58:279,1,225.000008583069,8|0,0:0|0:0,0:0:0:0:
289,238,120840,1,4,0:3:0:0:
282,312,120940,1,4,0:3:0:0:
339,362,121040,1,4,0:3:0:0:
430,295,121240,2,0,L|351:290,1,75.0000028610231,8|4,0:0|0:3,0:0:0:0:
218,270,121440,1,4,0:3:0:0:
430,165,121640,6,0,B|377:94|294:140|294:140|247:161|197:121,1,225.000008583069,4|0,0:3|0:0,0:0:0:0:
266,4,122040,2,0,L|258:96,1,75.0000028610231,8|4,0:0|0:3,0:0:0:0:
354,201,122240,1,4,0:3:0:0:
118,67,122440,2,4,P|156:65|216:96,1,75.0000028610231,4|4,0:3|0:3,0:3:0:0:
211,203,122640,1,4,0:3:0:0:
6,170,122840,6,0,B|-12:107|57:98|86:95|110:163|79:201|96:230|1:297,1,269.999991760254,4|0,0:0|0:0,0:0:0:0:
170,279,123240,1,4,0:3:0:0:
105,247,123340,1,4,0:3:0:0:
36,268,123440,1,4,0:3:0:0:
178,272,123640,5,4,0:3:0:0:
106,236,123740,1,4,0:3:0:0:
30,259,123840,1,4,0:3:0:0:
36,268,124040,6,0,B|27:296|34:325|34:325|99:363|183:351|183:351|139:351|110:315,1,269.999991760254,12|0,0:0|0:0,0:0:0:0:
192,130,124440,1,4,0:3:0:0:
185,201,124540,1,4,0:3:0:0:
178,272,124640,1,4,0:3:0:0:
209,126,124840,5,4,0:3:0:0:
200,202,124940,1,4,0:3:0:0:
193,279,125040,6,4,P|229:270|264:275,1,50,4|0,0:3|0:0,0:3:0:0:
254,287,125240,6,0,P|211:298|176:293,2,64.9999970245363,4|4|8,0:0|0:3|0:3,0:0:0:0:
328,236,125540,2,0,P|371:247|406:242,2,64.9999970245363,8|4|8,0:3|0:3|0:3,0:0:0:0:
366,155,125840,1,0,0:0:0:0:
359,143,125940,1,0,0:0:0:0:
356,130,126040,5,8,0:0:0:0:
359,91,126140,1,8,0:0:0:0:
396,54,126240,1,8,0:0:0:0:
467,61,126340,1,8,0:0:0:0:
495,126,126440,6,0,P|463:131|420:116,1,64.9999970245363,6|0,0:0|0:0,0:0:0:0:
327,20,126640,1,4,0:3:0:0:
311,216,126840,1,10,0:0:0:0:
311,216,126940,1,4,0:3:0:0:
311,216,127040,2,4,P|274:228|233:268,1,64.9999970245363,4|4,0:3|0:3,0:3:0:0:
187,184,127240,1,10,0:0:0:0:
187,184,127340,1,4,0:3:0:0:
187,184,127440,2,4,P|166:220|168:275,1,64.9999970245363,4|4,0:3|0:3,0:3:0:0:
156,350,127640,5,10,0:0:0:0:
232,81,127840,1,4,0:3:0:0:
254,358,128040,1,10,0:0:0:0:
229,356,128140,1,4,0:3:0:0:
205,354,128240,1,4,0:3:0:0:
181,352,128340,1,4,0:3:0:0:
156,350,128440,1,10,0:0:0:0:
132,349,128540,1,4,0:3:0:0:
108,347,128640,1,4,0:3:0:0:
83,345,128740,1,4,0:3:0:0:
59,343,128840,6,0,B|72:326|72:326|133:330,1,64.9999970245363,10|0,0:0|0:3,0:0:0:0:
17,247,129040,1,4,0:3:0:0:
181,172,129240,1,10,0:0:0:0:
181,172,129340,1,4,0:3:0:0:
181,172,129440,2,4,L|269:159,1,64.9999970245363,4|4,0:3|0:3,0:3:0:0:
328,109,129640,1,10,0:0:0:0:
328,109,129740,1,4,0:3:0:0:
328,109,129840,2,4,L|416:122,1,64.9999970245363,4|4,0:3|0:3,0:3:0:0:
426,210,130040,5,10,0:0:0:0:
200,73,130240,1,4,0:3:0:0:
497,176,130440,1,10,0:0:0:0:
506,206,130540,1,4,0:3:0:0:
502,238,130640,1,4,0:3:0:0:
486,266,130740,1,4,0:3:0:0:
460,285,130840,1,10,0:0:0:0:
428,283,130940,1,4,0:3:0:0:
395,280,131040,1,4,0:3:0:0:
363,277,131140,1,4,0:3:0:0:
330,274,131240,6,0,P|342:311|374:342,1,64.9999970245363,10|4,0:0|0:3,0:0:0:0:
253,210,131440,2,0,P|235:244|236:289,1,64.9999970245363,8|4,0:0|0:3,0:0:0:0:
293,120,131640,2,0,P|281:83|249:52,1,64.9999970245363,10|4,0:0|0:3,0:0:0:0:
370,184,131840,2,0,P|387:149|386:104,1,64.9999970245363,8|4,0:0|0:3,0:0:0:0:
188,123,132040,1,10,0:0:0:0:
154,91,132140,1,4,0:3:0:0:
126,127,132240,1,8,0:0:0:0:
129,139,132340,1,4,0:3:0:0:
132,151,132440,6,0,P|91:146|33:155,1,64.9999970245363,10|4,0:0|0:3,0:0:0:0:
232,3,132640,2,0,P|273:-2|331:7,1,64.9999970245363,8|4,0:0|0:3,0:0:0:0:
461,125,132840,5,6,0:3:0:0:
436,145,132940,1,4,0:3:0:0:
422,174,133040,1,4,0:3:0:0:
421,206,133140,1,4,0:3:0:0:
433,235,133240,5,6,0:3:0:0:
388,226,133340,1,4,0:3:0:0:
355,257,133440,1,4,0:3:0:0:
359,261,133540,1,4,0:3:0:0:
362,266,133640,6,0,P|393:301|474:305,1,89.9999972534181,10|4,0:0|0:3,0:0:0:0:
350,181,133840,2,0,P|340:246|371:294,1,82.550000969902,10|4,0:0|0:3,0:0:0:0:
266,182,134040,2,0,P|295:170|371:176,1,75.0000028610231,10|4,0:0|0:3,0:0:0:0:
191,181,134240,2,0,P|217:189|293:183,1,67.5000002574921,10|4,0:0|0:3,0:0:0:0:
180,37,134440,2,0,L|189:110,1,59.9999981689454,10|4,0:0|0:3,0:0:0:0:
106,171,134640,2,0,L|116:100,1,52.4999983978272,10|4,0:0|0:3,0:0:0:0:
266,182,134840,5,8,0:0:0:0:
264,208,134940,1,8,0:0:0:0:
234,257,135040,1,4,0:3:0:0:
238,263,135140,1,4,0:3:0:0:
267,312,135240,5,8,0:0:0:0:
298,322,135340,1,8,0:0:0:0:
344,356,135440,1,8,0:3:0:0:
357,354,135540,1,8,0:3:0:0:
386,332,135640,5,4,0:3:0:0:
364,302,135740,1,4,0:3:0:0:
431,267,135840,5,8,0:0:0:0:
377,209,135940,1,8,0:0:0:0:
415,144,136040,1,8,0:0:0:0:
425,143,136240,5,10,0:0:0:0:
386,212,136340,1,10,0:0:0:0:
330,154,136440,1,10,0:0:0:0:
118,86,136840,6,0,L|187:77,1,52.4999983978272,4|0,0:3|0:0,0:0:0:0:
111,95,137040,2,0,L|184:87,1,50,4|0,0:3|0:0,0:0:0:0:
107,104,137440,5,8,0:0:0:0:
102,112,137540,1,8,0:0:0:0:
97,120,137640,1,4,0:3:0:0:
118,227,137840,1,8,0:0:0:0:
258,264,138040,1,2,0:0:0:0:
258,264,138440,5,8,0:0:0:0:
316,241,138540,1,4,0:3:0:0:
370,274,138640,1,8,0:0:0:0:
376,336,138740,1,4,0:3:0:0:
331,379,138840,1,8,0:0:0:0:
331,379,139040,5,0,0:0:0:0:
314,354,139140,1,8,0:0:0:0:
312,309,139240,1,8,0:0:0:0:
409,52,139640,6,0,P|415:76|425:131,1,50,2|0,0:0|0:0,0:0:0:0:
417,49,139840,2,0,P|423:73|433:128,1,50,2|0,0:0|0:0,0:0:0:0:
347,160,140040,6,0,L|304:156,1,25,0|0,3:0|3:0,0:0:0:0:
346,176,140140,2,0,L|370:140,1,25,0|0,3:0|0:0,0:0:0:0:
332,167,140240,2,0,L|350:206,1,25,0|0,3:0|0:0,0:0:0:0:
253,119,140440,5,4,0:3:0:0:
239,166,140540,1,4,0:3:0:0:
203,131,140640,1,4,0:3:0:0:
85,210,140840,5,8,0:0:0:0:
90,249,140940,1,4,0:3:0:0:
111,283,141040,1,8,0:0:0:0:
147,299,141140,1,4,0:3:0:0:
187,294,141240,5,8,0:0:0:0:
220,318,141340,1,4,0:3:0:0:
259,322,141440,1,8,0:0:0:0:
283,354,141540,1,4,0:3:0:0:
322,345,141640,5,8,0:0:0:0:
354,321,141740,1,4,0:3:0:0:
393,312,141840,1,8,0:0:0:0:
430,326,141940,1,4,0:3:0:0:
456,356,142040,5,8,0:0:0:0:
450,306,142140,1,4,0:3:0:0:
479,265,142240,1,8,0:0:0:0:
485,215,142340,1,4,0:3:0:0:
452,177,142440,6,0,P|406:159|333:165,1,100,4|4,0:0|0:3,0:0:0:0:
333,185,142740,1,4,0:3:0:0:
376,83,142840,1,8,0:0:0:0:
307,245,143040,2,0,P|272:209|269:179,1,50,4|0,0:0|0:0,0:0:0:0:
403,21,143240,2,0,P|438:57|441:87,1,50,4|0,0:3|0:0,0:0:0:0:
333,185,143440,1,8,0:0:0:0:
376,83,143640,5,4,0:0:0:0:
394,318,143840,1,4,0:3:0:0:
348,296,143940,1,4,0:3:0:0:
388,267,144040,1,8,0:0:0:0:
345,368,144240,1,4,0:2:0:0:
280,278,144440,1,4,0:3:0:0:
459,288,144640,1,8,0:0:0:0:
268,354,144840,5,4,0:0:0:0:
268,354,144940,1,4,0:3:0:0:
268,354,145040,2,0,P|209:361|154:341,1,100,4|8,0:3|0:0,0:0:0:0:
286,110,145440,2,0,L|276:198,1,50,4|0,0:0|0:0,0:0:0:0:
274,228,145640,2,0,L|284:316,1,50,4|0,0:0|0:0,0:0:0:0:
362,107,145840,1,8,0:0:0:0:
212,115,146040,5,8,0:0:0:0:
286,110,146140,1,8,0:0:0:0:
145,152,146240,2,0,P|136:114|154:66,1,50,4|0,0:3|0:0,0:0:0:0:
290,35,146440,2,0,L|284:147,1,75.0000028610231,2|0,0:0|0:0,0:0:0:0:
164,296,146640,1,4,0:3:0:0:
164,296,147040,5,8,0:0:0:0:
189,280,147140,1,4,0:3:0:0:
179,229,147240,5,8,0:0:0:0:
201,247,147340,1,4,0:3:0:0:
241,214,147440,5,8,0:0:0:0:
230,241,147540,1,4,0:3:0:0:
272,272,147640,5,8,0:0:0:0:
243,270,147740,1,4,0:3:0:0:
328,337,147840,6,0,P|327:237|378:219,1,129.999994049073,6|0,0:3|0:0,0:0:0:0:
438,302,148140,1,0,0:0:0:0:
438,302,148240,2,0,P|407:289|354:289,1,64.9999970245363,6|0,0:3|0:0,0:0:0:0:
321,44,148640,6,0,P|297:51|263:118,1,64.9999970245363,10|0,0:0|0:0,0:0:0:0:
296,43,148840,2,0,P|274:55|259:129,1,64.9999970245363,10|0,0:0|0:0,0:0:0:0:
328,199,149240,5,4,0:3:0:0:
388,250,149340,1,4,0:3:0:0:
425,181,149440,2,0,P|428:148|429:89,1,64.9999970245363,6|0,0:3|0:0,0:0:0:0:
256,227,149640,2,0,P|227:240|198:255,1,64.9999970245363,2|0,0:0|0:0,0:0:0:0:
378,328,149840,2,0,P|404:346|432:364,1,64.9999970245363,2|0,0:0|0:0,0:0:0:0:
277,48,150240,6,0,P|259:66|267:145,1,80,10|0,0:0|0:0,0:0:0:0:
254,59,150440,2,0,P|240:80|262:155,1,80,10|0,0:0|0:0,0:0:0:0:
183,349,150840,1,10,0:3:0:0:
160,295,150940,1,10,0:3:0:0:
189,242,151040,5,8,0:3:0:0:
188,258,151140,1,8,0:3:0:0:
182,273,151240,1,4,0:3:0:0:
173,286,151340,1,4,0:3:0:0:
160,295,151440,5,8,0:3:0:0:
207,291,151540,1,8,0:3:0:0:
254,288,151640,1,4,0:3:0:0:
301,285,151740,1,4,0:3:0:0:
376,261,151840,6,2,B|389:279|383:321|287:330|286:264|292:224|313:186|364:128|460:193|471:250|422:333,1,345.000006580353,8|0,0:0|0:0,0:0:0:0:
421,106,152640,5,4,0:3:0:0:
394,55,152740,1,4,0:3:0:0:
344,30,152840,1,4,3:3:0:0:
288,37,152940,1,4,0:3:0:0:
248,79,153040,1,4,0:3:0:0:
260,133,153140,1,4,0:3:0:0:
228,179,153240,1,4,3:3:0:0:
173,189,153340,1,4,0:3:0:0:
127,157,153440,5,4,0:3:0:0:
182,147,153540,1,4,0:3:0:0:
228,179,153640,1,4,3:3:0:0:
240,234,153740,1,4,0:3:0:0:
210,282,153840,6,8,L|161:280,1,28.7500005483627,8|8,0:3|0:3,0:3:0:0:
175,291,153940,2,8,L|126:289,1,28.7500005483627,8|8,0:3|0:3,0:3:0:0:
141,279,154040,2,8,L|72:274,1,57.5000010967255,8|0,0:0|0:0,0:0:0:0:
343,335,154240,5,8,0:0:0:0:
337,277,154340,1,4,0:3:0:0:
376,234,154440,2,4,P|339:255|288:262,1,57.5000010967255,4|0,0:3|0:0,0:3:0:0:
454,173,154640,5,8,0:0:0:0:
460,115,154740,1,8,0:0:0:0:
421,72,154840,2,0,P|458:93|509:100,1,57.5000010967255,4|0,0:3|0:0,0:0:0:0:
316,20,155040,5,4,0:3:0:0:
316,20,155440,1,4,0:3:0:0:
331,92,156040,5,8,0:0:0:0:
273,85,156140,1,8,0:0:0:0:
216,76,156240,2,0,P|249:103|218:203,1,150,4|0,0:3|0:0,0:0:0:0:
158,202,156640,5,10,3:2:0:0:
158,202,156840,1,0,0:0:0:0:
346,176,157040,2,0,L|368:247,1,50,0|0,3:0|0:0,0:0:0:0:
398,320,157240,1,6,0:3:0:0:
158,202,157440,5,0,0:0:0:0:
96,234,157640,2,0,P|90:179|125:140,1,100,2|0,3:0|3:0,0:0:0:0:
253,151,158040,1,10,0:0:0:0:
253,151,158140,1,10,0:0:0:0:
253,151,158240,2,0,B|288:218|288:218|268:235|236:193,1,100,4|10,3:3|0:0,0:0:0:0:
247,288,158540,1,10,0:0:0:0:
247,288,158640,2,0,P|303:290|361:212,1,150,6|0,3:3|0:0,0:0:0:0:
346,154,159040,5,2,3:2:0:0:
335,308,159240,1,8,0:0:0:0:
167,304,159440,1,0,0:0:0:0:
168,254,159540,1,8,0:0:0:0:
199,217,159640,2,0,P|156:224|135:244,1,50,2|0,0:0|0:0,0:0:0:0:
222,102,159840,2,0,L|215:227,1,100,8|0,0:0|0:0,0:0:0:0:
290,102,160240,2,0,L|295:201,1,100,2|0,0:0|0:0,0:0:0:0:
312,217,160540,2,0,P|337:217|360:226,1,50,2|0,0:0|3:0,0:0:0:0:
304,16,160840,5,8,0:0:0:0:
274,11,160940,1,4,0:3:0:0:
239,17,161040,1,8,0:0:0:0:
211,77,161140,1,4,0:3:0:0:
216,142,161240,6,0,P|154:148|99:145,1,100,8|8,0:0|0:3,0:0:0:0:
82,138,161540,1,4,0:3:0:0:
140,69,161640,1,8,0:0:0:0:
169,344,161940,5,4,0:3:0:0:
169,344,162040,2,0,P|216:314|273:326,1,100,4|0,0:3|0:0,0:0:0:0:
324,341,162340,1,0,0:0:0:0:
333,345,162440,2,0,B|323:264|369:284|355:186,1,150,8|0,0:0|0:0,0:0:0:0:
274,228,162840,6,0,P|226:219|175:227,1,100,4|8,3:3|0:0,0:0:0:0:
408,318,163240,1,4,3:3:0:0:
348,118,163440,2,0,P|343:170|359:233,1,100,8|0,0:0|3:0,0:0:0:0:
398,46,163840,2,0,B|273:17|321:95|176:58,1,200,4|4,0:3|0:3,0:0:0:0:
348,118,164440,1,8,3:2:0:0:
201,73,164640,1,4,0:3:0:0:
236,78,164740,1,4,0:3:0:0:
269,71,164840,1,8,0:0:0:0:
269,71,165240,5,4,0:3:0:0:
235,159,165440,2,8,L|235:228,1,50
329,239,165640,2,0,B|275:235|298:274|239:277,1,100
212,345,166040,2,0,P|143:341|141:208,1,200,8|0,0:0|3:2,0:0:0:0:
154,164,166540,1,4,0:3:0:0:
154,164,166640,1,4,0:3:0:0:
266,232,166840,5,0,3:0:0:0:
266,232,167040,2,0,P|228:266|152:266,1,100,4|0,0:3|3:0,0:0:0:0:
325,142,167440,1,8,0:0:0:0:
342,193,167540,1,8,0:0:0:0:
361,244,167640,1,4,3:3:0:0:
318,64,167840,2,8,P|342:65|366:75,1,50
255,28,168040,2,0,P|230:28|171:146,1,150,4|0,3:3|0:0,0:0:0:0:
244,210,168440,6,0,L|243:108,1,100,4|0,0:3|0:0,0:0:0:0:
149,296,168840,6,0,P|124:285|92:285,1,39.9999987792969,8|4,0:0|0:3,0:0:0:0:
244,210,168973,6,0,P|266:193|280:165,1,39.9999987792969,8|4,0:0|0:3,0:0:0:0:
285,336,169106,6,0,P|287:363|303:388,1,39.9999987792969,8|4,0:0|0:3,0:0:0:0:
224,281,169240,5,8,0:0:0:0:
224,281,170240,5,8,0:0:0:0:
274,232,170340,1,4,0:3:0:0:
331,271,170440,1,8,0:0:0:0:
381,222,170540,1,4,0:3:0:0:
432,269,170640,2,0,P|447:199|396:155,1,100,8|8,0:0|0:3,0:0:0:0:
378,136,170940,1,4,0:3:0:0:
308,127,171040,6,0,P|262:111|201:119,1,100,8|8,0:0|0:0,0:0:0:0:
143,129,171340,1,4,0:3:0:0:
131,119,171440,2,0,L|134:9,1,100,0|0,0:3|0:0,0:0:0:0:
191,191,171740,1,0,0:0:0:0:
203,199,171840,6,0,L|206:309,1,100,8|0,0:0|0:0,0:0:0:0:
372,168,172240,1,4,3:3:0:0:
372,168,172440,2,0,B|342:171|324:155|324:155|303:171|269:168,1,100,8|4,0:0|3:3,0:0:0:0:
427,218,172740,1,8,0:0:0:0:
427,218,172840,2,0,P|447:167|429:116,1,100,4|0,0:3|3:0,0:0:0:0:
265,69,173240,6,0,L|280:186,1,100,4|0,0:3|3:0,0:0:0:0:
306,237,173540,1,8,0:0:0:0:
306,237,173640,2,0,L|293:315,1,50,8|8,0:3|0:0,0:0:0:0:
207,345,173840,2,0,B|264:328|251:365|325:359,1,100,10|8,0:0|0:3,0:0:0:0:
70,345,174140,1,4,0:3:0:0:
70,345,174240,6,0,B|90:293|154:286|154:286|109:334|147:411,1,200,12|0,0:0|3:0,0:0:0:0:
303,359,174840,1,4,0:3:0:0:
255,352,174940,1,4,0:3:0:0:
207,345,175040,1,4,0:3:0:0:
372,309,175240,1,0,0:0:0:0:
273,182,175440,2,0,B|269:221|269:221|273:226|273:226|269:225|269:225|265:225|265:225|268:229|268:229|264:281,1,100,8|0,0:0|0:0,0:0:0:0:
432,163,175840,1,2,0:0:0:0:
432,163,175940,1,2,0:0:0:0:
432,163,176040,6,0,B|316:158|378:84|232:84,2,200,6|2|8,0:3|3:0|0:0,0:0:0:0:
425,197,176940,1,8,0:0:0:0:
418,231,177040,1,4,0:3:0:0:
269,167,177240,1,8,0:0:0:0:
275,211,177340,1,8,0:0:0:0:
281,255,177440,2,0,B|243:238|218:243|218:243|192:292|132:289,1,150,4|0,0:3|0:0,0:0:0:0:
119,114,177840,6,0,B|148:165|155:217|155:217|122:226|96:206,1,150,10|0,0:0|0:0,0:0:0:0:
63,64,178240,2,0,P|91:45|166:50,1,100,10|0,0:0|0:0,0:0:0:0:
293,146,178840,6,0,B|300:32|300:32|311:55|338:66,1,150,8|0,0:0|0:0,0:0:0:0:
346,199,179240,2,0,P|291:220|229:183,1,100,8|0,0:0|0:0,0:0:0:0:
444,169,179640,5,8,0:0:0:0:
450,187,179740,1,4,0:3:0:0:
432,223,179840,1,8,0:0:0:0:
426,241,179940,1,4,0:3:0:0:
458,263,180040,2,0,P|397:262|336:285,1,100,2|0,0:0|0:0,0:0:0:0:
264,354,180340,1,0,0:0:0:0:
264,354,180440,2,0,P|291:312|363:271,1,129.999994049073,2|0,0:0|0:0,0:0:0:0:
359,271,181040,5,8,0:0:0:0:
321,210,181140,1,8,0:0:0:0:
254,236,181240,2,0,P|176:225|177:111,1,194.999991073609,8|0,0:0|0:0,0:0:0:0:
303,107,181640,6,0,P|251:143|211:186,1,100,6|0,3:3|0:0,0:0:0:0:
210,318,182040,1,4,3:3:0:0:
244,312,182140,1,4,0:3:0:0:
278,306,182240,2,8,P|201:298|150:303,1,100,8|0,0:0|3:0,0:0:0:0:
349,357,182640,1,4,0:3:0:0:
398,205,182840,6,0,P|400:137|410:92,1,100,4|0,3:3|0:0,0:0:0:0:
349,357,183240,1,8,3:2:0:0:
345,256,183440,2,0,P|392:277|450:260,1,100,4|0,0:3|3:0,0:0:0:0:
301,191,183840,6,0,B|189:168|261:105|123:81,1,200,4|4,0:3|0:3,0:0:0:0:
143,169,184340,1,4,0:3:0:0:
143,169,184440,1,4,3:3:0:0:
301,107,184640,1,0,0:0:0:0:
74,209,184840,2,0,P|123:247|169:245,1,100,8|0,3:2|0:0,0:0:0:0:
383,256,185240,6,0,P|334:218|288:220,1,100,0|4,3:0|0:3,0:0:0:0:
236,230,185540,1,4,0:3:0:0:
231,231,185640,1,0,3:0:0:0:
464,258,185840,1,4,0:3:0:0:
451,300,185940,1,4,0:3:0:0:
417,330,186040,6,4,B|402:294|358:291|324:313|324:313|298:369|228:355,1,200,4|8,3:3|3:2,0:3:0:0:
125,297,186640,1,0,0:0:0:0:
260,182,186840,2,0,L|256:281,1,100,4|0,3:3|3:0,0:0:0:0:
401,141,187240,6,0,B|378:143|355:120|355:120|332:131|295:124,1,100,4|4,3:2|0:3,0:0:0:0:
320,53,187540,1,4,0:3:0:0:
320,48,187640,1,4,3:3:0:0:
343,194,187840,1,0,0:0:0:0:
450,88,188040,2,0,P|470:153|452:190,1,100,8|4,3:2|0:3,0:0:0:0:
346,318,188440,5,4,3:3:0:0:
346,318,188540,1,4,0:3:0:0:
346,318,188640,2,0,B|316:270|356:223|356:223|426:218|452:288,1,200,8|4,0:0|0:3,0:0:0:0:
277,340,189240,2,0,P|263:278|276:221,1,100,4|0,3:3|0:0,0:0:0:0:
160,164,189640,5,8,3:2:0:0:
154,258,189840,2,0,B|180:217|160:164|160:164|215:109|297:159,1,200,4|4,0:3|0:3,0:0:0:0:
84,205,190440,1,0,3:0:0:0:
191,320,190640,1,4,0:3:0:0:
153,332,190740,1,4,0:3:0:0:
111,313,190840,6,0,B|178:278|247:311|247:311|227:284|234:249,1,200,4|8,3:3|3:2,0:0:0:0:
400,276,191440,1,0,0:0:0:0:
400,276,191640,2,0,P|338:265|282:273,1,100,0|4,3:0|0:3,0:0:0:0:
362,123,191940,1,4,0:3:0:0:
362,123,192040,6,0,L|355:222,1,100,2|8,3:0|0:3,0:0:0:0:
390,351,192340,1,4,0:3:0:0:
351,338,192440,1,8,0:0:0:0:
332,344,192540,1,8,0:3:0:0:
300,368,192640,1,4,0:3:0:0:
281,362,192740,1,4,0:3:0:0:
245,343,192840,6,4,L|200:346,1,29.9999990844727,4|4,0:3|0:3,0:3:0:0:
121,241,193040,2,8,L|150:239,1,29.9999990844727,8|0,0:0|0:0,0:0:0:0:
362,123,193240,5,4,3:3:0:0:
297,247,193440,2,0,B|200:243|250:159|117:161,1,200,8|8,0:0|0:0,0:0:0:0:
91,163,193940,1,8,0:0:0:0:
101,61,194040,6,0,B|147:39|147:39|173:30|204:46,1,100,4|0,3:3|0:0,0:0:0:0:
345,138,194440,2,0,P|297:126|243:84,1,100,4|0,3:3|0:0,0:0:0:0:
420,109,194840,1,8,3:2:0:0:
428,137,194940,1,4,0:3:0:0:
415,180,195040,6,0,B|418:162|431:149|470:147|497:178|492:215|470:245|445:258|396:257,1,200,8|4,0:0|0:3,0:0:0:0:
297,247,195640,2,0,B|265:225|205:230|205:230|205:345|205:345|258:360|298:338,1,300,8|4,3:2|0:3,0:0:0:0:
136,283,196440,1,8,3:2:0:0:
232,161,196640,6,0,B|271:144|267:91|216:74|182:113|182:113|149:141|81:116,1,200,4|4,0:3|0:3,0:0:0:0:
131,92,197140,1,4,0:3:0:0:
131,57,197240,1,8,3:2:0:0:
147,198,197440,1,0,0:3:0:0:
24,136,197640,6,0,P|1:77|18:35,1,100,4|0,3:3|0:0,0:0:0:0:
253,19,198040,1,8,3:2:0:0:
285,92,198240,1,4,0:3:0:0:
285,92,198340,2,0,B|265:105|234:99|234:99|292:109|298:190,1,150,4|4,0:3|0:3,0:0:0:0:
306,247,198740,1,4,0:3:0:0:
278,275,198840,5,8,3:2:0:0:
221,178,199040,1,0,0:0:0:0:
285,92,199240,1,4,3:3:0:0:
188,256,199440,1,0,0:0:0:0:
160,47,199640,1,8,3:2:0:0:
341,146,199840,2,0,P|309:165|272:167,1,50
412,67,200040,6,0,B|393:122|433:117|403:203,1,100,4|4,3:2|0:3,0:0:0:0:
403,237,200340,1,4,0:3:0:0:
401,251,200440,1,8,3:2:0:0:
480,105,200640,1,0,0:0:0:0:
364,14,200840,6,0,P|416:-5|467:18,1,100,8|4,3:2|0:3,0:0:0:0:
210,17,201240,1,8,0:0:0:0:
208,56,201340,1,4,0:3:0:0:
228,8,201440,2,0,L|160:19,1,50,8|0,0:0|0:0,0:0:0:0:
149,124,201640,6,0,L|271:141,1,100,2|4,3:0|0:3,0:0:0:0:
87,65,202040,1,8,0:0:0:0:
112,206,202240,1,0,0:0:0:0:
105,56,202440,1,8,0:0:0:0:
185,217,202640,1,4,0:3:0:0:
14,158,202840,1,8,0:0:0:0:
240,163,203040,6,0,P|258:242|146:286,1,200,8|4,0:0|0:3,0:0:0:0:
185,217,203540,1,4,0:3:0:0:
180,214,203640,1,8,0:0:0:0:
361,234,203840,1,0,0:0:0:0:
259,70,204040,2,0,P|236:109|250:182,1,100,8|4,0:0|0:3,0:0:0:0:
387,140,204440,1,8,0:0:0:0:
351,111,204540,1,4,0:3:0:0:
310,130,204640,6,8,B|425:138|379:52|499:69,1,200
465,139,205140,1,8,0:0:0:0:
466,215,205240,1,8,0:0:0:0:
466,215,205640,1,8,0:0:0:0:
254,243,206440,6,2,B|289:230|294:172|241:143|204:167|204:167|145:216|103:173|103:173|89:130|130:102|158:119,1,345.000006580353,4|4,0:3|0:3,0:0:0:0:
371,40,207240,6,0,L|364:95,1,38.3333340644837,8|4,0:0|0:3,0:0:0:0:
417,134,207373,6,0,L|424:189,1,38.3333340644837,8|4,0:0|0:3,0:0:0:0:
375,231,207506,6,0,L|368:286,1,38.3333340644837,8|4,0:0|0:3,0:0:0:0:
411,333,207640,5,4,0:3:0:0:
407,355,207840,1,0,3:0:0:0:
286,218,208040,5,8,0:0:0:0:
136,189,208240,2,0,L|126:121,1,57.5000010967255,4|0,0:3|0:0,0:0:0:0:
228,263,208440,1,8,0:0:0:0:
236,278,208540,1,8,0:0:0:0:
244,290,208640,6,0,L|234:358,1,57.5000010967255,4|0,0:3|0:0,0:0:0:0:
127,202,208840,2,0,L|118:145,1,57.5000010967255,2|0,0:0|0:0,0:0:0:0:
250,301,209040,2,0,L|239:375,1,57.5000010967255,2|0,0:0|0:0,0:0:0:0:
120,214,209240,2,0,L|110:151,1,57.5000010967255,2|0,0:0|0:0,0:0:0:0:
190,45,209440,5,8,0:0:0:0:
227,23,209540,1,8,0:0:0:0:
269,24,209640,1,8,0:3:0:0:
305,47,209740,1,8,0:3:0:0:
324,85,209840,1,8,0:0:0:0:
310,123,209940,1,4,0:3:0:0:
318,168,210040,1,4,0:3:0:0:
295,214,210140,1,4,0:3:0:0:
331,283,210240,6,0,L|295:286,1,28.7500005483627,0|0,3:0|0:0,0:0:0:0:
342,276,210340,2,0,L|306:279,1,28.7500005483627,0|0,3:0|0:0,0:0:0:0:
316,349,210640,6,0,L|279:352,2,33.750000128746,2|0|2,0:0|0:0|0:0,0:0:0:0:
362,343,210940,1,2,0:0:0:0:
362,343,211040,1,2,0:0:0:0:
316,349,211440,5,6,0:3:0:0:
282,351,211540,1,6,0:3:0:0:
242,332,211640,1,10,0:0:0:0:
297,142,211840,2,0,L|289:271,1,115.000002193451,10|8,0:0|0:0,0:0:0:0:
337,71,212140,1,8,0:3:0:0:
297,48,212240,2,0,L|225:54,1,57.5000010967255,4|0,0:3|0:0,0:0:0:0:
156,64,212440,6,0,L|102:58,2,28.7500005483627,8|8|4,0:3|0:3|0:3,0:0:0:0:
83,142,212640,2,0,L|136:137,2,28.7500005483627,8|4|4,0:3|0:3|0:3,0:0:0:0:
142,227,212840,6,0,L|71:215,2,57.5000010967255,0|0|0,3:0|3:0|3:0,0:0:0:0:
230,279,213240,1,8,0:0:0:0:
320,265,213440,1,4,0:3:0:0:
377,352,213640,1,4,0:3:0:0:
354,349,213740,1,4,0:3:0:0:
331,346,213840,1,4,0:3:0:0:
424,279,214040,1,8,0:0:0:0:
490,372,214240,1,8,0:0:0:0:
426,203,214440,5,4,0:3:0:0:
482,102,214640,2,0,L|499:63,3,28.7500005483627,8|8|4|4,0:3|0:3|0:3|0:3,0:3:0:0:
486,47,214840,1,8,0:0:0:0:
349,28,215040,1,2,0:2:0:0:
215,10,215240,5,8,0:0:0:0:
225,48,215340,1,8,0:0:0:0:
208,84,215440,1,2,0:0:0:0:
173,171,215640,2,0,L|178:212,3,28.7500005483627,8|8|4|4,0:3|0:3|0:3|0:3,0:0:0:0:
167,236,215840,2,0,P|165:268|144:302,2,57.5000010967255,2|8|4,0:0|0:3|0:3,0:0:0:0:
254,283,216140,1,4,0:3:0:0:
254,283,216240,5,8,0:0:0:0:
254,283,216640,1,0,3:0:0:0:
254,283,217040,5,4,0:3:0:0:
303,285,217140,1,4,0:3:0:0:
343,256,217240,1,4,0:3:0:0:
358,210,217340,1,4,0:3:0:0:
342,163,217440,1,4,0:3:0:0:
328,117,217540,1,4,0:3:0:0:
350,74,217640,1,4,0:3:0:0:
397,59,217740,1,4,0:3:0:0:
440,81,217840,5,4,0:3:0:0:
440,81,218240,1,2,0:0:0:0:
462,153,218440,2,0,L|466:200,3,25,0|0|0|0,3:0|3:0|3:0|3:0,0:0:0:0:
477,259,218640,6,0,B|504:245|538:270|533:306|510:332|479:341|445:332|412:291|412:291|396:269|361:261|336:273|314:305|314:305|258:360|180:325|193:249|193:249|235:242|257:264|257:264|264:219|241:193|241:193|213:152|233:109,1,719.999978027344,2|0,0:0|0:0,0:0:0:0:
341,152,222040,1,0,0:0:0:0:
341,152,222240,2,0,L|280:147,1,44.999998626709
314,75,222640,6,0,B|367:82|367:82|395:102|395:102|445:100,1,134.999995880127,2|0,0:0|0:0,0:0:0:0:
439,203,223440,2,0,B|391:201|391:201|363:221|363:221|317:224|317:224|340:232|348:273|324:300|282:301|249:274|238:226|256:193|256:193|276:166|276:125|261:96|218:78|172:96|160:138|173:167|173:167|149:150|133:156,1,584.999982147217,2|0,0:0|0:0,0:0:0:0:
138,154,226240,6,2,B|146:163|145:174|145:174|139:176|135:185|135:185|143:185|150:191|150:191|136:195|126:204|126:204|141:198|156:212|156:212|136:209|118:222|118:222|142:212|173:233|173:233|139:226|102:249,1,275,0|0,0:0|0:0,0:0:0:0:
158,305,227440,6,0,B|191:316|231:294|231:294|265:314|265:314|292:285|292:285|340:299|382:270|382:270|366:222|323:224,1,324.999985122681,6|0,0:3|0:0,0:0:0:0:
329,223,228640,6,0,B|324:161|378:130|378:130|318:150|264:109|267:73|267:73|313:86|341:63|341:63,1,324.999985122681,6|0,0:3|0:0,0:0:0:0:
334,67,229840,6,0,B|327:17|269:-20|206:10|198:69|198:69|215:135|156:179|111:159,1,324.999985122681,6|0,0:3|0:0,0:0:0:0:
139,163,231040,6,0,P|177:168|204:182,1,64.9999970245363,6|0,0:3|0:0,0:0:0:0:
241,249,231440,2,0,P|203:253|176:267,1,64.9999970245363,2|0,0:0|0:0,0:0:0:0:
312,186,231840,1,2,0:0:0:0:
312,186,232040,1,2,0:0:0:0:
403,247,232240,6,0,B|393:220|438:184|472:196|499:253|478:305|413:326,1,194.999991073609,6|0,0:3|0:0,0:0:0:0:
377,368,233040,2,0,L|297:358,1,64.9999970245363,6|0,0:3|0:0,0:0:0:0:
229,361,233440,6,0,B|264:347|266:314|251:286|208:271|169:308|158:342|158:342|181:309|178:261|140:230|90:238,1,324.999985122681,6|0,0:3|0:0,0:0:0:0:
107,236,234640,6,0,B|136:220|169:184|170:141|170:141|163:135|163:135|169:130|169:130|164:127|164:127|177:138|177:138|200:182|252:188|278:164|285:115|235:107,1,324.999985122681,6|0,0:3|0:0,0:0:0:0:
240,108,235840,6,0,B|230:75|276:37|311:55|324:84|324:84|328:90|328:90|320:87|320:87|322:95|322:95|333:96|341:129|332:171|332:171|350:173|364:165,1,259.999988098145,6|2,0:3|0:0,0:0:0:0:
431,152,236840,1,2,0:0:0:0:
409,240,237040,6,0,B|360:253|360:253|347:272|347:272|295:262|295:262|308:270|306:298|297:316|267:331|239:326|215:309|203:278|216:225|239:202|252:196|252:196|216:187|181:220,1,400,6|0,0:3|0:0,0:0:0:0:
207,201,238240,6,0,B|225:143|271:114|271:114|225:143|159:110|181:17|231:10|311:6|359:46|357:109,1,400,6|0,0:3|0:0,0:0:0:0:
349,72,239440,6,0,B|380:60|425:81|453:156|466:205|389:262|333:214|342:160|342:160|333:214|286:253,1,400,6|0,0:3|0:0,0:0:0:0:
291,248,240640,6,0,P|316:278|329:330,1,80,6|0,0:3|0:0,0:0:0:0:
205,239,241040,2,0,P|218:203|256:166,1,80,2|0,0:0|0:0,0:0:0:0:
241,318,241440,1,2,0:0:0:0:
241,318,241640,1,2,0:0:0:0:
137,323,241840,6,0,B|88:350|43:341|16:306|27:248|27:248|63:281|108:263,1,240,6|0,0:3|0:0,0:0:0:0:
98,125,242640,2,0,L|73:219,1,80,6|0,0:3|0:0,0:0:0:0:
36,72,243040,6,0,B|75:32|155:32|182:96|182:96|178:101|178:101|221:154|285:148|312:129|312:46|240:63,1,400,6|0,0:3|0:0,0:0:0:0:
244,62,244240,1,6,0:3:0:0:
256,192,244340,12,4,245440,0:3:0:0:
168,104,246240,5,8,0:0:0:0:
245,62,246440,1,4,0:3:0:0:
362,85,246640,6,0,B|391:39|446:78|447:126|406:149|375:162|334:148|334:148|361:173|358:208,1,240,4|0,0:2|0:0,0:0:0:0:
357,243,247440,2,0,P|327:239|290:194,1,80,4|0,0:3|0:0,0:0:0:0:
393,228,247840,6,0,P|326:238|289:193,1,120,0|0,1:0|0:0,0:0:0:0:
229,214,248240,2,0,P|253:150|311:141,1,120,4|0,0:3|0:0,0:0:0:0:
330,75,248640,2,0,P|366:132|345:186,1,120,2|0,0:0|0:0,0:0:0:0:
393,228,249040,6,0,B|362:256|311:242|293:203|293:203|299:257|257:281|222:281,1,240,4|0,0:3|0:0,0:0:0:0:
208,136,249840,2,0,L|233:232,1,80,4|0,0:3|0:0,0:0:0:0:
143,96,250240,6,0,P|206:59|268:87,1,120,0|0,1:0|0:0,0:0:0:0:
319,17,250640,2,0,L|299:157,1,120,4|0,0:3|0:0,0:0:0:0:
376,87,251040,2,0,P|433:78|467:104,1,80,2|2,0:0|0:0,0:0:0:0:
411,297,251440,6,0,B|382:229|412:142|412:142|467:171|464:232,1,240,6|0,0:3|0:0,0:0:0:0:
456,347,252240,2,0,P|404:364|369:351,1,80,4|0,0:0|0:0,0:0:0:0:
207,310,252640,6,0,P|259:293|294:306,1,80,0|0,1:0|0:0,0:0:0:0:
233,142,253040,2,0,L|242:240,1,80,4|0,0:3|0:0,0:0:0:0:
175,82,253440,1,2,0:0:0:0:
236,30,253640,1,2,0:0:0:0:
398,89,253840,6,0,B|288:83|288:83|315:112|312:159,1,160,6|0,0:3|0:0,0:0:0:0:
453,139,254440,1,2,0:0:0:0:
453,139,254640,2,0,P|471:96|464:55,1,80,6|0,0:3|0:0,0:0:0:0:
384,165,255040,6,0,P|410:199|515:181,1,160,0|4,1:0|0:3,0:0:0:0:
453,139,255640,1,0,0:0:0:0:
427,280,255840,1,0,1:0:0:0:
288,241,256040,1,4,0:3:0:0:
178,340,256240,6,0,B|131:360|94:328|94:328|152:260|106:189,1,240,6|0,0:3|0:0,0:0:0:0:
261,156,257040,2,0,P|208:176|164:167,1,80,4|0,0:3|0:0,0:0:0:0:
197,12,257440,6,0,B|206:102|206:102|180:93|148:108,1,120,0|0,1:0|0:0,0:0:0:0:
96,100,257840,2,0,B|82:96|66:102|66:102|75:12,1,120,4|0,0:3|0:0,0:0:0:0:
100,166,258240,2,0,P|149:174|187:162,1,80,2|2,0:0|0:0,0:0:0:0:
62,225,258640,6,0,P|141:244|238:214,1,160,4|0,0:3|0:0,0:0:0:0:
292,180,259240,1,0,0:0:0:0:
292,180,259440,2,0,P|284:225|308:275,1,80,4|0,0:3|0:0,0:0:0:0:
473,225,259840,6,0,L|342:217,1,120,0|0,1:0|0:0,0:0:0:0:
298,323,260240,2,0,L|417:315,1,120,4|0,0:3|0:0,0:0:0:0:
479,222,260640,2,0,L|373:213,1,80,2|2,0:0|0:0,0:0:0:0:
252,163,261040,6,0,B|297:160|305:115|287:79|250:73|205:83|158:128|188:198,1,240,6|0,0:3|0:0,0:0:0:0:
181,177,261840,2,0,P|187:234|174:270,1,80,4|0,0:0|0:0,0:0:0:0:
320,202,262240,6,0,P|267:178|242:149,1,80,0|0,1:0|0:0,0:0:0:0:
240,319,262640,2,0,P|286:284|324:278,1,80,4|0,0:3|0:0,0:0:0:0:
388,314,263040,1,0,0:0:0:0:
472,291,263240,1,8,0:0:0:0:
472,291,263340,1,8,0:0:0:0:
472,291,263440,6,0,L|463:232,3,40,4|8|8|8,0:3|0:0|0:0|0:3,0:0:0:0:
429,188,263840,2,0,L|438:129,3,40,8|8|8|8,0:0|0:0|0:0|0:3,0:0:0:0:
411,66,264240,1,4,0:3:0:0:
389,55,264340,1,8,0:0:0:0:
365,58,264440,1,8,0:0:0:0:
326,69,264540,1,8,0:0:0:0:
265,35,264640,6,0,P|259:48|257:76,1,40,10|8,0:0|0:0,0:0:0:0:
248,205,265640,1,4,0:3:0:0:
161,254,265840,6,0,B|138:244|105:255|105:255|150:218|193:247|193:247|228:292|290:274|303:244,1,269.999991760254,4|0,0:0|0:0,0:0:0:0:
50,213,266640,2,0,P|41:282|66:311,1,89.9999972534181,8|0,0:0|0:0,0:0:0:0:
166,331,267040,6,0,P|110:288|39:302,1,134.999995880127
0,158,267440,2,0,P|65:164|91:59,1,179.999994506836,4|0,0:3|0:0,0:0:0:0:
166,25,268040,1,0,0:0:0:0:
246,26,268240,6,0,P|261:108|344:113,1,179.999994506836,8|0,0:0|0:0,0:0:0:0:
187,149,268840,1,0,0:0:0:0:
245,205,269040,2,0,P|189:228|150:217,1,89.9999972534181,4|0,0:3|0:0,0:0:0:0:
294,270,269440,6,0,P|341:306|351:346,1,89.9999972534181,2|0,0:0|0:0,0:0:0:0:
317,193,269840,1,8,0:0:0:0:
318,148,270040,1,0,0:0:0:0:
343,112,270240,1,0,0:0:0:0:
385,173,270440,1,0,0:0:0:0:
249,123,270640,6,0,B|250:72|196:60|165:93|172:133|172:133|185:183|129:238|57:190,1,269.999991760254,6|0,0:3|0:0,0:0:0:0:
86,61,271440,2,0,P|98:113|120:161,1,89.9999972534181,8|0,0:0|0:0,0:0:0:0:
215,281,271840,2,0,P|227:229|249:181,1,89.9999972534181
264,336,272240,6,0,B|234:364|177:378|124:317|145:260|145:260|180:292|227:278,1,269.999991760254,4|0,0:3|0:0,0:0:0:0:
190,124,273040,2,0,P|199:157|186:235,1,89.9999972534181,10|0,0:0|0:0,0:0:0:0:
132,53,273440,1,0,0:0:0:0:
132,53,273640,2,0,L|233:37,1,89.9999972534181,2|6,0:0|0:3,0:0:0:0:
289,83,274040,1,0,0:0:0:0:
366,44,274240,6,0,B|349:17|312:23|297:43|298:74|310:97|331:105|361:115|387:107|387:107|373:153|393:185|434:205,1,269.999991760254,2|4,0:0|0:3,0:0:0:0:
294,255,275040,1,8,0:0:0:0:
448,136,275240,1,8,0:3:0:0:
240,184,275440,6,0,B|67:176|67:176|137:179|137:258,1,269.999991760254,4|0,0:0|0:0,0:0:0:0:
46,333,276240,2,0,P|52:279|73:231,1,89.9999972534181,8|0,0:0|0:0,0:0:0:0:
240,184,276640,2,0,P|254:226|240:328,1,134.999995880127
200,370,277040,6,0,B|250:315|250:315|377:346,1,179.999994506836,4|0,0:3|0:0,0:0:0:0:
423,246,277640,1,0,0:0:0:0:
371,141,277840,2,0,B|268:166|268:166|218:111,1,179.999994506836,8|0,0:0|0:0,0:0:0:0:
105,77,278440,1,0,0:0:0:0:
54,139,278640,2,0,P|111:157|152:142,1,89.9999972534181,4|0,0:3|0:0,0:0:0:0:
267,47,279040,6,0,P|210:29|169:44,1,89.9999972534181,2|0,0:0|0:0,0:0:0:0:
211,193,279440,1,0,0:0:0:0:
214,152,279640,1,0,0:0:0:0:
218,111,279840,1,0,0:0:0:0:
284,228,280040,1,0,0:0:0:0:
149,236,280240,6,0,B|160:210|197:201|225:235|219:273|180:301|180:301|257:270|303:351,1,269.999991760254,6|0,0:3|0:0,0:0:0:0:
372,227,281040,2,0,P|309:222|261:235,1,89.9999972534181,8|0,0:0|0:0,0:0:0:0:
60,236,281440,2,0,P|123:241|171:228,1,89.9999972534181
32,133,281840,6,0,L|45:334,1,179.999994506836,4|0,0:3|0:0,0:0:0:0:
141,360,282440,1,8,0:0:0:0:
141,360,282540,1,8,0:0:0:0:
141,360,282640,6,0,L|200:351,1,44.999998626709,4|8,0:3|0:0,0:0:0:0:
255,312,282840,1,8,0:0:0:0:
255,312,282940,1,8,0:3:0:0:
255,312,283040,6,0,L|314:321,1,44.999998626709,8|8,0:0|0:0,0:0:0:0:
371,355,283240,1,8,0:0:0:0:
370,319,283340,1,4,0:3:0:0:
395,287,283440,1,4,0:3:0:0:
386,261,283540,1,8,0:0:0:0:
378,235,283640,1,8,0:0:0:0:
347,215,283740,1,4,0:3:0:0:
346,143,283840,6,0,P|303:158|276:211,1,89.9999972534181,10|4,0:0|0:3,0:0:0:0:
213,130,284140,1,4,0:3:0:0:
213,130,284240,2,0,L|168:121,1,44.999998626709,4|0,0:3|0:0,0:0:0:0:
198,201,284440,2,0,L|153:192,1,44.999998626709,4|0,0:3|0:0,0:0:0:0:
37,256,284640,2,0,L|81:247,1,44.999998626709,4|0,0:3|0:0,0:0:0:0:
52,327,284840,2,0,L|96:318,1,44.999998626709,0|0,0:3|0:0,0:0:0:0:
250,380,285040,6,0,B|216:329|260:328|219:270,2,110.000003356934,12|10|4,0:0|0:3|0:3,0:0:0:0:
169,320,285640,1,2,3:0:0:0:
387,350,285840,1,8,0:3:0:0:
348,344,285940,1,4,0:3:0:0:
345,296,286040,2,0,P|330:319|309:337,1,55.0000016784668,8|0,0:0|0:0,0:0:0:0:
419,288,286240,6,0,P|408:257|457:179,2,110.000003356934,12|8|12,0:0|0:3|0:3,0:0:0:0:
475,249,286840,1,2,3:0:0:0:
406,118,287040,1,8,0:0:0:0:
442,105,287140,1,4,0:3:0:0:
476,122,287240,1,4,3:3:0:0:
343,155,287440,6,0,P|283:161|225:101,1,110.000003356934,12|8,0:0|0:3,0:0:0:0:
325,43,287840,1,4,0:3:0:0:
322,59,287940,1,4,0:3:0:0:
303,86,288040,1,10,0:0:0:0:
437,189,288240,1,8,0:3:0:0:
396,51,288440,1,4,0:3:0:0:
318,258,288640,6,0,P|307:320|312:370,1,110.000003356934,12|8,0:0|0:3,0:0:0:0:
208,252,288940,1,4,0:3:0:0:
208,252,289040,2,0,L|347:259,1,110.000003356934,8|2,0:0|3:0,0:0:0:0:
154,330,289440,1,8,0:3:0:0:
167,149,289640,1,2,3:0:0:0:
228,346,289840,6,0,B|242:337|242:337|169:342|169:342|146:324,2,110.000003356934,12|8|4,0:0|0:3|0:3,0:0:0:0:
195,268,290440,1,2,3:0:0:0:
174,259,290540,1,8,0:3:0:0:
146,260,290640,1,6,0:3:0:0:
61,337,290840,1,0,3:0:0:0:
161,151,291040,6,0,P|149:205|146:277,1,110.000003356934,12|8,0:0|0:3,0:0:0:0:
226,94,291440,1,4,0:3:0:0:
204,76,291540,1,4,0:3:0:0:
160,76,291640,1,8,0:0:0:0:
266,171,291840,1,4,0:3:0:0:
331,43,292040,1,4,0:3:0:0:
340,255,292240,6,0,B|326:315|326:315|332:319|332:319|339:378,2,110.000003356934,12|8|4,0:0|0:3|0:3,0:0:0:0:
265,362,292840,1,2,3:0:0:0:
244,353,292940,1,8,0:3:0:0:
211,352,293040,1,8,0:0:0:0:
188,327,293140,2,0,P|154:331|107:331,1,55.0000016784668,8|2,0:3|3:3,0:0:0:0:
69,273,293340,1,8,0:3:0:0:
49,303,293440,6,0,B|41:254|82:248|74:180,1,110.000003356934,12|4,0:0|0:3,0:0:0:0:
134,67,293840,1,12,0:3:0:0:
134,88,293940,1,12,0:3:0:0:
116,128,294040,1,8,0:0:0:0:
217,27,294240,1,4,0:3:0:0:
76,2,294440,1,4,0:3:0:0:
196,198,294640,6,0,P|270:200|317:148,1,110.000003356934,12|8,0:0|0:3,0:0:0:0:
217,27,295040,1,4,0:3:0:0:
234,129,295240,1,2,3:0:0:0:
237,124,295340,1,8,0:3:0:0:
251,115,295440,2,0,P|283:100|340:116,1,55.0000016784668,8|8,0:0|0:3,0:0:0:0:
408,164,295640,2,0,P|376:149|319:165,1,55.0000016784668,2|8,3:0|0:3,0:0:0:0:
461,228,295840,6,0,B|469:199|450:174|450:174|471:153|466:74,2,110.000003356934,12|8|4,0:0|0:3|0:3,0:0:0:0:
476,310,296340,1,4,0:3:0:0:
487,291,296440,2,0,P|461:298|426:288,1,55.0000016784668,8|0,0:0|0:0,0:0:0:0:
359,219,296640,2,0,P|414:206|470:238,1,110.000003356934,4|4,0:3|0:3,0:0:0:0:
308,267,297040,5,12,0:0:0:0:
302,99,297240,2,0,P|279:164|294:220,1,110.000003356934,8|4,0:3|0:3,0:0:0:0:
353,47,297640,1,2,3:0:0:0:
333,36,297740,1,8,0:3:0:0:
311,10,297840,1,8,0:0:0:0:
288,25,297940,2,0,P|245:25|213:24,1,55.0000016784668,4|2,0:3|3:0,0:0:0:0:
151,63,298140,1,8,0:3:0:0:
163,49,298240,5,8,0:0:0:0:
152,199,298440,2,8,L|152:172,1,27.5000008392334,8|8,0:3|0:3,0:3:0:0:
163,205,298540,2,0,L|163:178,1,27.5000008392334,8|0,0:3|0:0,0:0:0:0:
174,211,298640,5,8,0:3:0:0:
215,197,298740,1,8,0:3:0:0:
247,204,298840,1,4,0:3:0:0:
261,220,298940,1,4,0:3:0:0:
268,246,299040,6,0,P|266:207|297:194,1,59.9999981689454,8|4,0:0|0:3,0:0:0:0:
325,92,299240,1,4,0:3:0:0:
471,366,299440,5,12,0:0:0:0:
492,316,299540,1,0,0:0:0:0:
474,266,299640,1,4,0:3:0:0:
426,241,299740,1,0,0:0:0:0:
375,257,299840,1,4,0:3:0:0:
348,303,299940,1,4,0:3:0:0:
360,355,300040,5,12,0:0:0:0:
317,312,300140,1,0,0:0:0:0:
265,344,300240,2,0,P|228:323|193:284,1,55.0000016784668,12|0,0:0|0:0,0:0:0:0:
173,222,300440,1,4,0:3:0:0:
149,206,300540,1,0,0:0:0:0:
121,207,300640,5,12,0:0:0:0:
165,177,300740,1,0,0:0:0:0:
179,125,300840,1,4,0:3:0:0:
154,77,300940,1,0,0:0:0:0:
104,58,301040,1,4,0:3:0:0:
54,78,301140,1,4,0:3:0:0:
30,126,301240,5,12,0:0:0:0:
45,184,301340,1,0,0:0:0:0:
19,238,301440,2,0,P|39:280|46:332,1,55.0000016784668,12|0,0:0|0:0,0:0:0:0:
117,356,301640,1,4,0:3:0:0:
149,334,301740,1,0,0:0:0:0:
185,345,301840,5,12,0:0:0:0:
152,295,301940,1,0,0:0:0:0:
159,236,302040,1,4,0:3:0:0:
202,195,302140,1,0,0:0:0:0:
261,192,302240,1,4,0:3:0:0:
309,227,302340,1,4,0:3:0:0:
323,285,302440,5,12,0:0:0:0:
329,225,302540,1,4,0:3:0:0:
386,204,302640,5,8,0:0:0:0:
329,183,302740,1,8,0:0:0:0:
323,123,302840,1,8,0:3:0:0:
339,101,302940,1,4,0:3:0:0:
348,46,303040,5,8,0:0:0:0:
207,35,303240,1,4,0:3:0:0:
207,35,303340,1,4,0:3:0:0:
207,35,303440,5,4,0:3:0:0:
185,66,303540,1,0,0:0:0:0:
145,85,303640,1,4,0:3:0:0:
152,130,303740,1,0,0:0:0:0:
145,179,303840,5,4,0:3:0:0:
188,209,303940,1,0,0:0:0:0:
215,265,304040,1,4,0:3:0:0:
278,256,304140,1,0,0:0:0:0:
329,183,304240,5,2,3:0:0:0:
329,183,305040,1,8,0:0:0:0:
461,305,305240,1,4,0:3:0:0:
389,93,305440,6,0,B|369:-6|297:-39|218:12|251:81|300:73,1,259.999988098145,4|4,0:0|0:3,0:0:0:0:
279,138,305940,1,4,0:3:0:0:
265,202,306040,1,4,0:3:0:0:
422,279,306240,5,4,0:3:0:0:
375,231,306340,1,4,0:3:0:0:
329,183,306440,1,4,0:3:0:0:
182,287,306640,6,0,B|143:288|138:335|138:335|194:367|228:329|228:329|273:279|333:319,1,259.999988098145,8|4,0:0|0:3,0:0:0:0:
371,319,307140,1,4,0:3:0:0:
422,279,307240,1,4,0:3:0:0:
349,119,307440,5,4,0:3:0:0:
329,183,307540,1,4,0:3:0:0:
375,231,307640,1,4,0:3:0:0:
411,74,307840,6,0,B|385:35|323:45|323:45|286:75|238:48|238:48|266:77|253:129,1,259.999988098145,4|4,0:0|0:3,0:0:0:0:
211,159,308340,1,4,0:3:0:0:
191,96,308440,1,4,0:3:0:0:
182,287,308640,5,4,0:3:0:0:
198,224,308740,1,4,0:3:0:0:
211,159,308840,1,4,0:3:0:0:
40,359,309040,6,0,B|19:339|38:278|99:279|123:328|123:328|171:386|250:331,1,259.999988098145,8|4,0:0|0:3,0:0:0:0:
275,310,309540,1,4,0:3:0:0:
330,344,309640,1,4,0:3:0:0:
341,210,309840,5,4,0:3:0:0:
284,242,309940,1,4,0:3:0:0:
339,276,310040,1,4,0:3:0:0:
311,74,310240,6,0,B|331:50|319:2|254:1|220:45|237:92|260:126|286:133|286:133|252:117|189:130,1,259.999988098145,4|4,0:0|0:3,0:0:0:0:
176,132,310740,1,4,0:3:0:0:
111,140,310840,1,4,0:3:0:0:
54,268,311040,5,4,0:3:0:0:
118,277,311140,1,4,0:3:0:0:
182,287,311240,1,4,0:3:0:0:
323,226,311440,6,0,B|341:201|390:201|399:244|399:244|399:294|321:339|256:289,1,259.999988098145,8|4,0:0|0:3,0:0:0:0:
236,246,311940,1,4,0:3:0:0:
182,287,312040,1,4,0:3:0:0:
168,154,312240,5,4,0:3:0:0:
227,180,312340,1,4,0:3:0:0:
173,221,312440,1,4,0:3:0:0:
162,87,312640,6,0,B|135:43|135:43|241:87|241:87|225:189,1,259.999988098145,4|4,0:0|0:3,0:0:0:0:
173,221,313140,1,4,0:3:0:0:
182,287,313240,1,4,0:3:0:0:
311,367,313440,5,4,0:3:0:0:
365,326,313540,1,4,0:3:0:0:
356,260,313640,1,4,0:3:0:0:
113,98,313840,6,0,B|64:81|24:127|37:193|97:189|97:189|129:236|193:216,1,259.999988098145,8|4,0:0|0:3,0:0:0:0:
217,172,314340,1,4,0:3:0:0:
155,154,314440,1,4,0:3:0:0:
239,245,314640,5,4,0:3:0:0:
280,195,314740,1,4,0:3:0:0:
321,145,314840,1,4,0:3:0:0:
225,54,315040,6,0,B|219:143|219:143|226:157|226:157|239:245|239:245|247:214|281:195,1,259.999988098145,4|4,0:0|0:3,0:0:0:0:
321,145,315540,1,4,0:3:0:0:
385,152,315640,1,4,0:3:0:0:
399,357,315840,5,4,0:3:0:0:
354,309,315940,1,4,0:3:0:0:
310,261,316040,1,4,0:3:0:0:
493,281,316240,6,0,B|426:287|399:357|399:357|330:312|258:354,1,259.999988098145,8|4,0:0|0:3,0:0:0:0:
209,360,316740,1,4,0:3:0:0:
156,321,316840,1,4,0:3:0:0:
252,162,317040,5,4,0:3:0:0:
239,225,317140,1,4,0:3:0:0:
223,288,317240,1,4,0:3:0:0:
191,116,317440,6,0,B|229:71|294:83|318:124|318:124|336:205|437:192,1,259.999988098145,4|4,0:0|0:3,0:0:0:0:
447,154,317940,1,4,0:3:0:0:
392,118,318040,1,4,0:3:0:0:
351,288,318240,5,4,0:3:0:0:
414,275,318340,1,4,0:3:0:0:
478,264,318440,1,4,0:3:0:0:
288,228,318640,6,0,B|251:293|293:351|293:351|223:372|252:326|151:354,1,259.999988098145,8|4,0:0|0:3,0:0:0:0:
103,333,319140,1,4,0:3:0:0:
54,377,319240,1,4,0:3:0:0:
139,153,319440,5,4,0:3:0:0:
145,217,319540,1,4,0:3:0:0:
152,281,319640,1,4,0:3:0:0:
60,112,319840,6,0,B|149:117|149:117|250:96|250:96|210:114|210:154,1,259.999988098145,4|4,0:0|0:3,0:0:0:0:
232,207,320340,1,4,0:3:0:0:
275,158,320440,1,4,0:3:0:0:
132,39,320640,5,4,0:3:0:0:
170,92,320740,1,4,0:3:0:0:
210,146,320840,1,4,0:3:0:0:
300,0,321040,6,0,B|316:54|257:89|257:89|339:80|359:159|331:198,1,259.999988098145,8|4,0:0|0:3,0:0:0:0:
325,247,321540,1,4,0:3:0:0:
312,310,321640,1,4,0:3:0:0:
459,196,321840,5,4,0:3:0:0:
451,131,321940,1,4,0:3:0:0:
443,66,322040,1,4,0:3:0:0:
239,18,322240,6,0,B|184:-3|144:21|144:21|144:100|144:100|96:133|31:91,1,259.999988098145,4|4,0:0|0:3,0:0:0:0:
18,62,322740,1,4,0:3:0:0:
51,6,322840,1,4,0:3:0:0:
100,181,323040,5,4,0:3:0:0:
80,243,323140,1,4,0:3:0:0:
61,305,323240,1,4,0:3:0:0:
256,333,323440,5,8,0:0:0:0:
215,116,323640,1,8,0:0:0:0:
268,111,323740,1,8,0:0:0:0:
310,144,323840,1,8,0:0:0:0:
315,198,323940,1,8,0:0:0:0:
284,240,324040,1,8,0:0:0:0:
231,249,324140,1,8,0:3:0:0:
187,218,324240,5,0,0:0:0:0:
226,261,324340,1,8,0:0:0:0:
226,320,324440,1,8,0:0:0:0:
184,362,324540,1,8,0:3:0:0:
126,365,324640,6,0,B|298:380|216:288|387:301,1,259.999988098145,12|4,0:0|0:3,0:0:0:0:
397,326,325140,1,4,0:3:0:0:
491,293,325240,1,8,0:0:0:0:
474,153,325440,2,0,P|448:156|388:120,1,64.9999970245363,4|4,0:3|0:3,0:0:0:0:
187,218,325640,2,0,P|217:206|249:209,1,64.9999970245363,4|0,0:3|0:0,0:0:0:0:
430,220,325840,5,4,0:0:0:0:
450,92,326040,2,0,L|429:232,1,129.999994049073,8|4,0:3|0:3,0:0:0:0:
415,256,326340,1,4,0:3:0:0:
464,336,326440,2,0,P|493:327|542:336,1,64.9999970245363,8|0,0:0|0:0,0:0:0:0:
329,363,326640,2,0,P|358:372|407:363,1,64.9999970245363,4|4,0:3|0:3,0:0:0:0:
209,318,326840,2,0,P|238:309|287:318,1,64.9999970245363,4|0,0:3|0:0,0:0:0:0:
158,101,327040,6,0,B|182:48|122:24|68:45|77:104|97:152|97:152|117:188|110:243,1,259.999988098145,4|4,0:0|0:3,0:0:0:0:
90,239,327540,1,4,0:3:0:0:
141,335,327640,1,8,0:0:0:0:
227,203,327840,1,4,0:3:0:0:
287,179,327940,1,4,0:3:0:0:
343,211,328040,1,4,0:3:0:0:
390,317,328240,6,0,P|313:316|279:247,1,129.999994049073,4|4,0:0|0:3,0:0:0:0:
361,231,328540,1,8,0:3:0:0:
351,255,328640,1,4,0:3:0:0:
335,219,328740,1,4,0:3:0:0:
347,181,328840,2,0,P|383:172|432:195,1,64.9999970245363,8|0,0:0|0:0,0:0:0:0:
335,101,329040,2,0,P|309:74|304:20,1,64.9999970245363,4|4,0:3|0:3,0:0:0:0:
263,149,329240,2,0,P|252:184|208:215,1,64.9999970245363,4|0,0:3|0:0,0:0:0:0:
27,136,329440,6,0,B|107:189|196:148|196:148|152:175|169:239,1,259.999988098145,4|4,0:0|0:3,0:0:0:0:
180,254,329940,1,4,0:3:0:0:
263,149,330040,1,8,0:0:0:0:
165,328,330240,2,0,P|209:345|258:332,1,64.9999970245363,4|4,0:3|0:3,0:0:0:0:
345,238,330440,2,0,P|312:239|283:254,1,64.9999970245363,4|0,0:3|0:0,0:0:0:0:
384,307,330640,5,4,0:0:0:0:
393,177,330840,2,0,L|383:318,1,129.999994049073,8|4,0:3|0:3,0:0:0:0:
396,343,331140,1,4,0:3:0:0:
495,323,331240,2,0,L|491:244,1,64.9999970245363,8|0,0:0|0:0,0:0:0:0:
396,112,331440,2,0,L|392:191,1,64.9999970245363,4|4,0:3|0:3,0:0:0:0:
318,382,331640,2,0,L|314:303,1,64.9999970245363,4|0,0:3|0:0,0:0:0:0:
261,69,331840,6,0,B|322:57|280:-23|223:-4|202:31|202:31|165:87|78:48,1,259.999988098145,4|4,0:0|0:3,0:0:0:0:
77,43,332340,1,4,0:3:0:0:
88,167,332440,1,8,0:0:0:0:
282,198,332640,1,4,0:3:0:0:
272,133,332740,1,4,0:3:0:0:
261,69,332840,1,4,0:3:0:0:
228,260,333040,5,4,0:0:0:0:
382,195,333240,1,8,0:3:0:0:
445,199,333340,1,8,0:3:0:0:
487,247,333440,1,4,0:3:0:0:
484,310,333540,1,4,0:3:0:0:
438,354,333640,1,8,0:0:0:0:
379,327,333740,1,0,0:0:0:0:
317,347,333840,2,0,L|242:348,1,64.9999970245363,6|0,0:3|0:0,0:0:0:0:
190,312,334040,2,0,L|115:311,1,64.9999970245363,6|0,0:3|0:0,0:0:0:0:
62,346,334240,5,6,0:0:0:0:
161,204,334440,1,8,0:0:0:0:
62,100,334640,1,6,0:3:0:0:
62,100,334740,1,4,0:3:0:0:
62,100,334840,2,0,L|142:85,1,64.9999970245363,8|0,0:0|0:0,0:0:0:0:
186,49,335040,1,6,0:3:0:0:
186,49,335140,1,4,0:3:0:0:
186,49,335240,2,0,L|266:64,1,64.9999970245363,8|0,0:0|0:0,0:0:0:0:
311,111,335440,5,6,0:3:0:0:
108,13,335640,1,8,0:0:0:0:
313,189,335840,1,6,0:3:0:0:
313,189,335940,1,4,0:3:0:0:
313,189,336040,2,0,P|369:166|390:123,1,64.9999970245363,8|0,0:0|0:0,0:0:0:0:
307,35,336240,1,6,0:3:0:0:
307,35,336340,1,4,0:3:0:0:
307,35,336440,2,0,P|251:58|230:101,1,64.9999970245363,8|0,0:0|0:0,0:0:0:0:
321,259,336640,5,6,0:3:0:0:
311,111,336840,1,8,0:0:0:0:
271,328,337040,1,6,0:3:0:0:
271,328,337140,1,4,0:3:0:0:
271,328,337240,2,0,P|223:314|177:328,1,64.9999970245363,8|0,0:0|0:0,0:0:0:0:
147,184,337440,1,6,0:3:0:0:
147,184,337540,1,4,0:3:0:0:
147,184,337640,2,0,P|158:232|194:265,1,64.9999970245363,8|0,0:0|0:0,0:0:0:0:
107,349,337840,5,6,0:3:0:0:
223,190,338040,1,8,0:0:0:0:
75,76,338240,1,6,0:3:0:0:
75,76,338340,1,4,0:3:0:0:
75,76,338440,2,0,L|163:65,1,64.9999970245363,8|0,0:0|0:0,0:0:0:0:
195,23,338640,5,10,0:0:0:0:
235,74,338740,1,8,0:3:0:0:
286,34,338840,1,10,0:0:0:0:
331,80,338940,1,4,0:3:0:0:
385,39,339040,5,10,0:0:0:0:
401,85,339140,1,4,0:3:0:0:
384,130,339240,1,8,0:0:0:0:
342,155,339340,1,4,0:3:0:0:
294,146,339440,1,10,0:0:0:0:
259,180,339540,1,4,0:3:0:0:
257,229,339640,1,8,0:0:0:0:
288,267,339740,1,4,0:3:0:0:
337,273,339840,6,0,P|311:297|263:303,1,50,10|4,0:0|0:3,0:0:0:0:
238,318,340040,2,0,P|203:315|164:286,1,50,10|4,0:0|0:3,0:0:0:0:
91,260,340240,5,10,0:0:0:0:
51,229,340340,1,4,0:3:0:0:
34,183,340440,1,8,0:0:0:0:
50,136,340540,1,4,0:3:0:0:
89,106,340640,1,8,0:0:0:0:
137,103,340740,1,4,0:3:0:0:
179,129,340840,1,8,0:0:0:0:
197,174,340940,1,4,0:3:0:0:
187,221,341040,2,2,P|179:201|185:134,1,50,10|4,0:0|0:3,0:0:0:0:
257,117,341240,2,0,P|265:97|259:30,1,50,10|4,0:0|0:3,0:0:0:0:
370,33,341440,6,0,L|371:68,1,25,10|4,0:0|0:3,0:0:0:0:
386,50,341540,2,4,L|380:84,1,25,4|4,0:3|0:3,0:3:0:0:
399,70,341640,2,0,L|387:103,1,25,8|4,0:0|0:3,0:0:0:0:
409,92,341740,2,4,L|392:122,1,25,4|4,0:3|0:3,0:3:0:0:
414,113,341840,6,0,L|413:148,1,25,8|4,0:0|0:3,0:0:0:0:
398,130,341940,2,4,L|403:164,1,25,4|4,0:3|0:3,0:3:0:0:
385,150,342040,2,0,L|396:183,1,25,8|4,0:0|0:3,0:0:0:0:
375,172,342140,2,4,L|391:202,1,25,4|4,0:3|0:3,0:3:0:0:
369,191,342240,6,0,L|331:189,1,25,10|6,0:0|0:3,0:0:0:0:
324,200,342340,2,4,L|286:202,1,25,4|4,0:3|0:3,0:3:0:0:
279,190,342440,2,0,L|241:192,1,25,10|4,0:0|0:3,0:0:0:0:
233,201,342540,2,0,L|195:199,1,25,4|4,0:3|0:3,0:0:0:0:
188,188,342640,5,10,0:0:0:0:
381,333,342840,1,4,0:3:0:0:
403,261,342940,1,4,0:3:0:0:
330,278,343040,1,4,0:3:0:0:
454,315,343240,1,4,0:3:0:0:
426,187,343440,5,6,0:3:0:0:
250,229,343640,1,6,0:3:0:0:
57,275,343840,5,6,0:3:0:0:
69,264,344106,1,8,0:3:0:0:
81,253,344373,1,8,0:3:0:0:
39,141,344640,5,2,0:0:0:0:
232,95,344840,1,2,0:0:0:0:
408,53,345040,5,6,0:3:0:0:
408,53,345640,1,8,0:0:0:0:
411,60,345690,1,8,0:0:0:0:
331,314,345840,1,4,0:3:0:0:
331,314,346240,6,0,B|395:266|383:235|354:223|399:156|399:156|278:173|329:215|269:237|269:237|316:197|352:95|240:103|305:-23|305:-23|113:75|252:140|170:193|170:193|171:114|105:155|136:53|136:53|29:72|-5:164|93:224|141:299|-74:221|-19:382|-19:382|-18:370|-18:370|148:387|148:387|193:350|193:350|198:312|198:312|212:314|212:314|214:302|214:302|200:300|200:300|206:257|206:257|194:255|194:255|188:298|188:298|174:296|174:296|173:308|173:308|185:310|185:310|180:348|180:348|213:394|213:394|338:257|344:404|445:368|478:285|407:294|456:232|493:225,1,2375.99999274902,6|0,0:0|0:0,0:0:0:0:
