osu file format v14

[General]
AudioFilename: audio.mp3
AudioLeadIn: 0
PreviewTime: 8618
Countdown: 0
SampleSet: Soft
StackLeniency: 0.4
Mode: 0
LetterboxInBreaks: 0
WidescreenStoryboard: 0

[Editor]
Bookmarks: 35714,84101
DistanceSpacing: 1.5
BeatDivisor: 12
GridSize: 32
TimelineZoom: 5.599997

[Metadata]
Title:Chromatic Lights
TitleUnicode:Chromatic Lights
Artist:Native Construct
ArtistUnicode:Native Construct
Creator:Daycore
Version:Arthouse
Source:osu!
Tags:quiet world metal instrumental fa featured artist mg mappers' guild
BeatmapID:2254289
BeatmapSetID:1077275

[Difficulty]
HPDrainRate:4.5
CircleSize:4
OverallDifficulty:6
ApproachRate:7
SliderMultiplier:1.65
SliderTickRate:1

[Events]
//Background and Video events
0,0,"forest-931706_1920.jpg",0,0
//Break Periods
//Storyboard Layer 0 (Background)
//Storyboard Layer 1 (Fail)
//Storyboard Layer 2 (Pass)
//Storyboard Layer 3 (Foreground)
//Storyboard Layer 4 (Overlay)
//Storyboard Sound Samples

[TimingPoints]
8618,483.870967741935,4,2,1,25,1,0
14424,-100,4,2,1,30,0,0
27488,-100,4,2,1,20,0,0
34263,-100,4,2,1,30,0,0
51198,-100,4,2,1,30,0,1
51521,-100,4,2,1,30,0,0
58940,-100,4,2,1,20,0,0
63295,-100,4,2,1,30,0,0
77327,-100,4,2,1,30,0,1
77650,-100,4,2,1,35,0,1
77972,-100,4,2,1,40,0,1
78295,-100,4,2,1,40,0,0
89908,-100,4,2,1,35,0,0
105392,-100,4,2,1,40,0,1
113134,-100,4,2,1,40,0,0
117005,-100,4,2,1,40,0,0

[Colours]
Combo1 : 255,128,192
Combo2 : 0,0,255

[HitObjects]
413,332,8618,6,0,P|421:275|414:210,1,110,2|0,0:0|0:0,0:0:0:0:
380,161,9101,1,2,0:0:0:0:
310,143,9263,1,2,0:0:0:0:
252,185,9424,1,0,0:0:0:0:
232,253,9585,2,0,P|153:284|69:193,1,220,2|2,0:0|0:0,0:0:0:0:
33,57,10553,6,0,P|90:58|146:63,1,110,2|0,0:0|0:0,0:0:0:0:
185,120,11037,2,0,P|239:120|294:125,1,110,2|0,0:0|0:0,0:0:0:0:
364,94,11521,2,0,P|370:123|359:161,1,55,2|0,0:0|0:0,0:0:0:0:
331,216,11843,1,2,0:0:0:0:
189,225,12166,1,2,0:0:0:0:
159,290,12327,2,0,P|100:304|49:287,1,110,2|0,0:0|0:0,0:0:0:0:
19,354,12811,6,0,P|11:216|0:79,1,275,2|0,0:0|0:0,0:0:0:0:
51,28,13779,2,0,P|127:24|225:22,1,165,2|0,0:0|0:0,0:0:0:0:
280,52,14424,5,2,0:0:0:0:
161,131,14747,1,2,0:0:0:0:
161,131,14908,2,0,L|165:195,1,55,0|2,0:0|0:0,0:0:0:0:
179,258,15230,1,0,0:0:0:0:
179,258,15392,2,0,L|292:246,2,110,2|0|2,0:0|0:0|0:0,0:0:0:0:
48,321,16359,6,0,L|41:266,1,55,2|0,0:0|0:0,0:0:0:0:
127,316,16682,2,0,L|133:370,1,55,2|0,0:0|0:0,0:0:0:0:
179,258,17005,2,0,L|172:203,1,55,2|0,0:0|0:0,0:0:0:0:
258,253,17327,2,0,L|264:307,1,55,2|0,0:0|0:0,0:0:0:0:
334,354,17650,2,0,L|468:344,1,110,2|2,0:0|0:0,0:0:0:0:
477,279,18134,1,0,0:0:0:0:
421,229,18295,5,2,0:0:0:0:
499,109,18617,1,0,0:0:0:0:
370,40,18940,1,2,0:0:0:0:
298,164,19263,1,2,0:0:0:0:
393,139,19585,5,2,0:0:0:0:
263,78,19908,1,2,0:0:0:0:
181,195,20230,5,2,0:0:0:0:
181,195,20392,1,0,0:0:0:0:
114,142,20553,1,2,0:0:0:0:
114,142,20714,1,0,0:0:0:0:
34,156,20876,2,0,L|42:277,1,110,2|2,0:0|0:0,0:0:0:0:
151,356,21521,1,2,0:0:0:0:
221,366,21682,1,0,0:0:0:0:
282,329,21843,1,2,0:0:0:0:
297,258,22005,1,2,0:0:0:0:
258,198,22166,6,0,L|185:209,1,55,2|0,0:0|0:0,0:0:0:0:
308,137,22488,2,0,L|362:128,1,55,2|2,0:0|0:0,0:0:0:0:
246,91,22811,2,0,L|172:98,1,55,2|0,0:0|0:0,0:0:0:0:
130,54,23134,5,2,0:0:0:0:
101,126,23295,1,0,0:0:0:0:
48,62,23456,1,2,0:0:0:0:
21,138,23617,2,0,P|26:191|31:265,1,110,2|0,0:0|0:0,0:0:0:0:
72,313,24101,5,2,0:0:0:0:
125,254,24263,1,0,0:0:0:0:
171,319,24424,1,2,0:0:0:0:
223,261,24585,2,0,P|277:254|332:252,1,110
403,291,25069,1,2,0:0:0:0:
403,291,25230,2,0,L|404:355,1,55,2|0,0:0|0:0,0:0:0:0:
332,252,25553,2,0,L|322:137,1,110,2|2,0:0|0:0,0:0:0:0:
283,82,26037,5,2,0:0:0:0:
213,67,26198,1,0,0:0:0:0:
158,113,26359,1,2,0:0:0:0:
171,183,26521,5,0,0:0:0:0:
132,122,26682,1,2,0:0:0:0:
61,110,26843,1,2,0:0:0:0:
4,153,27005,2,0,L|14:222,1,55,2|0,0:0|0:0,0:0:0:0:
81,236,27327,2,0,L|91:305,1,55,2|0,0:0|0:0,0:0:0:0:
147,347,27650,6,0,P|98:369|45:359,2,110,2|2|0,0:0|0:0|0:0,0:0:0:0:
261,261,28617,1,2,0:0:0:0:
324,227,28779,1,0,0:0:0:0:
388,257,28940,2,0,L|379:347,1,55,2|0,0:0|0:0,0:0:0:0:
468,346,29263,2,0,L|459:232,1,110,2|0,0:0|0:0,0:0:0:0:
388,113,29908,6,0,L|324:114,1,55,2|0,0:0|0:0,0:0:0:0:
265,74,30230,1,0,0:0:0:0:
265,74,30392,2,0,L|148:78,1,110,2|0,0:0|0:0,0:0:0:0:
77,50,30876,2,0,L|84:127,1,55,2|0,0:0|0:0,0:0:0:0:
35,169,31198,1,0,0:0:0:0:
35,169,31359,2,0,P|82:196|113:241,1,110,2|0,0:0|0:0,0:0:0:0:
132,319,31843,5,2,0:0:0:0:
132,319,32166,2,0,L|248:313,2,110,2|0|0,0:0|0:0|0:0,0:0:0:0:
301,366,33134,2,0,P|321:309|286:253,1,110,2|0,0:0|0:0,0:0:0:0:
205,160,33779,5,2,0:0:0:0:
345,187,34101,1,0,0:0:0:0:
376,47,34424,1,2,0:0:0:0:
231,20,34747,1,2,0:0:0:0:
285,102,35069,5,2,0:0:0:0:
234,152,35230,1,2,0:0:0:0:
162,149,35392,1,2,0:0:0:0:
115,94,35553,1,2,0:0:0:0:
122,23,35714,6,0,L|261:20,1,110,2|0,0:0|0:0,0:0:0:0:
311,26,36198,1,2,0:0:0:0:
311,26,36359,2,0,L|305:111,1,55,2|0,0:0|0:0,0:0:0:0:
346,150,36682,2,0,L|424:147,1,55,2|0,0:0|0:0,0:0:0:0:
466,108,37005,1,2,0:0:0:0:
414,291,37327,1,2,0:0:0:0:
414,291,37650,6,0,L|304:285,1,110,2|0,0:0|0:0,0:0:0:0:
239,248,38134,1,0,0:0:0:0:
172,291,38295,1,2,0:0:0:0:
15,220,38617,1,0,0:0:0:0:
170,166,38940,1,2,0:0:0:0:
16,116,39263,1,0,0:0:0:0:
16,116,39424,1,2,0:0:0:0:
16,116,39585,6,0,L|14:62,1,55,2|0,0:0|0:0,0:0:0:0:
99,87,39908,2,0,L|97:33,1,55,2|0,0:0|0:0,0:0:0:0:
182,118,40230,2,0,L|180:64,1,55,2|0,0:0|0:0,0:0:0:0:
253,16,40553,1,2,0:0:0:0:
228,205,40876,1,2,0:0:0:0:
333,76,41198,1,2,0:0:0:0:
329,178,41521,6,0,L|410:188,2,55,2|0|0,0:0|0:0|0:0,0:0:0:0:
269,136,42005,1,2,0:0:0:0:
196,128,42166,1,2,0:0:0:0:
146,184,42327,1,0,0:0:0:0:
149,256,42488,1,2,0:0:0:0:
54,60,42811,1,2,0:0:0:0:
54,60,43134,1,2,0:0:0:0:
30,133,43295,1,2,0:0:0:0:
11,207,43456,6,0,L|8:287,1,55,2|0,0:0|0:0,0:0:0:0:
32,335,43779,1,2,0:0:0:0:
90,285,43940,1,0,0:0:0:0:
134,347,44101,2,0,L|201:341,1,55,2|0,0:0|0:0,0:0:0:0:
252,298,44424,2,0,L|319:292,1,55,2|0,0:0|0:0,0:0:0:0:
382,322,44747,2,0,P|386:288|377:257,1,55,2|0,0:0|0:0,0:0:0:0:
326,215,45069,1,2,0:0:0:0:
317,137,45230,1,0,0:0:0:0:
362,76,45392,6,0,P|436:65|483:79,2,110,0|2|0,0:0|0:0|0:0,0:0:0:0:
248,190,46359,1,2,0:0:0:0:
248,190,46682,2,0,L|190:191,1,55,2|0,0:0|0:0,0:0:0:0:
92,135,47005,2,0,L|146:134,1,55
194,72,47327,5,2,0:0:0:0:
268,55,47488,1,0,0:0:0:0:
336,93,47650,1,2,0:0:0:0:
357,166,47811,1,2,0:0:0:0:
345,244,47972,2,0,L|263:249,1,55,2|0,0:0|0:0,0:0:0:0:
295,324,48295,2,0,P|232:282|130:275,1,165,2|0,0:0|0:0,0:0:0:0:
70,295,48940,1,2,0:0:0:0:
70,295,49263,6,0,P|34:227|54:166,1,110,2|0,0:0|0:0,0:0:0:0:
69,129,49747,1,2,0:0:0:0:
131,172,49908,1,2,0:0:0:0:
181,114,50069,1,0,0:0:0:0:
242,166,50230,2,0,P|259:125|185:32,1,165,2|0,0:0|0:0,0:0:0:0:
130,0,50876,2,0,P|120:32|127:61,1,55,2|0,0:0|0:0,0:0:0:0:
181,114,51198,6,0,L|297:92,1,110,2|0,0:0|0:0,0:0:0:0:
362,84,51682,1,2,0:0:0:0:
419,137,51843,1,2,0:0:0:0:
415,213,52005,1,0,0:0:0:0:
382,280,52166,2,0,L|210:315,1,165,2|0,0:0|0:0,0:0:0:0:
152,285,52811,1,2,0:0:0:0:
152,285,53134,6,0,L|143:218,1,55,2|0,0:0|0:0,0:0:0:0:
178,161,53456,1,0,0:0:0:0:
117,105,53617,2,0,B|164:77|164:77|217:92,1,110,2|0,0:0|0:0,0:0:0:0:
282,139,54101,1,2,0:0:0:0:
452,79,54424,1,2,0:0:0:0:
452,79,54747,1,2,0:0:0:0:
452,161,54908,1,2,0:0:0:0:
452,237,55069,6,0,L|368:227,1,55,2|0,0:0|0:0,0:0:0:0:
400,313,55392,2,0,L|316:303,1,55,2|0,0:0|0:0,0:0:0:0:
314,230,55714,2,0,L|230:220,1,55,2|0,0:0|0:0,0:0:0:0:
262,306,56037,2,0,L|178:296,1,55
126,311,56359,2,0,P|125:284|136:259,1,55,2|0,0:0|0:0,0:0:0:0:
105,135,56682,2,0,P|105:162|95:187,1,55,2|0,0:0|0:0,0:0:0:0:
19,242,57005,5,2,0:0:0:0:
19,242,57488,1,2,0:0:0:0:
21,162,57650,1,2,0:0:0:0:
22,84,57811,1,0,0:0:0:0:
22,5,57972,5,2,0:0:0:0:
22,5,58134,1,2,0:0:0:0:
99,33,58295,2,0,L|150:43,1,41.25,2|2,0:0|0:0,0:0:0:0:
176,61,58497,2,0,L|227:51,1,41.25,2|2,0:0|0:0,0:0:0:0:
377,17,58940,5,2,0:0:0:0:
377,17,59424,2,0,L|380:103,2,55,0|2|2,0:0|0:0|0:0,0:0:0:0:
324,131,59908,2,0,P|373:153|447:121,1,110,2|2,0:0|0:0,0:0:0:0:
495,289,60553,1,2,0:0:0:0:
457,215,60714,1,2,0:0:0:0:
502,143,60876,6,0,P|394:154|316:228,1,220,2|2,0:0|0:0,0:0:0:0:
266,307,61682,2,0,P|208:309|147:279,1,110
131,220,62166,1,2,0:0:0:0:
0,369,62488,1,2,0:0:0:0:
160,289,62811,5,2,0:0:0:0:
51,103,63134,1,2,0:0:0:0:
51,103,63456,5,2,0:0:0:0:
118,59,63617,1,2,0:0:0:0:
192,81,63779,1,2,0:0:0:0:
224,155,63940,5,2,0:0:0:0:
232,77,64101,1,2,0:0:0:0:
297,31,64263,1,2,0:0:0:0:
373,46,64424,2,0,L|366:108,1,55,0|2,0:0|0:0,0:0:0:0:
380,174,64747,6,0,P|434:169|495:163,2,110,2|0|0,0:0|0:0|0:0,0:0:0:0:
380,174,65714,2,0,L|380:255,1,55,2|0,0:0|0:0,0:0:0:0:
307,276,66037,2,0,L|296:158,1,110,2|0,0:0|0:0,0:0:0:0:
244,106,66521,1,0,0:0:0:0:
184,163,66682,5,2,0:0:0:0:
38,44,67005,2,0,L|44:108,1,55,2|0,0:0|0:0,0:0:0:0:
9,164,67327,2,0,P|74:166|114:115,1,110,2|0,0:0|0:0,0:0:0:0:
235,17,67972,1,2,0:0:0:0:
235,17,68295,1,2,0:0:0:0:
268,88,68456,1,0,0:0:0:0:
245,160,68617,5,2,0:0:0:0:
463,142,68940,1,2,0:0:0:0:
463,142,69263,2,0,L|456:218,1,55,2|0,0:0|0:0,0:0:0:0:
484,266,69585,1,2,0:0:0:0:
448,336,69747,1,2,0:0:0:0:
376,360,69908,2,0,L|264:352,1,110,2|2,0:0|0:0,0:0:0:0:
206,304,70392,1,0,0:0:0:0:
136,342,70553,6,0,B|126:287|126:287|155:239,1,110,2|0,0:0|0:0,0:0:0:0:
218,198,71037,1,2,0:0:0:0:
198,124,71198,1,0,0:0:0:0:
126,152,71359,1,2,0:0:0:0:
198,124,71521,2,0,L|230:75,1,55,2|0,0:0|0:0,0:0:0:0:
273,17,71843,1,2,0:0:0:0:
273,17,72166,1,2,0:0:0:0:
197,2,72327,1,2,0:0:0:0:
144,63,72488,6,0,P|93:71|20:87,1,110,2|2,0:0|0:0,0:0:0:0:
12,157,72972,1,0,0:0:0:0:
67,211,73134,2,0,P|120:199|175:191,2,110,2|2|2,0:0|0:0|0:0,0:0:0:0:
67,211,74101,1,2,0:0:0:0:
48,288,74263,1,2,0:0:0:0:
95,346,74424,6,0,L|180:333,1,55,2|0,0:0|0:0,0:0:0:0:
222,372,74747,2,0,P|226:311|186:268,1,110,2|2,0:0|0:0,0:0:0:0:
67,211,75392,1,2,0:0:0:0:
113,87,75714,1,2,0:0:0:0:
237,132,76037,1,2,0:0:0:0:
328,228,76359,5,2,0:0:0:0:
379,174,76521,1,0,0:0:0:0:
375,100,76682,1,2,0:0:0:0:
332,38,76843,1,2,0:0:0:0:
332,38,77005,2,0,P|277:47|248:52,1,55,2|0,0:0|0:0,0:0:0:0:
198,29,77327,5,2,0:0:0:0:
375,100,77650,1,2,0:0:0:0:
380,330,77972,1,2,0:0:0:0:
380,330,78295,6,0,L|321:318,1,55,2|0,0:0|0:0,0:0:0:0:
261,267,78617,1,2,0:0:0:0:
254,346,78779,2,0,P|191:350|77:353,1,165,2|2,0:0|0:0,0:0:0:0:
15,372,79424,2,0,P|13:344|20:318,1,55,2|0,0:0|0:0,0:0:0:0:
86,278,79747,2,0,P|93:220|80:153,1,110,2|0,0:0|0:0,0:0:0:0:
41,109,80230,5,2,0:0:0:0:
243,44,80553,1,2,0:0:0:0:
243,44,80876,2,0,P|243:107|248:175,1,110,2|0,0:0|0:0,0:0:0:0:
327,206,81359,2,0,P|326:142|322:75,1,110,2|0,0:0|0:0,0:0:0:0:
318,21,81843,1,2,0:0:0:0:
318,21,82166,6,0,P|255:22|200:28,1,110,2|0,0:0|0:0,0:0:0:0:
137,38,82650,5,2,0:0:0:0:
101,101,82811,1,2,0:0:0:0:
125,172,82972,1,2,0:0:0:0:
199,184,83134,5,2,0:0:0:0:
115,199,83295,1,2,0:0:0:0:
90,278,83456,1,2,0:0:0:0:
128,358,83617,2,0,P|179:350|264:344,1,110,2|0,0:0|0:0,0:0:0:0:
313,360,84101,6,0,P|311:333|300:295,1,55,2|0,0:0|0:0,0:0:0:0:
244,253,84424,2,0,P|283:227|362:255,1,110,2|0,0:0|0:0,0:0:0:0:
394,293,84908,2,0,L|457:285,1,55,2|0,0:0|0:0,0:0:0:0:
504,234,85230,1,2,0:0:0:0:
484,162,85392,2,0,P|429:162|374:163,1,110,2|0,0:0|0:0,0:0:0:0:
312,120,85876,1,2,0:0:0:0:
380,75,86037,6,0,P|361:55|335:46,1,55,2|0,0:0|0:0,0:0:0:0:
257,58,86359,2,0,P|230:64|209:81,1,55,2|0,0:0|0:0,0:0:0:0:
127,63,86682,2,0,L|142:148,1,55,2|0,0:0|0:0,0:0:0:0:
94,231,87005,2,0,L|84:176,1,55,2|0,0:0|0:0,0:0:0:0:
25,122,87327,1,2,0:0:0:0:
8,332,87650,1,2,0:0:0:0:
8,332,87972,6,0,L|62:326,1,55,2|0,0:0|0:0,0:0:0:0:
146,349,88295,1,2,0:0:0:0:
146,349,88456,2,0,L|221:340,1,55,2|0,0:0|0:0,0:0:0:0:
189,259,88779,1,2,0:0:0:0:
189,259,88940,2,0,L|117:268,1,55,2|0,0:0|0:0,0:0:0:0:
67,231,89263,1,2,0:0:0:0:
47,157,89424,1,2,0:0:0:0:
98,103,89585,1,2,0:0:0:0:
98,103,89908,6,0,L|278:106,1,165,2|2,0:0|0:0,0:0:0:0:
321,152,90553,1,2,0:0:0:0:
322,227,90714,1,0,0:0:0:0:
280,288,90876,2,0,L|162:280,1,110,2|0,0:0|0:0,0:0:0:0:
108,238,91359,1,2,0:0:0:0:
66,303,91521,1,2,0:0:0:0:
25,233,91682,1,0,0:0:0:0:
71,168,91843,5,2,0:0:0:0:
338,219,92327,1,2,0:0:0:0:
338,219,92811,2,0,P|337:191|335:164,1,55,2|0,0:0|0:0,0:0:0:0:
252,152,93134,2,0,P|252:124|254:97,1,55,2|0,0:0|0:0,0:0:0:0:
220,31,93456,1,2,0:0:0:0:
295,25,93617,1,2,0:0:0:0:
335,89,93779,6,0,P|389:86|470:81,1,110,2|2,0:0|0:0,0:0:0:0:
505,130,94263,1,2,0:0:0:0:
470,198,94424,1,2,0:0:0:0:
506,264,94585,1,0,0:0:0:0:
488,338,94747,2,0,L|416:334,1,55,2|0,0:0|0:0,0:0:0:0:
370,384,95069,2,0,P|357:321|392:262,1,110,2|0,0:0|0:0,0:0:0:0:
421,221,95553,1,2,0:0:0:0:
344,209,95714,5,2,0:0:0:0:
158,299,96037,1,2,0:0:0:0:
158,299,96359,2,0,L|103:179,1,110,2|2,0:0|0:0,0:0:0:0:
82,131,96843,1,2,0:0:0:0:
155,134,97005,2,0,L|205:111,1,55,2|0,0:0|0:0,0:0:0:0:
182,34,97327,2,0,L|131:56,1,55,2|0,0:0|0:0,0:0:0:0:
13,91,97650,6,0,P|3:144|28:191,1,110,2|0,0:0|0:0,0:0:0:0:
99,222,98134,1,2,0:0:0:0:
146,284,98295,1,2,0:0:0:0:
134,361,98456,1,2,0:0:0:0:
170,291,98617,5,2,0:0:0:0:
246,274,98779,1,2,0:0:0:0:
318,302,98940,2,0,L|317:364,1,55,2|0,0:0|0:0,0:0:0:0:
246,274,99263,2,0,L|246:219,1,55,2|0,0:0|0:0,0:0:0:0:
303,170,99585,5,2,0:0:0:0:
240,376,99908,1,2,0:0:0:0:
303,170,100230,1,2,0:0:0:0:
240,376,100553,2,0,P|185:372|130:372,1,110,2|0,0:0|0:0,0:0:0:0:
55,356,101037,2,0,L|46:296,1,55,2|0,0:0|0:0,0:0:0:0:
9,237,101359,6,0,P|34:227|69:229,1,55,2|0,0:0|0:0,0:0:0:0:
130,260,101682,1,2,0:0:0:0:
205,252,101843,1,2,0:0:0:0:
234,183,102005,1,0,0:0:0:0:
197,117,102166,2,0,L|194:62,1,55,2|0,0:0|0:0,0:0:0:0:
270,26,102488,2,0,L|273:87,1,55,2|0,0:0|0:0,0:0:0:0:
322,140,102811,1,2,0:0:0:0:
322,140,102972,2,0,L|408:131,2,55,2|0|0,0:0|0:0|0:0,0:0:0:0:
310,217,103456,6,0,L|315:285,1,55,2|0,0:0|0:0,0:0:0:0:
387,240,103779,2,0,L|392:308,1,55,2|0,0:0|0:0,0:0:0:0:
335,347,104101,1,2,0:0:0:0:
335,347,104424,5,2,0:0:0:0:
257,364,104585,1,0,0:0:0:0:
179,357,104747,1,2,0:0:0:0:
121,306,104908,1,0,0:0:0:0:
116,230,105069,2,0,L|120:176,1,55,2|0,0:0|0:0,0:0:0:0:
180,124,105392,5,2,0:0:0:0:
235,177,105553,1,0,0:0:0:0:
283,116,105714,2,0,L|279:48,1,55,2|0,0:0|0:0,0:0:0:0:
334,179,106037,2,0,L|337:233,1,55,2|0,0:0|0:0,0:0:0:0:
283,289,106359,2,0,P|332:311|384:296,1,110,2|2,0:0|0:0,0:0:0:0:
437,237,106843,1,0,0:0:0:0:
437,237,107005,2,0,L|434:173,1,55,2|0,0:0|0:0,0:0:0:0:
405,107,107327,5,2,0:0:0:0:
335,82,107488,1,0,0:0:0:0:
280,138,107650,2,0,L|281:201,1,55,2|0,0:0|0:0,0:0:0:0:
200,107,107972,2,0,L|198:52,1,55,2|0,0:0|0:0,0:0:0:0:
121,18,108295,1,2,0:0:0:0:
53,48,108456,1,2,0:0:0:0:
35,121,108617,1,2,0:0:0:0:
61,194,108779,2,0,P|88:195|114:190,1,55,2|0,0:0|0:0,0:0:0:0:
183,157,109101,1,2,0:0:0:0:
183,157,109263,6,0,L|260:150,1,55,2|2,0:0|0:0,0:0:0:0:
296,95,109585,2,0,P|318:154|287:215,1,110,2|0,0:0|0:0,0:0:0:0:
257,258,110069,1,2,0:0:0:0:
257,258,110230,2,0,L|264:320,1,55,2|0,0:0|0:0,0:0:0:0:
197,356,110553,2,0,L|71:341,1,110,2|0,0:0|0:0,0:0:0:0:
31,296,111037,5,2,0:0:0:0:
5,227,111198,1,2,0:0:0:0:
32,157,111359,1,2,0:0:0:0:
90,112,111521,2,0,L|145:118,1,55,2|0,0:0|0:0,0:0:0:0:
212,166,111843,1,2,0:0:0:0:
267,110,112005,1,2,0:0:0:0:
299,180,112166,2,0,L|299:247,1,55,2|0,0:0|0:0,0:0:0:0:
334,309,112488,2,0,P|311:317|266:311,2,55,2|0|2,0:0|0:0|0:0,0:0:0:0:
506,116,113134,6,0,P|437:93|344:130,1,165,2|2,0:0|0:0,0:0:0:0:
299,180,113779,1,2,0:0:0:0:
299,180,113940,1,0,0:0:0:0:
299,180,114101,2,0,P|270:178|214:185,1,55,2|0,0:0|0:0,0:0:0:0:
177,134,114424,2,0,P|148:132|92:139,1,55,2|0,0:0|0:0,0:0:0:0:
65,181,114747,2,0,L|72:262,1,55,2|0,0:0|0:0,0:0:0:0:
117,295,115069,5,2,0:0:0:0:
117,295,115392,1,2,0:0:0:0:
121,299,115714,2,0,L|246:297,1,110,2|2,0:0|0:0,0:0:0:0:
297,336,116198,1,0,0:0:0:0:
358,290,116359,1,2,0:0:0:0:
412,351,116521,2,0,L|490:346,2,55,2|2|0,0:0|0:0|0:0,0:0:0:0:
417,235,117005,6,0,P|369:212|316:222,1,110,2|0,0:0|0:0,0:0:0:0:
251,263,117488,1,2,0:0:0:0:
183,238,117650,1,2,0:0:0:0:
169,166,117811,1,0,0:0:0:0:
201,97,117972,2,0,P|257:95|319:97,2,110,2|2|0,0:0|0:0|0:0,0:0:0:0:
22,26,118940,6,0,P|39:105|51:208,1,165,2|2,0:0|0:0,0:0:0:0:
3,245,119585,2,0,P|25:259|56:263,1,55,2|0,0:0|0:0,0:0:0:0:
115,222,119908,1,2,0:0:0:0:
290,308,120230,1,2,0:0:0:0:
290,308,120553,5,2,0:0:0:0:
391,298,120714,2,0,L|445:294,2,55,2|2|0,0:0|0:0|0:0,0:0:0:0:
350,367,121198,2,0,P|334:238|229:368,1,385,2|0,0:0|0:0,0:0:0:0:
290,308,122488,1,2,0:0:0:0:
256,192,122650,12,0,127650,0:0:0:0:
256,192,127811,12,0,132972,0:0:0:0:
