osu file format v14

[General]
AudioFilename: audio.mp3
AudioLeadIn: 0
PreviewTime: 72026
Countdown: 1
SampleSet: Normal
StackLeniency: 0.7
Mode: 1
LetterboxInBreaks: 0
WidescreenStoryboard: 1

[Editor]
Bookmarks: 149115,165937,211508,322208,322270,322333,322395,322458,322520,322583,322645,322708,322770,322833,322895,322958,323020,323083,323145,323208,323270,323333,323395,323458,323520,323583,323645,323708,323770,323833,323895,323958,324020,324083,324145,324208,366208,389208,453958,468708,468833,468958,469083,469208,469333,469458,469583,469708,469833,469958,470083,470208,470333,562458,562583,562708,562833,562958,563083,563208,563333,563458,597029,610741,624457,680170,692465,714077,714157,714238,714318,714399,714480,714560,714641,714722,714802,714883,714964,715044,715125,715206,715286,715367
DistanceSpacing: 1.4
BeatDivisor: 8
GridSize: 32
TimelineZoom: 2.799999

[Metadata]
Title:Chromatic Aberration
TitleUnicode:Chromatic Aberration
Artist:Native Construct
ArtistUnicode:Native Construct
Creator:Cynplytholowazy
Version:Deflection
Source:osu!
Tags:FA Featured Artist Metal Rock English Faputa Quiet World
BeatmapID:2259853
BeatmapSetID:1080164

[Difficulty]
HPDrainRate:4
CircleSize:10
OverallDifficulty:7
ApproachRate:10
SliderMultiplier:1.4
SliderTickRate:1

[Events]
//Background and Video events
0,0,"abstract-background-1490171_1280.jpg",0,0
//Break Periods
//Storyboard Layer 0 (Background)
//Storyboard Layer 1 (Fail)
//Storyboard Layer 2 (Pass)
//Storyboard Layer 3 (Foreground)
//Storyboard Layer 4 (Overlay)
//Storyboard Sound Samples

[TimingPoints]
496,322.58064516129,6,1,0,50,1,0
496,-100,6,1,0,50,0,0
14044,-100,6,1,0,50,0,0
14205,-98.3606234883202,6,1,0,50,0,0
14366,-96.774224765879,6,1,0,50,0,0
14447,-95.9999692800098,6,1,0,50,0,0
14528,-95.2380952380952,6,1,0,50,0,0
14608,-94.4882187364469,6,1,0,50,0,0
14689,-93.7499707031342,6,1,0,50,0,0
14770,-93.0232558139535,6,1,0,50,0,0
14850,-92.3077207100679,6,1,0,50,0,0
14931,-91.6030254647251,6,1,0,50,0,0
15012,-90.9090909090909,6,1,0,50,0,0
15173,-89.5522120739665,6,1,0,50,0,0
15227,-89.1089285364215,6,1,0,50,0,0
15280,-88.6699332670082,6,1,0,50,0,0
15334,-88.2353200692118,6,1,0,50,0,0
15495,-86.9565217391304,6,1,0,50,0,0
15657,-85.7142612244968,6,1,0,50,0,0
15818,-84.5070660583285,6,1,0,50,0,0
15979,-83.3333333333333,6,1,0,50,0,0
16141,-100,6,1,0,50,0,0
29528,-100,6,1,0,50,0,0
29635,-100.840302238554,6,1,0,50,0,0
29743,-101.694949727102,6,1,0,50,0,0
29850,-102.564102564103,6,1,0,50,0,0
29958,-103.448240190262,6,1,0,50,0,0
30065,-104.347862381865,6,1,0,50,0,0
30173,-105.263157894737,6,1,0,50,0,0
30280,-106.194652674459,6,1,0,50,0,0
30388,-107.142895408177,6,1,0,50,0,0
30442,-107.623279776402,6,1,0,50,0,0
30495,-108.108108108108,6,1,0,50,0,0
30576,-108.843537414966,6,1,0,50,0,0
30657,-109.58904109589,6,1,0,50,0,0
30737,-110.344827586207,6,1,0,50,0,0
30818,-111.111111111111,6,1,0,50,0,0
30899,-111.888111888112,6,1,0,50,0,0
30979,-112.676056338028,6,1,0,50,0,0
31060,-113.475177304965,6,1,0,50,0,0
31141,-114.285714285714,6,1,0,50,0,0
31248,-115.384571005934,6,1,0,50,0,0
31356,-116.504899613553,6,1,0,50,0,0
31463,-117.647058823529,6,1,0,50,0,0
42431,-117.647058823529,6,1,0,50,0,0
42592,-112.676056338028,6,1,0,50,0,0
42754,-108.108108108108,6,1,0,50,0,0
42915,-103.896103896104,6,1,0,50,0,0
42995,-101.910828025478,6,1,0,50,0,0
43076,-100,6,1,0,50,0,0
43237,-99.1749634788197,6,1,0,50,0,0
43399,-98.3634292639071,6,1,0,50,0,0
43560,-97.565068583365,6,1,0,50,0,0
43721,-96.779563253187,6,1,0,50,0,0
43883,-96.0066974272125,6,1,0,50,0,0
43963,-95.624783648927,6,1,0,50,0,0
44044,-95.2459870484507,6,1,0,50,0,0
44366,-93.7601671181219,6,1,0,50,0,0
44447,-93.3958836698231,6,1,0,50,0,0
44528,-93.0345064984603,6,1,0,50,0,0
44608,-92.6759151051547,6,1,0,50,0,0
44689,-92.3199921712647,6,1,0,50,0,0
44770,-91.9668772095042,6,1,0,50,0,0
44850,-91.616369279932,6,1,0,50,0,0
44931,-91.2686062462409,6,1,0,50,0,0
45012,-90.9233906787158,6,1,0,50,0,0
45173,-90.2408166432943,6,1,0,50,0,0
45227,-90.0155636909622,6,1,0,50,0,0
45280,-89.7914324606803,6,1,0,50,0,0
45334,-89.5684948193583,6,1,0,50,0,0
45415,-89.2359970873371,6,1,0,50,0,0
45495,-88.9060378757502,6,1,0,50,0,0
45576,-88.5784313291282,6,1,0,50,0,0
45657,-88.2533081752569,6,1,0,50,0,0
45737,-87.9304856752446,6,1,0,50,0,0
45818,-87.6100930331578,6,1,0,50,0,0
45899,-87.2919505473642,6,1,0,50,0,0
45979,-86.976185920295,6,1,0,50,0,0
46141,-86.351386241979,6,1,0,50,0,0
46221,-86.0423775918115,6,1,0,50,0,0
46302,-85.7354991263553,6,1,0,50,0,0
46463,-85.1283352217636,6,1,0,50,0,0
46625,-84.5297105026475,6,1,0,50,0,0
46705,-84.233579716554,6,1,0,50,0,0
46786,-83.9395165419605,6,1,0,50,0,0
46866,-83.6474294308462,6,1,0,50,0,0
46907,-101.363131390945,6,2,0,50,0,0
46947,-83.3574375256845,6,2,0,50,0,0
47108,-100,6,2,0,50,0,0
57189,-100.103507026265,6,1,0,50,0,0
57270,-76.9230769230769,6,1,0,50,0,0
57431,-77.6699029126214,6,1,0,50,0,0
57592,-78.4313725490196,6,1,0,50,0,0
57754,-79.2079207920792,6,1,0,50,0,0
57915,-80,6,1,0,50,0,0
58076,-80.8080808080808,6,1,0,50,0,0
58237,-81.6326530612245,6,1,0,50,0,0
58318,-82.0512820512821,6,1,0,50,0,0
58399,-82.4742268041237,6,1,0,50,0,0
58479,-82.9015544041451,6,1,0,50,0,0
58520,-83.3333333333333,6,2,0,50,0,0
58721,-100,6,2,0,50,0,0
68802,-100.103507026265,6,1,0,50,0,0
68883,-76.9230769230769,6,1,0,50,0,0
69044,-77.9220981615839,6,1,0,50,0,0
69205,-78.9473476454348,6,1,0,50,0,0
69366,-80,6,1,0,50,0,0
69528,-81.0811029948927,6,1,0,50,0,0
69689,-82.1917583036279,6,1,0,50,0,0
69770,-81.9672131147541,6,2,0,50,0,0
69849,322.58064516129,4,2,0,50,1,0
69849,-83.3333333333333,4,2,0,50,0,0
70171,-104.166666666667,4,2,0,50,0,0
70494,-108.695652173913,4,2,0,50,0,0
70574,-109.89010989011,4,2,0,50,0,0
70655,-111.111111111111,4,2,0,50,0,0
70736,-112.359550561798,4,2,0,50,0,0
70816,-113.636363636364,4,2,0,50,0,0
71139,322.58064516129,6,2,0,50,1,0
71139,-119.047619047619,6,2,0,50,0,0
72106,-119.047619047619,6,2,0,50,0,0
72268,-115.409073230519,6,2,0,50,0,0
72429,-111.98634662462,6,2,0,50,0,0
72590,-108.760908719145,6,2,0,50,0,0
72751,-105.715956026391,6,2,0,50,0,0
72913,-102.836857552442,6,2,0,50,0,0
72993,-102.836857552442,6,1,0,50,0,0
73074,322.58064516129,4,1,0,50,1,8
73074,-100.11042179524,6,1,0,50,0,0
73076,322.58064516129,4,1,0,50,1,0
73076,-100,4,1,0,50,0,0
73237,-111.111111111111,4,1,0,50,0,0
97753,-113.636363636364,4,1,0,54,0,0
97914,-116.279069767442,4,1,0,58,0,0
98075,-119.047619047619,4,1,0,62,0,0
98237,-121.951219512195,4,1,0,66,0,0
98398,-125,4,1,0,70,0,0
98559,-126.582278481013,4,1,0,70,0,0
98721,-128.205128205128,4,1,0,70,0,0
98882,322.58064516129,6,1,0,70,1,1
98882,-83.3333333333333,6,1,0,70,0,1
102430,322.58064516129,6,1,0,70,1,1
102430,-83.3333333333333,6,1,0,70,0,1
107913,322.58064516129,6,1,0,70,1,1
107913,-83.3333333333333,6,1,0,70,0,1
113074,322.58064516129,6,1,0,70,1,1
113074,-87.719298245614,6,1,0,70,0,1
113235,-92.5925925925926,6,1,0,70,0,1
113396,-96.669727874716,6,1,0,70,0,1
113477,-95.0864097748829,6,1,0,70,0,1
113557,-93.5541210590327,6,1,0,70,0,1
113638,-92.0705186516457,6,1,0,70,0,1
113719,-90.6331541515876,6,1,0,70,0,1
113799,-89.239978796581,6,1,0,70,0,1
113880,-87.8889856644276,6,1,0,70,0,1
113961,-86.5782875507349,6,1,0,70,0,1
114041,-85.3061081732635,6,1,0,70,0,1
114095,-84.4785813004971,6,1,0,70,0,1
114149,-83.6669553176625,6,1,0,70,0,1
114203,-82.8707076081111,6,1,0,70,0,1
114256,-82.0895399866358,6,1,0,70,0,1
114310,-81.32296194492,6,1,0,70,0,1
114364,-80.5705685381598,6,1,0,70,0,1
114418,-79.8319059388551,6,1,0,70,0,1
114471,-79.1067268405169,6,1,0,70,0,1
114525,-78.3946039426214,6,1,0,70,0,1
114579,-77.6951877931537,6,1,0,70,0,1
114633,-77.0080819982057,6,1,0,70,0,1
114686,322.58064516129,3,1,0,70,1,9
114686,-80,6,1,0,70,0,1
114688,428.571428571429,3,1,0,60,1,0
114688,-57.1428571428571,3,1,0,60,0,0
114902,-62.2914404708735,3,1,0,60,0,0
115116,-64.5161290322581,3,1,0,60,0,0
115330,-66.9056088979107,3,1,0,60,0,0
115759,-72.258042139445,3,1,0,60,0,0
116188,-66.6666666666667,3,1,0,60,0,0
116830,-75.2688414845725,3,1,0,60,0,0
119616,428.571428571429,3,1,0,60,1,0
119616,-75.268817204301,3,1,0,60,0,0
120473,428.571428571429,3,1,0,60,1,0
120473,-75.268817204301,3,1,0,60,0,0
120687,-66.6666666666667,3,1,0,60,0,0
121008,-75.268817204301,3,1,0,60,0,0
121545,428.571428571429,3,1,0,60,1,0
121545,-75.268817204301,3,1,0,60,0,0
122616,428.571428571429,3,1,0,60,1,0
122616,-75.187969924812,3,1,0,60,0,0
122669,-73.9030023094688,3,1,0,60,0,0
122723,-72.661217075386,3,1,0,60,0,0
122776,-71.4604734256364,3,1,0,60,0,0
122830,-70.298769771529,3,1,0,60,0,0
122883,-69.1742325983571,3,1,0,60,0,0
122937,-68.0851063829787,3,1,0,60,0,0
122991,-67.0297444490993,3,1,0,60,0,0
123044,-66.006600660066,3,1,0,60,0,0
123258,-62.2083981337481,3,1,0,60,0,0
123473,428.571428571429,3,1,0,60,1,0
123473,-58.8235294117648,3,1,0,60,0,0
123687,-62.111801242236,3,1,0,60,0,0
123901,-64.5161290322581,3,1,0,60,0,0
124115,-67.1140939597315,3,1,0,60,0,0
124437,-72.463768115942,3,1,0,60,0,0
125187,-66.6666666666667,3,1,0,60,0,0
125615,-75.187969924812,3,1,0,60,0,0
126902,428.571428571429,3,1,0,60,1,0
126902,-75.268817204301,3,1,0,60,0,0
127759,428.571428571429,3,1,0,60,1,0
127759,-75.268817204301,3,1,0,60,0,0
129580,428.571428571429,3,1,0,60,1,8
129580,-75.268817204301,3,1,0,60,0,8
129955,-66.6666666666667,3,1,0,60,0,0
130115,-74.6268656716418,3,1,0,60,0,0
130276,-74.0740740740741,3,1,0,60,0,0
130490,-72.992700729927,3,1,0,60,0,0
130652,428.571428571429,3,1,0,60,1,0
130652,-66.6666666666667,3,1,0,60,0,0
131027,-67.5675675675676,3,1,0,60,0,0
131134,-68.4931506849315,3,1,0,60,0,0
131241,-69.4444444444444,3,1,0,60,0,0
131348,-70.4225352112676,3,1,0,60,0,0
131455,-71.4285714285714,3,1,0,60,0,0
131616,-72.463768115942,3,1,0,60,0,0
131723,-72.992700729927,3,1,0,60,0,0
131777,-73.5294117647059,3,1,0,60,0,0
131830,-66.6666666666667,3,1,0,60,0,0
132366,-68.9655172413793,3,1,0,60,0,0
132473,-68.4931506849315,3,1,0,60,0,0
132527,-68.0272108843537,3,1,0,60,0,0
132634,-67.5675675675676,3,1,0,60,0,0
132795,428.571428571429,3,1,0,60,1,0
132795,-66.6666666666667,3,1,0,60,0,0
133009,-73.5294117647059,3,1,0,40,0,0
133330,-74.0740740740741,3,1,0,40,0,0
133545,-74.6268656716418,3,1,0,60,0,0
133759,-75.187969924812,3,1,0,60,0,0
134080,428.571428571429,3,1,0,60,1,0
134080,-66.6666666666667,3,1,0,60,0,0
134187,-71.4285714285714,3,1,0,60,0,0
134401,-68.9655172413793,3,1,0,60,0,0
134615,-66.6666666666667,3,1,0,60,0,0
135901,-58.8235294117647,3,1,0,60,0,0
136115,-66.6666666666667,3,1,0,60,0,0
137615,-64.5161290322581,3,1,0,60,0,0
137830,-62.5,3,1,0,60,0,0
138151,-66.6666666666667,3,1,0,60,0,0
139009,428.571428571429,3,1,0,60,1,0
139009,-67.1140939597315,3,1,0,60,0,0
139116,-67.5675675675676,3,1,0,60,0,0
139330,-68.4931506849315,3,1,0,60,0,0
139437,-68.9655172413793,3,1,0,60,0,0
139651,-69.9300699300699,3,1,0,60,0,0
139759,-70.4225352112676,3,1,0,60,0,0
139866,428.571428571429,3,1,0,60,1,0
139866,-66.6666666666667,3,1,0,60,0,0
140187,-58.8235294117647,3,1,0,60,0,0
140401,-66.6666666666667,3,1,0,60,0,0
140938,428.571428571429,3,1,0,60,1,0
140938,-66.6666666666667,3,1,0,60,0,0
141045,-67.0859538784067,3,1,0,60,0,0
141259,-67.9405520169851,3,1,0,60,0,0
141366,-68.3760683760684,3,1,0,60,0,0
141473,-68.8172043010753,3,1,0,60,0,0
141580,-69.2640692640693,3,1,0,60,0,0
141688,-69.7167755991285,3,1,0,60,0,0
141795,-70.1754385964912,3,1,0,60,0,0
141902,-70.6401766004415,3,1,0,60,0,0
142009,428.571428571429,3,1,0,60,1,0
142009,-71.1111111111112,3,1,0,60,0,0
142062,-71.3489154608106,3,1,0,60,0,0
142116,-71.5883668903804,3,1,0,60,0,0
142169,-71.8293793654306,3,1,0,60,0,0
142223,-72.0720720720721,3,1,0,60,0,0
142276,-72.3163580325034,3,1,0,60,0,0
142330,-72.5623582766441,3,1,0,60,0,0
142384,-72.8099848700852,3,1,0,60,0,0
142437,-73.0593607305937,3,1,0,60,0,0
142651,-74.0740740740741,3,1,0,60,0,0
142866,428.571428571429,3,1,0,60,1,0
142866,-66.6666666666667,3,1,0,60,0,0
142973,-71.4285714285714,3,1,0,60,0,0
143187,-68.9655172413793,3,1,0,60,0,0
143401,-66.6666666666667,3,1,0,60,0,0
144741,-58.8235294117647,3,1,0,60,0,0
144955,-66.6666666666667,3,1,0,60,0,0
145437,428.571428571429,4,1,0,60,1,0
145437,-66.6666666666667,4,1,0,60,0,0
146509,-68.6106346483705,4,1,0,60,0,0
146580,-69.2840806660694,4,1,0,60,0,0
146652,-69.9708291613226,4,1,0,60,0,0
146723,-70.6713780918728,4,1,0,60,0,0
146795,-71.3860967010343,4,1,0,60,0,0
146866,-72.1153672799598,4,1,0,60,0,0
146937,-72.8597449908925,4,1,0,60,0,0
147009,-73.6196499680123,4,1,0,60,0,0
147080,-74.3955178188425,4,1,0,60,0,0
147151,428.571428571429,3,1,0,60,1,8
147152,428.571428571429,3,1,0,60,1,0
147152,-75.1879699248121,3,1,0,60,0,0
148973,428.571428571429,3,1,0,60,1,8
148973,-75.268817204301,3,1,0,60,0,8
149187,-66.6666666666667,3,1,0,60,0,0
149508,-74.6268656716418,3,1,0,60,0,0
149723,-74.0740740740741,3,1,0,60,0,0
149937,-72.992700729927,3,1,0,60,0,0
150045,428.571428571429,3,1,0,60,1,0
150045,-66.6666666666667,3,1,0,60,0,0
150473,-68.0272108843537,3,1,0,60,0,0
150580,-69.4444444444444,3,1,0,60,0,0
150687,-70.9219858156028,3,1,0,60,0,0
150902,428.571428571429,3,1,0,60,1,0
150902,-66.6666666666667,3,1,0,60,0,0
151044,-66.6666666666667,3,1,0,60,0,0
151115,-67.2473249014154,3,1,0,60,0,0
151187,-67.8382329497081,3,1,0,60,0,0
151258,-68.4395709386419,3,1,0,60,0,0
151330,-69.0517128277367,3,1,0,60,0,0
151401,-69.6748553201629,3,1,0,60,0,0
151472,-70.3093470652176,3,1,0,60,0,0
151544,-70.9555513139904,3,1,0,60,0,0
151615,-71.6136928245228,3,1,0,60,0,0
151687,-72.2841576980098,3,1,0,60,0,0
151759,-72.9673485708615,3,1,0,60,0,0
151830,-73.6635227075175,3,1,0,60,0,0
151902,-74.3731643773367,3,1,0,60,0,0
151973,-75.0965553961005,3,1,0,60,0,0
152044,-66.6666666666667,3,1,0,60,0,0
152187,-64.5161290322581,3,1,0,60,0,0
153044,-72.463768115942,3,1,0,60,0,0
153152,-72.992700729927,3,1,0,60,0,0
153259,-73.5294117647059,3,1,0,60,0,0
153366,-74.0740740740741,3,1,0,60,0,0
153473,428.571428571429,4,1,0,60,1,0
153473,-62.5,4,1,0,60,0,0
153687,-90.9090909090909,4,1,0,60,0,0
154973,428.571428571429,6,1,0,60,1,0
154973,-90.9090909090909,6,1,0,60,0,0
155830,-90.9090909090909,6,1,0,60,0,0
157330,428.571428571429,6,1,0,60,1,0
157330,-90.9090909090909,6,1,0,60,0,0
159901,428.571428571429,3,1,0,60,1,8
159902,428.571428571429,3,1,0,60,1,0
159902,-66.6666666666667,3,1,0,60,0,0
161187,428.571428571429,4,1,0,60,1,8
161188,428.571428571429,4,1,0,60,1,0
161188,-66.6666666666667,4,1,0,60,0,0
161402,-90.9090909090909,4,1,0,60,0,0
162688,428.571428571429,5,1,0,60,1,0
162688,-90.9090909090909,5,1,0,60,0,0
163545,-71.4285714285714,5,1,0,60,0,0
163687,-70.833318576392,5,1,0,60,0,0
163830,-70.2479542039537,5,1,0,60,0,0
163973,-69.6721368583719,5,1,0,60,0,0
164116,-69.1056826293883,5,1,0,60,0,0
164259,-68.5483649843984,5,1,0,60,0,0
164402,-68.0000108800017,5,1,0,60,0,0
164545,-67.4603147833208,5,1,0,60,0,0
164759,428.571428571429,4,1,0,60,1,0
164759,-66.6666666666667,3,1,0,60,0,0
164973,-90.9090909090909,3,1,0,60,0,0
166259,428.571428571429,6,1,0,60,1,0
166259,-90.9090909090909,6,1,0,60,0,0
166901,-95.2380952380952,6,1,0,60,0,0
167116,-100,6,1,0,60,0,0
168616,428.571428571429,6,1,0,60,1,0
168616,-66.6666666666667,6,1,0,60,0,0
168830,-90.9090909090909,6,1,0,60,0,0
170116,-90.9090909090909,6,1,0,60,0,0
170973,428.571428571429,3,1,0,60,1,0
170973,-66.6666666666667,3,1,0,60,0,0
172258,428.571428571429,4,1,0,60,1,8
172259,428.571428571429,4,1,0,60,1,0
172259,-66.6666666666667,4,1,0,60,0,0
172473,-90.9090909090909,4,1,0,60,0,0
173759,428.571428571429,5,1,0,60,1,0
173759,-90.9090909090909,5,1,0,60,0,0
174616,-71.4285714285714,5,1,0,60,0,0
174758,-70.833318576392,5,1,0,60,0,0
174901,-70.2479542039537,5,1,0,60,0,0
175044,-69.6721368583719,5,1,0,60,0,0
175187,-69.1056826293883,5,1,0,60,0,0
175330,-68.5483649843984,5,1,0,60,0,0
175401,-68.2730868856958,5,1,0,60,0,0
175473,-68.0000108800017,5,1,0,60,0,0
175616,-67.4603147833208,5,1,0,60,0,0
175830,428.571428571429,4,1,0,60,1,0
175830,-66.6666666666667,3,1,0,60,0,0
176044,-90.9090909090909,3,1,0,60,0,0
177330,428.571428571429,6,1,0,60,1,0
177330,-90.9090909090909,6,1,0,60,0,0
177758,-94.3396226415094,6,1,0,60,0,0
177972,-97.0873786407767,6,1,0,60,0,0
178187,-100,6,1,0,60,0,0
179687,428.571428571429,4,1,0,60,1,0
179687,-66.6666666666667,4,1,0,60,0,0
179901,-90.9090909090909,4,1,0,60,0,0
182151,-90.9090909090909,4,1,0,30,0,0
182365,-90.9090909090909,4,1,0,60,0,0
182472,428.571428571429,3,1,0,60,1,0
182472,-66.6666666666667,3,1,0,60,0,0
183544,428.571428571429,4,1,0,60,1,0
183544,-66.6666666666667,4,1,0,60,0,0
184615,-75.187969924812,4,1,0,40,0,0
185151,-75.187969924812,4,1,0,60,0,0
186330,428.571428571429,5,1,0,60,1,0
186330,-75.268817204301,5,1,0,60,0,0
187615,-90.0900900900901,5,1,0,60,0,0
188151,428.571428571429,4,1,0,60,1,0
188151,-100,4,1,0,60,0,0
189651,428.571428571429,3,1,0,60,1,0
189651,-100,3,1,0,60,0,0
190722,428.571428571429,3,1,0,60,1,0
190722,-100,3,1,0,60,0,0
192007,428.571428571429,4,1,0,60,1,8
192008,428.571428571429,4,1,0,60,1,0
192008,-100,4,1,0,60,0,0
195436,428.571428571429,5,1,0,60,1,8
195437,428.571428571429,5,1,0,60,1,0
195437,-100,5,1,0,60,0,0
197472,428.571428571429,5,1,0,60,1,0
197472,-100,5,1,0,60,0,0
199614,428.571428571429,4,1,0,60,1,8
199615,428.571428571429,4,1,0,60,1,0
199615,-100,4,1,0,60,0,0
203900,428.571428571429,3,1,0,60,1,8
203900,-100,3,1,0,60,0,0
205185,428.571428571429,4,1,0,60,1,8
205187,428.571428571429,4,1,0,60,1,0
205187,-100,4,1,0,60,0,0
208615,428.571428571429,3,1,0,60,1,0
208615,-100,3,1,0,60,0,0
209900,428.571428571429,4,1,0,60,1,8
209901,428.571428571429,4,1,0,60,1,0
209954,-98.9119683481701,4,1,0,60,0,0
210008,-97.8473581213307,4,1,0,60,0,0
210115,-95.7854406130268,4,1,0,60,0,0
210222,-93.8086303939962,4,1,0,60,0,0
210329,-91.9117647058823,4,1,0,60,0,0
210436,-90.0900900900901,4,1,0,60,0,0
210490,-89.2060660124888,4,1,0,60,0,0
210543,-88.339222614841,4,1,0,60,0,0
210651,-86.6551126516464,4,1,0,60,0,0
210758,-85.0340136054422,4,1,0,60,0,0
210865,-83.4724540901503,4,1,0,60,0,0
210972,-81.9672131147541,4,1,0,60,0,0
211079,-80.5152979066023,4,1,0,60,0,0
211186,-79.1139240506329,4,1,0,60,0,0
211293,-77.7604976671851,4,1,0,60,0,0
211401,-76.4525993883792,4,1,0,60,0,0
211508,428.571428571429,4,1,0,60,1,0
211508,-75.1879699248121,4,1,0,60,0,0
214936,428.571428571429,3,1,0,60,1,8
214937,428.571428571429,3,1,0,60,1,0
214937,-75.187969924812,3,1,0,60,0,0
217508,428.571428571429,4,1,0,60,1,0
217508,-75.187969924812,4,1,0,60,0,0
219008,428.571428571429,3,1,0,60,1,0
219008,-75.187969924812,3,1,0,60,0,0
222865,428.571428571429,4,1,0,60,1,0
222865,-75.187969924812,4,1,0,60,0,0
223722,428.571428571429,3,1,0,60,1,0
223722,-75.187969924812,3,1,0,60,0,0
226293,428.571428571429,4,1,0,60,1,8
226294,428.571428571429,4,1,0,60,1,0
226294,-75.187969924812,4,1,0,60,0,0
227794,428.571428571429,3,1,0,60,1,0
227794,-75.187969924812,3,1,0,60,0,0
228865,-71.4285714285714,3,1,0,60,0,0
228971,-68.9655172413793,3,1,0,60,0,0
229026,-66.6666666666667,3,1,0,60,0,0
229079,428.571428571429,4,1,0,60,1,8
229080,428.571428571429,4,1,0,60,1,0
229080,-66.6666666666667,4,1,0,60,0,1
229240,-66.6666666666667,4,1,0,60,0,1
230687,-66.6666666666667,4,1,0,60,0,1
230955,-66.6666666666667,4,1,0,60,0,1
232508,428.571428571429,5,1,0,60,1,1
232508,-66.6666666666667,5,1,0,60,0,1
234436,-66.6666666666667,5,1,0,60,0,1
234544,428.571428571429,5,1,0,60,1,1
234544,-66.6666666666667,5,1,0,60,0,1
234597,-66.6666666666667,5,1,0,60,0,1
235829,-66.6666666666667,5,1,0,60,0,0
236044,-68.9655172413793,5,1,0,60,0,0
236258,-71.4285714285714,5,1,0,60,0,0
236365,-66.6666666666667,5,1,0,60,0,0
236472,428.571428571429,4,1,0,60,1,1
236472,-66.6666666666667,4,1,0,60,0,1
236632,-66.6666666666667,4,1,0,60,0,1
238186,428.571428571429,5,1,0,60,1,1
238186,-66.6666666666667,5,1,0,60,0,1
240222,428.571428571429,4,1,0,60,1,1
240222,-66.6666666666667,4,1,0,60,0,1
241882,-66.6666666666667,4,1,0,60,0,1
242150,-68.4931506849315,4,1,0,60,0,1
242364,-69.9300699300699,4,1,0,60,0,1
242579,453.400503778452,4,1,0,60,1,8
242579,-66.6666666666667,4,1,0,60,0,8
242806,-68.2261341571412,4,1,0,60,0,8
243033,-69.8602585248727,4,1,0,60,0,8
243146,-70.7070564228169,4,1,0,60,0,8
243259,521.739130434783,4,1,0,60,1,0
243259,-62.1996196697141,4,1,0,60,0,8
243520,-63.7644031796464,4,1,0,60,0,8
243651,-64.576695511976,4,1,0,60,0,8
243780,568.720379146919,4,1,0,60,1,8
243923,-60.7908791969507,4,1,0,60,0,8
244065,-61.5960629369226,4,1,0,60,0,8
244353,652.173913043478,4,1,0,60,1,8
244353,-55.1757226820338,4,1,0,60,0,8
244674,831.168831168831,4,1,0,60,1,8
244674,-44.504466874691,4,1,0,60,0,8
244725,-44.6605968180263,4,1,0,60,0,8
244777,-44.8178629058747,4,1,0,60,0,8
244829,-44.9762404890643,4,1,0,60,0,8
244881,-45.1357413928061,4,1,0,60,0,8
244933,-45.2963399980113,4,1,0,60,0,8
244985,-45.4581234257042,4,1,0,60,0,8
245038,764.331210191083,4,1,0,60,1,8
245038,-48.780487804878,4,1,0,60,0,0
245420,747.663551401869,4,1,0,60,1,8
245420,-45.4545454545455,4,1,0,60,0,0
245793,833.333333333333,4,1,0,60,1,8
245793,-40,4,1,0,60,0,0
246208,500,4,2,0,60,1,0
246208,-64.5161290322581,4,2,0,60,0,0
248208,-78.4313725490196,4,2,0,60,0,0
249458,-100,4,1,0,60,0,0
250708,-133.333333333333,4,2,0,20,0,0
273958,-125,4,2,0,30,0,0
289708,-120.481927710843,4,2,0,30,0,0
289958,-119.047619047619,4,2,0,30,0,0
290083,-117.647058823529,4,2,0,40,0,0
306083,-111.111111111111,4,2,0,50,0,0
306208,-111.111111111111,4,2,0,50,0,0
306458,-109.871274814427,4,2,0,50,0,0
306708,-108.658802666922,4,2,0,50,0,0
306833,-108.06242982696,4,2,0,50,0,0
307083,-106.889338536706,4,2,0,50,0,0
307208,-106.312292358804,4,2,0,50,0,0
307458,-105.176691583025,4,2,0,50,0,0
307583,-104.617940512147,4,2,0,50,0,0
307645,-104.340785352223,4,2,0,50,0,0
307708,-104.064986502771,4,2,0,50,0,0
307833,-103.517954153968,4,2,0,50,0,0
307958,-102.976642837872,4,2,0,50,0,0
308208,-101.910828025478,4,2,0,50,0,0
308458,-100.866849706377,4,2,0,50,0,0
308583,-100.352840587506,4,2,0,50,0,0
308708,-99.8440436038907,4,2,0,50,0,0
308958,-98.8416744175013,4,2,0,50,0,0
309083,-98.3480478404244,4,2,0,50,0,0
309208,-97.8593272171254,4,2,0,50,0,0
309333,-97.3754397718299,4,2,0,50,0,0
309458,-96.8963141611056,4,2,0,50,0,0
309583,-96.4218804387967,4,2,0,50,0,0
309708,-95.9519779540736,4,2,0,50,0,0
309791,-95.6413373336917,4,2,0,50,0,0
309874,-95.3327015952974,4,2,0,50,0,0
309958,-95.0259610925705,4,2,0,50,0,0
310041,-94.7212779037045,4,2,0,50,0,0
310124,-94.4184531424822,4,2,0,50,0,0
310208,-94.1176470588235,4,2,0,50,0,0
310458,-93.2265330171089,4,2,0,50,0,0
310708,-92.3521349966568,4,2,0,50,0,0
310833,-91.9209737004902,4,2,0,50,0,0
311083,-91.0707829446281,4,2,0,50,0,0
311208,-90.6515580736544,4,2,0,50,0,0
311458,-89.8245815746429,4,2,0,50,0,0
311583,-89.4167257562196,4,2,0,50,0,0
311645,-89.2141836277699,4,2,0,50,0,0
311708,-89.0124777691337,4,2,0,50,0,0
311833,-88.6119470171446,4,2,0,50,0,0
311958,-88.2150046665737,4,2,0,50,0,0
312208,-87.431693989071,4,2,0,50,0,0
312458,-86.6621717886899,4,2,0,50,0,0
312583,-86.2824680927433,4,2,0,50,0,0
312708,-85.906077167711,4,2,0,50,0,0
312958,-85.1629891868553,4,2,0,50,0,0
313083,-84.7962811742928,4,2,0,50,0,0
313208,-84.4327176781003,4,2,0,50,0,0
313333,-84.0722584246708,4,2,0,50,0,0
313458,-83.7148638252168,4,2,0,50,0,0
313583,-83.3604949612749,4,2,0,50,0,0
313708,-83.0090446655068,4,2,0,50,0,0
313833,-82.6606137054604,4,2,0,50,0,0
313958,-82.315095600752,4,2,0,50,0,0
314208,-81.6326530612245,4,2,0,50,0,0
314458,-80.9614332116753,4,2,0,50,0,0
314708,-80.3011614759996,4,2,0,50,0,0
314833,-79.9749838250595,4,2,0,50,0,0
315083,-79.3306397936769,4,2,0,50,0,0
315208,-79.0123456790123,4,2,0,50,0,0
315333,-78.6965955065818,4,2,0,50,0,0
315458,-78.3833588993722,4,2,0,50,0,0
315583,-78.0726059620926,4,2,0,50,0,0
315645,-77.9181516567737,4,2,0,50,0,0
315708,-77.7642467988348,4,2,0,50,0,0
315833,-77.4583738698823,4,2,0,50,0,0
315958,-77.1548977157521,4,2,0,50,0,0
316208,-76.555023923445,4,2,0,50,0,0
316458,-75.9644061178694,4,2,0,50,0,0
316708,-75.3828317108435,4,2,0,50,0,0
316833,-75.0953147282188,4,2,0,50,0,0
316895,-74.9524052226836,4,2,0,50,0,0
316958,-74.8100386094609,4,2,0,50,0,0
317083,-74.5269217325721,4,2,0,50,0,0
317208,-74.245939675174,4,2,0,50,0,0
317333,-73.9670683818151,4,2,0,50,0,0
317458,-73.6902841571047,4,2,0,50,0,0
317583,-73.4155636590023,4,2,0,50,0,0
317708,-73.1428303934792,4,2,0,50,0,0
317791,-72.9621844294321,4,2,0,50,0,0
317874,-72.7824285749637,4,2,0,50,0,0
317958,-72.6035035546675,4,2,0,50,0,0
318041,-72.4255085538147,4,2,0,50,0,0
318124,-72.2483319666357,4,2,0,50,0,0
318208,-72.0720720720721,4,2,0,50,0,0
318458,-71.5483638320159,4,2,0,50,0,0
318833,-70.7768681377403,4,2,0,50,0,0
318958,-70.5234035440831,4,2,0,50,0,0
319083,-70.2717478762121,4,2,0,50,0,0
319208,-70.0218818380744,4,2,0,50,0,0
319458,-69.527442829322,4,2,0,50,0,0
319583,-69.2828326147549,4,2,0,50,0,0
319645,-69.1611718115662,4,2,0,50,0,0
319708,-69.0398898675677,4,2,0,50,0,0
319833,-68.7986922744573,4,2,0,50,0,0
319958,-68.559174108765,4,2,0,50,0,0
320083,-68.3213178908936,4,2,0,50,0,0
320208,-68.0851063829787,4,2,0,50,0,0
320458,-67.617549729327,4,2,0,50,0,0
320708,-67.1563258236891,4,2,0,50,0,0
320791,-67.0040095199297,4,2,0,50,0,0
320874,-66.8523825854892,4,2,0,50,0,0
320958,-66.7013958601112,4,2,0,50,0,0
321208,-66.2525879917184,4,2,0,50,0,0
321374,-65.9567086547074,4,2,0,50,0,0
321541,-65.6634603198992,4,2,0,50,0,0
321708,-65.3728080497461,4,2,0,50,0,0
321958,-64.9416434392055,4,2,0,50,0,0
322083,-64.7281869246473,4,2,0,50,0,0
322208,-64.5161290322581,4,1,0,55,0,0
341208,-64.5161290322581,4,1,0,55,0,0
341333,-63.7450199203187,4,1,0,55,0,0
341395,-63.3663366336634,4,1,0,55,0,0
341458,-62.992125984252,4,1,0,55,0,0
341583,-62.2568093385214,4,1,0,55,0,0
341645,-61.8955512572534,4,1,0,55,0,0
341708,-61.5384615384615,4,1,0,55,0,0
341833,-60.8365019011407,4,1,0,55,0,0
341958,-60.1503759398496,4,1,0,55,0,0
342083,-59.4795539033457,4,1,0,55,0,0
342208,-58.8235294117647,4,1,0,60,0,0
395583,-58.8235294117647,4,1,0,60,0,0
395708,-58.490580384482,4,1,0,60,0,0
395833,-58.1613453882415,4,1,0,60,0,0
395958,-57.8358295277358,4,1,0,60,0,0
396083,-57.5139039862887,4,1,0,60,0,0
396208,-57.1955751215263,4,1,0,60,0,0
396333,-56.8807182897106,4,1,0,60,0,0
396395,-56.724618427673,4,1,0,60,0,0
396458,-56.5693410011189,4,1,0,60,0,0
396520,-56.414911363712,4,1,0,60,0,0
396583,-56.2613542445535,4,1,0,60,0,0
396708,-55.9566716300234,4,1,0,60,0,0
396833,-55.6553022249877,4,1,0,60,0,0
396895,-55.5058161769481,4,1,0,60,0,0
396958,-55.3571309949005,4,1,0,60,0,0
397083,-55.0621679407135,4,1,0,60,0,0
397208,-54.7703315686332,4,1,0,60,0,0
397270,-54.6255554736172,4,1,0,60,0,0
397333,-54.4815427429496,4,1,0,60,0,0
397458,-54.1958127231174,4,1,0,60,0,0
397520,-54.054054054054,4,1,0,60,0,0
397583,-53.9130350396989,4,1,0,60,0,0
397645,-53.763440860215,4,1,0,60,0,0
397708,-53.6332217047212,4,1,0,60,0,0
397833,-53.3562694150125,4,1,0,60,0,0
397958,-53.0821908718803,4,1,0,60,0,0
398020,-52.9461907863039,4,1,0,60,0,0
398083,-52.81091369218,4,1,0,60,0,0
398145,-52.6762983522327,4,1,0,60,0,0
398208,-52.5423675380643,4,1,0,60,0,0
398333,-52.2765660360196,4,1,0,60,0,0
398395,-52.1446576233925,4,1,0,60,0,0
398458,-52.0134132190009,4,1,0,60,0,0
398583,-51.7529232638706,4,1,0,60,0,0
398645,-51.6236409431226,4,1,0,60,0,0
398708,-51.4950294422831,4,1,0,60,0,0
398770,-51.3670307904256,4,1,0,60,0,0
398833,-51.2396668806777,4,1,0,60,0,0
398958,-50.9868504912583,4,1,0,60,0,0
399020,-50.861362606421,4,1,0,60,0,0
399083,-50.7364909019324,4,1,0,60,0,0
399208,-50.488603459984,4,1,0,60,0,0
399333,-50.2431012453757,4,1,0,60,0,0
399458,-50,4,1,0,60,0,0
399520,-50.4731861198738,4,1,0,60,0,0
399583,-50.9554140127389,4,1,0,60,0,0
399708,-51.9480519480519,4,1,0,60,0,0
399791,-52.6315789473684,4,1,0,60,0,0
399874,-53.3333333333333,4,1,0,60,0,0
399958,-54.054054054054,4,1,0,60,0,0
400041,-54.7945205479452,4,1,0,60,0,0
400124,-55.5555555555556,4,1,0,60,0,0
400708,-58.8235294117647,4,1,0,60,0,0
401708,500,3,1,0,55,1,0
401708,-58.8235294117647,3,1,0,55,0,0
402958,500,3,1,0,55,1,0
402958,-59.1715976331361,3,1,0,55,0,0
403208,-59.7014925373134,3,1,0,55,0,0
403458,-60.6060606060606,3,1,0,55,0,0
403583,-61.0687022900763,3,1,0,55,0,0
403708,-61.5384615384615,3,1,0,55,0,0
403833,-62.015503875969,3,1,0,55,0,0
403958,-62.5,3,1,0,55,0,0
404020,-62.7450980392157,3,1,0,55,0,0
404083,-62.992125984252,3,1,0,55,0,0
404145,-63.2411067193676,3,1,0,55,0,0
404208,-63.4920634920635,3,1,0,55,0,0
404270,-63.7450199203187,3,1,0,55,0,0
404333,-64,3,1,0,55,0,0
404395,-64.2570281124498,3,1,0,55,0,0
404458,500,4,1,0,55,1,0
404458,-64.5161290322581,4,1,0,55,0,0
406458,500,5,1,0,55,1,0
406458,-64.5161290322581,5,1,0,55,0,0
408708,500,4,1,0,55,1,0
408708,-64.5161290322581,4,1,0,55,0,0
414708,500,5,1,0,55,1,0
414708,-64.5161290322581,5,1,0,55,0,0
416958,500,4,1,0,55,1,0
416958,-64.5161290322581,4,1,0,55,0,0
422958,500,5,1,0,55,1,0
422958,-64.5161290322581,5,1,0,55,0,0
425208,500,4,1,0,55,1,0
425208,-64.5161290322581,4,1,0,55,0,0
431208,500,5,1,0,55,1,0
431208,-64.5161290322581,5,1,0,55,0,0
433458,500,4,1,0,55,1,0
433458,-64.5161290322581,4,1,0,55,0,0
435458,-64.5161290322581,4,1,0,55,0,0
435583,-63.4920634920635,4,1,0,55,0,0
435708,-62.5,4,1,0,55,0,0
435833,-61.5384615384615,4,1,0,55,0,0
435958,-60.6060606060606,4,1,0,55,0,0
436020,-60.1503759398496,4,1,0,55,0,0
436083,-59.7014925373134,4,1,0,55,0,0
436145,-59.2592592592593,4,1,0,55,0,0
436208,-58.8235294117647,4,1,0,55,0,0
436333,-57.9710144927536,4,1,0,55,0,0
436395,-57.5539568345324,4,1,0,55,0,0
436458,-57.1428571428571,4,1,0,55,0,0
436583,-56.3380281690141,4,1,0,55,0,0
436645,-55.9440559440559,4,1,0,55,0,0
436708,-55.5555555555556,4,1,0,55,0,0
436833,-56.872048696123,4,1,0,55,0,0
436958,-58.2524158733173,4,1,0,55,0,0
437083,-59.7014925373134,4,1,0,55,0,0
437208,-61.2245022907148,4,1,0,55,0,0
437333,-62.8272119733588,4,1,0,55,0,0
437458,500,5,1,0,55,1,0
437458,-64.5161290322581,4,1,0,55,0,0
437583,-68.9655172413793,4,1,0,55,0,0
439708,500,4,1,0,55,1,0
439708,-68.9655172413793,4,1,0,55,0,0
441708,500,5,1,0,55,1,0
441708,-68.9655172413793,5,1,0,55,0,0
443958,500,4,1,0,55,1,0
443958,-68.9655172413793,4,1,0,55,0,0
445708,500,5,1,0,55,1,0
445708,-68.9655172413793,5,1,0,55,0,0
447958,500,4,1,0,55,1,0
447958,-68.9655172413793,4,1,0,55,0,0
449958,500,5,1,0,55,1,0
449958,-68.9655172413793,5,1,0,55,0,0
452208,500,4,1,0,55,1,0
452208,-68.9655172413793,4,1,0,55,0,0
452458,-68.9655172413793,4,1,0,55,0,0
452520,-68.1265273115842,4,1,0,55,0,0
452583,-67.3077052514818,4,1,0,55,0,0
452708,-65.7276810156767,4,1,0,55,0,0
452770,-64.9651851572742,4,1,0,55,0,0
452833,-64.2201775944791,4,1,0,55,0,0
452895,-63.2911392405063,4,1,0,55,0,0
452958,-62.7802746888139,4,1,0,55,0,0
453083,-61.4035249307522,4,1,0,55,0,0
453145,-60.7375113047693,4,1,0,55,0,0
453208,-60.0858265947079,4,1,0,55,0,0
453333,-58.8235294117647,4,1,0,55,0,0
453458,-60.6060606060606,4,1,0,55,0,0
453583,-62.5,4,1,0,55,0,0
453708,-64.5161290322581,4,1,0,55,0,0
453833,-66.6666666666667,4,1,0,55,0,0
453958,500,5,1,0,55,1,0
453958,-68.9655172413793,5,1,0,55,0,0
454083,-74.0740740740741,5,1,0,55,0,0
456208,500,4,1,0,55,1,0
456208,-74.0740740740741,4,1,0,55,0,0
458208,500,5,1,0,55,1,0
458208,-74.0740740740741,5,1,0,55,0,0
460458,500,4,1,0,55,1,0
460458,-74.0740740740741,4,1,0,55,0,0
462208,500,5,1,0,55,1,0
462208,-74.0740740740741,5,1,0,55,0,0
464458,500,4,1,0,55,1,0
464458,-74.0740740740741,4,1,0,55,0,0
466458,500,5,1,0,55,1,0
466458,-74.0740740740741,5,1,0,55,0,0
468708,500,4,1,0,55,1,0
468708,-74.0740740740741,4,1,0,55,0,0
468958,-74.0740740740741,4,1,0,55,0,0
469020,-73.1070572435569,4,1,0,55,0,0
469083,-72.1649633329821,4,1,0,55,0,0
469208,-70.3517375823907,4,1,0,55,0,0
469270,-69.4788943962492,4,1,0,55,0,0
469333,-68.6274442522113,4,1,0,55,0,0
469458,-66.9856523431246,4,1,0,55,0,0
469583,-65.420579089882,4,1,0,55,0,0
469645,-64.6651090997388,4,1,0,55,0,0
469708,-63.926928963118,4,1,0,55,0,0
469833,-62.5,4,1,0,55,0,0
469958,-63.6942675159236,4,1,0,55,0,0
470083,-64.9350649350649,4,1,0,55,0,0
470208,-66.2251655629139,4,1,0,55,0,0
470333,-67.5675675675676,4,1,0,55,0,0
470458,500,4,1,0,55,1,0
470458,-68.9655172413793,4,1,0,55,0,0
470583,-74.0740740740741,4,2,0,20,0,0
472458,-100,4,2,0,20,0,0
474208,-133.333333333333,4,2,0,30,0,0
518208,-74.0740740740741,4,2,0,40,0,0
520239,-80,4,2,0,40,0,0
522208,-86.9565217391304,4,2,0,40,0,0
526458,-86.9565217391304,4,2,0,40,0,0
526708,-85.3374841485623,4,2,0,40,0,0
526958,-83.7776340525922,4,2,0,40,0,0
527208,-82.2737164271816,4,2,0,40,0,0
527458,-80.82290650487,4,2,0,40,0,0
527708,-79.4223769370125,4,2,0,40,0,0
527958,-78.0695584151567,4,2,0,40,0,0
528208,-76.7620537533958,4,2,0,40,0,0
528458,-75.4976237122936,4,2,0,60,0,0
528708,-74.2741190346741,4,2,0,60,0,0
528833,-73.6771452758583,4,2,0,60,0,0
528958,-73.089691283762,4,2,0,60,0,0
529208,-71.9424460431655,4,2,0,60,0,0
529333,-71.3822239702936,4,2,0,60,0,0
529458,-70.8306594759381,4,2,0,80,0,0
529583,-70.2875534097547,4,2,0,80,0,0
529708,-69.7527126829962,4,2,0,80,0,0
529833,-69.2259500396319,4,2,0,80,0,0
529958,-68.7070366311566,4,2,0,80,0,0
530083,-68.1958913339389,4,2,0,80,0,0
530208,-67.6922951952686,4,2,0,80,0,0
530333,-67.1960821996234,4,2,0,80,0,0
530395,-66.6666666666667,4,1,0,90,0,0
530458,-66.707091163912,4,1,0,90,0,1
530708,-74.0740740740741,4,1,0,70,0,1
561458,-74.0740740740741,4,1,0,70,0,0
562458,-74.0740740740741,4,1,0,70,0,1
593458,-72.463768115942,4,1,0,70,0,1
593583,-71.9424460431655,4,1,0,70,0,1
593708,-70.9219858156028,4,1,0,70,0,1
593833,-70.4225352112676,4,1,0,70,0,1
593958,-69.4444444444444,4,1,0,70,0,1
594083,-68.4931506849315,4,1,0,70,0,1
594208,-68.0272108843537,4,1,0,70,0,1
594333,-67.1140939597315,4,1,0,70,0,1
594458,428.571428571429,6,1,0,55,1,0
594458,-75.268817204301,6,1,0,55,0,0
595958,-75.268817204301,6,2,0,40,0,0
596922,-75.268817204301,6,1,0,60,0,0
597029,428.571428571429,4,1,0,70,1,0
597029,-58.8235294117647,4,1,0,70,0,0
598743,428.571428571429,4,1,0,70,1,0
598743,-66.6666666666667,4,1,0,70,0,1
603457,428.571428571429,4,1,0,70,1,1
603457,-66.6666666666667,4,1,0,70,0,1
608599,428.571428571429,5,1,0,70,1,1
608599,-66.6666666666667,5,1,0,70,0,1
610741,428.571428571429,4,1,0,70,1,1
610741,-58.8235294117647,4,1,0,70,0,1
612455,-58.8235294117647,4,1,0,60,0,0
612669,-71.4285714285714,4,1,0,60,0,0
617169,428.571428571429,4,1,0,60,1,8
617171,428.571428571429,4,1,0,60,1,0
617171,-71.4285714285714,4,1,0,60,0,0
620599,428.571428571429,5,1,0,60,1,0
620599,-71.4285714285714,5,1,0,60,0,0
622741,428.571428571429,4,1,0,60,1,8
622743,428.571428571429,4,1,0,60,1,0
622743,-71.4285714285714,4,1,0,60,0,0
624457,-58.8235294117647,4,1,0,60,0,0
626171,428.571428571429,4,1,0,60,1,0
626171,-58.8235294117647,4,1,0,60,0,0
626385,-66.6666666666667,4,1,0,60,0,0
629314,428.571428571429,5,1,0,60,1,0
629314,-58.8235294117647,5,1,0,60,0,0
629528,-66.6666666666667,5,1,0,60,0,0
631314,428.571428571429,4,1,0,60,1,0
631314,-58.8235294117647,5,1,0,60,0,0
631456,-66.6666666666667,4,1,0,60,0,0
634171,-68.0272108843537,4,1,0,60,0,0
634314,-69.4444444444444,4,1,0,60,0,0
634599,-71.4285714285714,4,1,0,60,0,0
634742,428.571428571429,4,1,0,60,1,0
634742,-58.8235294117647,4,1,0,60,0,0
634884,-66.6666666666667,4,1,0,60,0,0
641171,428.571428571429,3,1,0,60,1,0
641171,-66.6666666666667,3,1,0,60,0,0
642028,428.571428571429,3,1,0,60,1,0
642028,-71.4285714285714,3,1,0,60,0,0
643099,428.571428571429,3,1,0,60,1,8
643099,-71.4285714285714,3,1,0,60,0,0
644171,428.571428571429,4,1,0,60,1,0
644171,-71.4285714285714,4,1,0,60,0,0
644385,-71.4285714285714,4,1,0,50,0,0
644599,-71.4285714285714,4,1,0,40,0,0
644813,-71.4285714285714,4,1,0,30,0,0
645028,-71.4285714285714,4,1,0,20,0,0
645349,-71.4285714285714,4,1,0,60,0,0
645885,428.571428571429,3,1,0,60,1,0
645885,-71.4285714285714,3,1,0,60,0,0
646956,428.571428571429,3,1,0,60,1,8
646956,-71.4285714285714,3,1,0,60,0,0
648028,428.571428571429,3,1,0,60,1,0
648028,-71.4285714285714,3,1,0,60,0,0
649313,428.571428571429,4,1,0,60,1,8
649314,428.571428571429,4,1,0,60,1,0
649314,-71.4285714285714,4,1,0,60,0,0
652742,428.571428571429,5,1,0,60,1,0
652742,-71.4285714285714,5,1,0,60,0,0
654884,428.571428571429,3,1,0,60,1,8
654885,428.571428571429,3,1,0,60,1,0
654885,-71.4285714285714,3,1,0,60,0,0
656170,428.571428571429,5,1,0,60,1,8
656171,428.571428571429,5,1,0,60,1,0
656171,-71.4285714285714,5,1,0,60,0,0
658099,428.571428571429,4,1,0,60,1,0
658099,-71.4285714285714,4,1,0,60,0,0
659599,428.571428571429,6,1,0,60,1,0
659599,-71.4285714285714,6,1,0,60,0,0
661956,428.571428571429,5,1,0,60,1,0
661956,-71.4285714285714,5,1,0,60,0,0
664098,428.571428571429,3,1,0,60,1,8
664099,428.571428571429,3,1,0,60,1,0
664099,-71.4285714285714,3,1,0,60,0,0
665384,428.571428571429,5,1,0,60,1,8
665385,428.571428571429,5,1,0,60,1,0
665385,-71.4285714285714,5,1,0,60,0,0
667313,428.571428571429,4,1,0,60,1,0
667313,-71.4285714285714,4,1,0,60,0,0
668814,428.571428571429,5,1,0,60,1,0
668814,-66.6666666666667,5,1,0,60,0,0
670956,428.571428571429,3,1,0,60,1,0
670956,-66.6666666666667,3,1,0,60,0,0
672241,428.571428571429,5,1,0,60,1,8
672242,428.571428571429,5,1,0,60,1,0
672242,-66.6666666666667,5,1,0,60,0,0
674171,428.571428571429,4,1,0,60,1,0
674171,-66.6666666666667,4,1,0,60,0,0
675671,428.571428571429,5,1,0,60,1,0
675671,-66.6666666666667,5,1,0,60,0,0
677599,428.571428571429,7,1,0,60,1,0
677599,-66.6666666666667,7,1,0,60,0,0
679313,428.571428571429,3,1,0,60,1,0
679313,-58.8235294117647,3,1,0,60,0,0
679741,-66.6666666666667,3,1,0,60,0,0
680170,-50,3,1,0,60,0,0
680277,-53.1914893617021,3,1,0,60,0,0
680330,-52.6315789473684,3,1,0,60,0,0
680384,-52.0833333333333,3,1,0,60,0,0
680438,-51.5463917525773,3,1,0,60,0,0
680491,-51.0204081632653,3,1,0,60,0,0
680545,-50.5050505050505,3,1,0,60,0,0
680598,-50,3,1,0,60,0,0
680741,-52.6315789473684,3,1,0,60,0,0
680884,-55.5555555555556,3,1,0,60,0,0
681027,-58.8235294117647,3,1,0,60,0,0
681455,-71.4285714285714,3,1,0,60,0,0
681670,-66.6666666666667,3,1,0,60,0,0
681884,-52.6315789473684,3,1,0,60,0,0
682027,-55.5555555555556,3,1,0,60,0,0
682170,-58.8235294117647,3,1,0,60,0,0
682313,-62.5,3,1,0,60,0,0
682741,-71.4285714285714,3,1,0,60,0,0
682884,-68.9655172413793,3,1,0,60,0,0
683027,-66.6666666666667,3,1,0,60,0,0
683170,428.571428571429,4,1,0,60,1,8
683171,428.571428571429,4,1,0,60,1,0
683171,-58.8235294117647,4,1,0,60,0,1
684885,645.161290322581,4,1,0,60,1,0
684885,-39.2156862745098,4,1,0,60,0,0
685207,-50,4,1,0,20,0,0
687226,645.161290322581,5,1,0,20,1,0
687226,-50,5,1,0,20,0,0
688193,-50,5,2,0,20,0,0
689161,-50,5,2,0,30,0,0
689914,645.161290322581,4,2,0,40,1,0
689914,-50,4,2,0,40,0,0
690559,-50,4,2,0,50,0,0
691204,-50,4,2,0,60,0,0
691930,-50,4,2,0,70,0,0
692333,-50,4,1,0,70,0,0
692465,322.58064516129,6,1,0,70,1,1
692465,-100,6,1,0,70,0,1
694077,322.58064516129,6,1,0,70,1,1
694077,-100,6,1,0,70,0,1
696012,322.58064516129,8,1,0,70,1,9
696013,322.58064516129,8,1,0,70,1,1
696013,-100,8,1,0,70,0,1
697625,-91.743119266055,8,1,0,70,0,1
697787,-84.7457627118644,8,1,0,70,0,1
697948,-78.7401574803149,8,1,0,70,0,1
698109,-73.5294117647059,8,1,0,70,0,1
698271,-75.187969924812,8,1,0,70,0,1
698432,322.58064516129,6,1,0,70,1,1
698432,-76.9230769230769,6,1,0,70,0,1
698593,-100,6,1,0,70,0,1
700045,322.58064516129,6,1,0,70,1,1
700045,-100,6,1,0,70,0,1
703594,322.58064516129,6,1,0,70,1,1
703594,-100,6,1,0,70,0,1
703916,-100,6,2,0,50,0,1
704803,-100,6,1,0,70,0,1
704884,322.58064516129,6,1,0,70,1,1
704884,-100,6,1,0,70,0,1
708754,322.58064516129,7,1,0,70,1,9
708755,322.58064516129,7,1,0,70,1,1
708755,-100,7,1,0,70,0,1
710206,-90.9090909090909,7,1,0,70,0,1
710287,-84.0336134453781,7,1,0,70,0,1
710367,-78.7401574803149,7,1,0,70,0,1
710448,-75.7575757575758,7,1,0,70,0,1
710529,-75.187969924812,7,1,0,70,0,1
710609,-75.7575757575758,7,1,0,70,0,1
710690,-76.3358778625954,7,1,0,70,0,1
710852,322.58064516129,5,1,0,70,1,1
710852,-76.9230769230769,7,1,0,70,0,1
711013,-100,7,1,0,70,0,1
714077,322.58064516129,4,1,0,70,1,1
714077,-100,4,1,0,70,0,1
714399,-83.3333333333333,4,1,0,70,0,1
714722,-76.9230769230769,4,1,0,70,0,1
715044,-71.4285714285714,4,1,0,70,0,1
715367,322.58064516129,4,1,0,70,1,8
715368,322.58064516129,4,1,0,70,1,0
715368,-66.6666666666667,4,1,0,70,0,0
715529,-66.6666666666667,4,2,0,90,0,0
716335,-100,4,2,0,80,0,0
717303,-100,4,2,0,70,0,0
718271,-100,4,2,0,60,0,0
719238,-100,4,2,0,50,0,0
720206,-100,4,2,0,40,0,0
721174,-100,4,2,0,30,0,0
722142,-100,4,2,0,20,0,0
733432,-100,4,2,0,10,0,0

[HitObjects]
256,192,173,5,0,0:0:0:0:
256,192,496,1,6,0:0:0:0:
256,192,979,1,0,0:0:0:0:
256,192,1141,1,2,0:0:0:0:
256,192,1221,1,0,0:0:0:0:
256,192,1302,1,2,0:0:0:0:
256,192,1463,1,2,0:0:0:0:
256,192,1786,1,0,0:0:0:0:
256,192,1947,1,2,0:0:0:0:
256,192,2108,1,2,0:0:0:0:
256,192,2189,1,0,0:0:0:0:
256,192,2270,1,0,0:0:0:0:
256,192,2431,1,2,0:0:0:0:
256,192,2754,1,0,0:0:0:0:
256,192,2915,1,2,0:0:0:0:
256,192,3076,1,0,0:0:0:0:
256,192,3237,1,0,0:0:0:0:
256,192,3399,1,2,0:0:0:0:
256,192,3721,1,2,0:0:0:0:
256,192,4044,1,0,0:0:0:0:
256,192,4205,1,0,0:0:0:0:
256,192,4366,1,6,0:0:0:0:
256,192,4689,1,0,0:0:0:0:
256,192,4850,1,2,0:0:0:0:
256,192,5012,1,2,0:0:0:0:
256,192,5173,1,0,0:0:0:0:
256,192,5334,1,2,0:0:0:0:
256,192,5657,1,2,0:0:0:0:
256,192,5818,1,4,0:0:0:0:
256,192,5979,1,0,0:0:0:0:
256,192,6141,1,2,0:0:0:0:
256,192,6302,1,6,0:0:0:0:
256,192,6625,1,0,0:0:0:0:
256,192,6786,1,2,0:0:0:0:
256,192,6947,1,0,0:0:0:0:
256,192,7108,1,0,0:0:0:0:
256,192,7270,1,2,0:0:0:0:
256,192,7431,1,2,0:0:0:0:
256,192,7512,1,2,0:0:0:0:
256,192,7592,1,0,0:0:0:0:
256,192,7754,1,0,0:0:0:0:
256,192,7834,1,0,0:0:0:0:
256,192,7915,1,2,0:0:0:0:
256,192,8076,1,2,0:0:0:0:
256,192,8237,1,6,0:0:0:0:
256,192,8560,1,0,0:0:0:0:
256,192,8721,1,2,0:0:0:0:
256,192,8883,1,0,0:0:0:0:
256,192,9044,1,0,0:0:0:0:
256,192,9205,1,2,0:0:0:0:
256,192,9528,1,0,0:0:0:0:
256,192,9689,1,2,0:0:0:0:
256,192,9850,1,0,0:0:0:0:
256,192,10012,1,0,0:0:0:0:
256,192,10173,1,2,0:0:0:0:
256,192,10495,1,2,0:0:0:0:
256,192,10657,1,4,0:0:0:0:
256,192,10818,1,0,0:0:0:0:
256,192,10979,1,0,0:0:0:0:
256,192,11141,1,6,0:0:0:0:
256,192,11463,1,2,0:0:0:0:
256,192,11625,1,2,0:0:0:0:
256,192,11678,1,2,0:0:0:0:
256,192,11732,1,2,0:0:0:0:
256,192,11786,1,0,0:0:0:0:
256,192,11947,1,0,0:0:0:0:
256,192,12108,1,6,0:0:0:0:
256,192,12431,1,2,0:0:0:0:
256,192,12592,1,4,0:0:0:0:
256,192,12754,1,2,0:0:0:0:
256,192,12915,1,0,0:0:0:0:
256,192,13076,1,6,0:0:0:0:
256,192,13399,1,2,0:0:0:0:
256,192,13560,1,4,0:0:0:0:
256,192,13721,1,2,0:0:0:0:
256,192,13883,1,0,0:0:0:0:
256,192,14044,1,6,0:0:0:0:
256,192,14205,1,0,0:0:0:0:
256,192,14366,1,2,0:0:0:0:
256,192,14447,1,2,0:0:0:0:
256,192,14528,1,0,0:0:0:0:
256,192,14608,1,0,0:0:0:0:
256,192,14689,1,2,0:0:0:0:
256,192,14770,1,0,0:0:0:0:
256,192,14850,1,0,0:0:0:0:
256,192,14931,1,0,0:0:0:0:
256,192,15012,1,2,0:0:0:0:
256,192,15173,1,0,0:0:0:0:
256,192,15227,1,0,0:0:0:0:
256,192,15280,1,0,0:0:0:0:
256,192,15334,1,2,0:0:0:0:
256,192,15495,1,0,0:0:0:0:
256,192,15657,1,2,0:0:0:0:
256,192,15818,1,0,0:0:0:0:
256,192,15979,1,6,0:0:0:0:
256,192,16302,1,0,0:0:0:0:
256,192,16463,1,2,0:0:0:0:
256,192,16625,1,0,0:0:0:0:
256,192,16786,1,0,0:0:0:0:
256,192,16947,1,2,0:0:0:0:
256,192,17270,1,0,0:0:0:0:
256,192,17431,1,0,0:0:0:0:
256,192,17592,1,2,0:0:0:0:
256,192,17754,1,0,0:0:0:0:
256,192,17915,1,2,0:0:0:0:
256,192,18237,1,0,0:0:0:0:
256,192,18399,1,2,0:0:0:0:
256,192,18560,1,0,0:0:0:0:
256,192,18721,1,2,0:0:0:0:
256,192,18883,1,2,0:0:0:0:
256,192,19044,1,0,0:0:0:0:
256,192,19098,1,0,0:0:0:0:
256,192,19151,1,0,0:0:0:0:
256,192,19205,1,2,0:0:0:0:
256,192,19366,1,4,0:0:0:0:
256,192,19528,1,2,0:0:0:0:
256,192,19689,1,0,0:0:0:0:
256,192,19850,1,6,0:0:0:0:
256,192,20173,1,0,0:0:0:0:
256,192,20334,1,2,0:0:0:0:
256,192,20495,1,0,0:0:0:0:
256,192,20657,1,0,0:0:0:0:
256,192,20818,1,2,0:0:0:0:
256,192,20979,1,2,0:0:0:0:
256,192,21060,1,2,0:0:0:0:
256,192,21141,1,0,0:0:0:0:
256,192,21302,1,0,0:0:0:0:
256,192,21383,1,0,0:0:0:0:
256,192,21463,1,2,0:0:0:0:
256,192,21625,1,0,0:0:0:0:
256,192,21786,1,6,0:0:0:0:
256,192,22108,1,0,0:0:0:0:
256,192,22270,1,2,0:0:0:0:
256,192,22431,1,0,0:0:0:0:
256,192,22592,1,0,0:0:0:0:
256,192,22754,1,2,0:0:0:0:
256,192,23076,1,6,0:0:0:0:
256,192,23399,1,0,0:0:0:0:
256,192,23560,1,0,0:0:0:0:
256,192,23614,1,0,0:0:0:0:
256,192,23668,1,0,0:0:0:0:
256,192,23721,1,6,0:0:0:0:
256,192,24044,1,0,0:0:0:0:
256,192,24205,1,2,0:0:0:0:
256,192,24366,1,0,0:0:0:0:
256,192,24528,1,2,0:0:0:0:
256,192,24689,1,2,0:0:0:0:
256,192,25012,1,0,0:0:0:0:
256,192,25173,1,2,0:0:0:0:
256,192,25227,1,2,0:0:0:0:
256,192,25280,1,2,0:0:0:0:
256,192,25334,1,0,0:0:0:0:
256,192,25495,1,0,0:0:0:0:
256,192,25657,1,2,0:0:0:0:
256,192,25979,1,2,0:0:0:0:
256,192,26141,1,0,0:0:0:0:
256,192,26302,1,2,0:0:0:0:
256,192,26463,1,0,0:0:0:0:
256,192,26625,1,2,0:0:0:0:
256,192,26947,1,0,0:0:0:0:
256,192,27108,1,2,0:0:0:0:
256,192,27162,1,2,0:0:0:0:
256,192,27216,1,2,0:0:0:0:
256,192,27270,1,0,0:0:0:0:
256,192,27431,1,2,0:0:0:0:
256,192,27592,1,4,0:0:0:0:
256,192,27754,1,2,0:0:0:0:
256,192,27915,1,2,0:0:0:0:
256,192,28076,1,4,0:0:0:0:
256,192,28237,1,2,0:0:0:0:
256,192,28399,1,0,0:0:0:0:
256,192,28560,1,6,0:0:0:0:
256,192,28883,1,0,0:0:0:0:
256,192,29044,1,6,0:0:0:0:
256,192,29205,1,2,0:0:0:0:
256,192,29366,1,0,0:0:0:0:
256,192,29528,1,6,0:0:0:0:
256,192,29635,1,0,0:0:0:0:
256,192,29743,1,0,0:0:0:0:
256,192,29850,1,2,0:0:0:0:
256,192,29958,1,0,0:0:0:0:
256,192,30065,1,0,0:0:0:0:
256,192,30173,1,2,0:0:0:0:
256,192,30280,1,2,0:0:0:0:
256,192,30388,1,0,0:0:0:0:
256,192,30442,1,0,0:0:0:0:
256,192,30495,1,2,0:0:0:0:
256,192,30576,1,2,0:0:0:0:
256,192,30657,1,0,0:0:0:0:
256,192,30737,1,2,0:0:0:0:
256,192,30818,1,2,0:0:0:0:
256,192,30899,1,0,0:0:0:0:
256,192,30979,1,2,0:0:0:0:
256,192,31060,1,0,0:0:0:0:
256,192,31141,1,0,0:0:0:0:
256,192,31248,1,0,0:0:0:0:
256,192,31356,1,0,0:0:0:0:
256,192,31463,1,6,0:0:0:0:
256,192,31625,1,0,0:0:0:0:
256,192,31786,1,2,0:0:0:0:
256,192,32270,1,0,0:0:0:0:
256,192,32431,1,6,0:0:0:0:
256,192,33076,1,0,0:0:0:0:
256,192,33399,1,6,0:0:0:0:
256,192,33883,1,0,0:0:0:0:
256,192,34205,1,0,0:0:0:0:
256,192,34366,1,6,0:0:0:0:
256,192,34689,1,2,0:0:0:0:
256,192,35012,1,2,0:0:0:0:
256,192,35334,1,6,0:0:0:0:
256,192,35495,1,0,0:0:0:0:
256,192,35657,1,2,0:0:0:0:
256,192,36141,1,0,0:0:0:0:
256,192,36302,1,6,0:0:0:0:
256,192,36625,1,0,0:0:0:0:
256,192,36705,1,0,0:0:0:0:
256,192,36786,1,0,0:0:0:0:
256,192,36947,1,0,0:0:0:0:
256,192,37270,1,6,0:0:0:0:
256,192,37754,1,0,0:0:0:0:
256,192,38076,1,0,0:0:0:0:
256,192,38237,1,6,0:0:0:0:
256,192,38560,1,2,0:0:0:0:
256,192,38668,1,0,0:0:0:0:
256,192,38775,1,0,0:0:0:0:
256,192,38829,1,0,0:0:0:0:
256,192,38883,1,2,0:0:0:0:
256,192,38955,1,2,0:0:0:0:
256,192,39027,1,0,0:0:0:0:
256,192,39098,1,0,0:0:0:0:
256,192,39205,1,6,0:0:0:0:
256,192,40012,1,0,0:0:0:0:
256,192,40173,1,6,0:0:0:0:
256,192,40818,1,0,0:0:0:0:
256,192,41141,1,6,0:0:0:0:
256,192,41463,1,0,0:0:0:0:
256,192,41625,1,6,0:0:0:0:
256,192,41947,1,0,0:0:0:0:
256,192,42108,1,6,0:0:0:0:
256,192,42431,1,0,0:0:0:0:
256,192,42592,1,0,0:0:0:0:
256,192,42754,1,2,0:0:0:0:
256,192,42915,1,2,0:0:0:0:
256,192,42995,1,2,0:0:0:0:
256,192,43076,1,4,0:0:0:0:
256,192,43237,1,2,0:0:0:0:
256,192,43399,1,6,0:0:0:0:
256,192,43560,1,0,0:0:0:0:
256,192,43721,1,6,0:0:0:0:
256,192,43883,1,0,0:0:0:0:
256,192,43963,1,0,0:0:0:0:
256,192,44044,1,6,0:0:0:0:
256,192,44366,1,0,0:0:0:0:
256,192,44447,1,0,0:0:0:0:
256,192,44528,1,0,0:0:0:0:
256,192,44608,1,0,0:0:0:0:
256,192,44689,1,2,0:0:0:0:
256,192,44770,1,2,0:0:0:0:
256,192,44850,1,2,0:0:0:0:
256,192,44931,1,2,0:0:0:0:
256,192,45012,1,0,0:0:0:0:
256,192,45173,1,0,0:0:0:0:
256,192,45227,1,0,0:0:0:0:
256,192,45280,1,0,0:0:0:0:
256,192,45334,1,2,0:0:0:0:
256,192,45415,1,2,0:0:0:0:
256,192,45495,1,0,0:0:0:0:
256,192,45576,1,0,0:0:0:0:
256,192,45657,1,2,0:0:0:0:
256,192,45737,1,0,0:0:0:0:
256,192,45818,1,0,0:0:0:0:
256,192,45899,1,0,0:0:0:0:
256,192,45979,1,2,0:0:0:0:
256,192,46141,1,0,0:0:0:0:
256,192,46221,1,2,0:0:0:0:
256,192,46302,1,2,0:0:0:0:
256,192,46463,1,2,0:0:0:0:
256,192,46625,1,2,0:0:0:0:
256,192,46705,1,2,0:0:0:0:
256,192,46786,1,0,0:0:0:0:
256,192,46866,1,0,0:0:0:0:
256,192,46947,1,6,0:0:0:0:
256,192,47270,1,2,0:0:0:0:
256,192,47431,1,0,0:0:0:0:
256,192,47754,1,0,0:0:0:0:
256,192,47915,1,2,0:0:0:0:
256,192,48399,1,0,0:0:0:0:
256,192,48560,1,2,0:0:0:0:
256,192,48721,1,0,0:0:0:0:
256,192,48883,1,6,0:0:0:0:
256,192,49205,1,2,0:0:0:0:
256,192,49366,1,0,0:0:0:0:
256,192,49689,1,0,0:0:0:0:
256,192,49850,1,2,0:0:0:0:
256,192,50173,1,2,0:0:0:0:
256,192,50334,1,4,0:0:0:0:
256,192,50495,1,2,0:0:0:0:
256,192,50657,1,0,0:0:0:0:
256,192,50818,1,6,0:0:0:0:
256,192,51141,1,2,0:0:0:0:
256,192,51302,1,0,0:0:0:0:
256,192,51625,1,0,0:0:0:0:
256,192,51786,1,2,0:0:0:0:
256,192,52270,1,0,0:0:0:0:
256,192,52431,1,2,0:0:0:0:
256,192,52592,1,0,0:0:0:0:
256,192,52754,1,6,0:0:0:0:
256,192,53076,1,2,0:0:0:0:
256,192,53237,1,0,0:0:0:0:
256,192,53560,1,0,0:0:0:0:
256,192,53641,1,0,0:0:0:0:
256,192,53721,1,2,0:0:0:0:
256,192,53802,1,2,0:0:0:0:
256,192,53883,1,0,0:0:0:0:
256,192,54044,1,2,0:0:0:0:
256,192,54125,1,2,0:0:0:0:
256,192,54205,1,0,0:0:0:0:
256,192,54366,1,6,0:0:0:0:
256,192,54689,1,0,0:0:0:0:
256,192,54850,1,0,0:0:0:0:
256,192,55012,1,2,0:0:0:0:
256,192,55334,1,0,0:0:0:0:
256,192,55657,1,2,0:0:0:0:
256,192,55818,1,0,0:0:0:0:
256,192,55979,1,0,0:0:0:0:
256,192,56141,1,0,0:0:0:0:
256,192,56302,1,2,0:0:0:0:
256,192,56625,1,0,0:0:0:0:
256,192,56786,1,2,0:0:0:0:
256,192,56866,1,2,0:0:0:0:
256,192,56947,1,0,0:0:0:0:
256,192,57108,1,0,0:0:0:0:
256,192,57270,1,2,0:0:0:0:
256,192,57431,1,2,0:0:0:0:
256,192,57592,1,0,0:0:0:0:
256,192,57754,1,2,0:0:0:0:
256,192,57915,1,2,0:0:0:0:
256,192,58076,1,0,0:0:0:0:
256,192,58237,1,2,0:0:0:0:
256,192,58318,1,2,0:0:0:0:
256,192,58399,1,0,0:0:0:0:
256,192,58479,1,0,0:0:0:0:
256,192,58560,1,6,0:0:0:0:
256,192,58883,1,2,0:0:0:0:
256,192,59044,1,0,0:0:0:0:
256,192,59366,1,0,0:0:0:0:
256,192,59528,1,2,0:0:0:0:
256,192,60012,1,0,0:0:0:0:
256,192,60173,1,2,0:0:0:0:
256,192,60334,1,0,0:0:0:0:
256,192,60495,1,2,0:0:0:0:
256,192,60818,1,2,0:0:0:0:
256,192,60979,1,0,0:0:0:0:
256,192,61141,1,2,0:0:0:0:
256,192,61302,1,0,0:0:0:0:
256,192,61463,1,2,0:0:0:0:
256,192,61947,1,0,0:0:0:0:
256,192,62028,1,0,0:0:0:0:
256,192,62108,1,2,0:0:0:0:
256,192,62270,1,0,0:0:0:0:
256,192,62431,1,6,0:0:0:0:
256,192,62754,1,2,0:0:0:0:
256,192,62915,1,0,0:0:0:0:
256,192,63237,1,0,0:0:0:0:
256,192,63399,1,2,0:0:0:0:
256,192,63883,1,0,0:0:0:0:
256,192,64044,1,2,0:0:0:0:
256,192,64205,1,0,0:0:0:0:
256,192,64366,1,2,0:0:0:0:
256,192,64689,1,2,0:0:0:0:
256,192,64850,1,0,0:0:0:0:
256,192,65012,1,2,0:0:0:0:
256,192,65173,1,0,0:0:0:0:
256,192,65254,1,0,0:0:0:0:
256,192,65334,1,2,0:0:0:0:
256,192,65375,1,2,0:0:0:0:
256,192,65495,1,0,0:0:0:0:
256,192,65657,1,2,0:0:0:0:
256,192,65697,1,2,0:0:0:0:
256,192,65818,1,0,0:0:0:0:
256,192,65979,1,6,0:0:0:0:
256,192,66302,1,2,0:0:0:0:
256,192,66463,1,0,0:0:0:0:
256,192,66625,1,2,0:0:0:0:
256,192,66786,1,2,0:0:0:0:
256,192,66947,1,4,0:0:0:0:
256,192,67270,1,2,0:0:0:0:
256,192,67431,1,0,0:0:0:0:
256,192,67512,1,0,0:0:0:0:
256,192,67592,1,0,0:0:0:0:
256,192,67754,1,0,0:0:0:0:
256,192,67915,1,6,0:0:0:0:
256,192,68399,1,0,0:0:0:0:
256,192,68560,1,0,0:0:0:0:
256,192,68721,1,0,0:0:0:0:
256,192,68883,1,2,0:0:0:0:
256,192,69044,1,2,0:0:0:0:
256,192,69205,1,0,0:0:0:0:
256,192,69366,1,2,0:0:0:0:
256,192,69528,1,0,0:0:0:0:
256,192,69689,1,0,0:0:0:0:
256,192,69850,1,4,0:0:0:0:
256,192,70171,1,0,0:0:0:0:
256,192,70494,1,2,0:0:0:0:
256,192,70574,1,2,0:0:0:0:
256,192,70655,1,0,0:0:0:0:
256,192,70736,1,2,0:0:0:0:
256,192,70816,1,2,0:0:0:0:
256,192,71139,1,4,0:0:0:0:
256,192,71461,1,4,0:0:0:0:
256,192,71784,1,2,0:0:0:0:
256,192,72106,1,0,0:0:0:0:
256,192,72268,1,0,0:0:0:0:
256,192,72429,1,2,0:0:0:0:
256,192,72590,1,0,0:0:0:0:
256,192,72751,1,2,0:0:0:0:
256,192,72913,1,2,0:0:0:0:
256,192,73076,1,4,0:0:0:0:
256,192,73398,1,0,0:0:0:0:
256,192,73559,1,2,0:0:0:0:
256,192,73721,1,0,0:0:0:0:
256,192,74043,1,0,0:0:0:0:
256,192,74205,1,2,0:0:0:0:
256,192,74366,1,6,0:0:0:0:
256,192,74527,1,2,0:0:0:0:
256,192,74688,1,0,0:0:0:0:
256,192,75011,1,6,0:0:0:0:
256,192,75334,1,2,0:0:0:0:
256,192,75656,1,6,0:0:0:0:
256,192,76140,1,2,0:0:0:0:
256,192,76301,1,2,0:0:0:0:
256,192,76463,1,0,0:0:0:0:
256,192,76624,1,2,0:0:0:0:
256,192,76785,1,0,0:0:0:0:
256,192,76946,1,6,0:0:0:0:
256,192,77592,1,4,0:0:0:0:
256,192,78237,1,0,0:0:0:0:
256,192,78398,1,0,0:0:0:0:
256,192,78559,1,2,0:0:0:0:
256,192,78721,1,0,0:0:0:0:
256,192,78882,1,6,0:0:0:0:
256,192,79043,1,2,0:0:0:0:
256,192,79124,1,2,0:0:0:0:
256,192,79205,1,0,0:0:0:0:
256,192,79366,1,0,0:0:0:0:
256,192,79527,1,0,0:0:0:0:
256,192,79850,1,2,0:0:0:0:
256,192,79957,1,0,0:0:0:0:
256,192,80065,1,0,0:0:0:0:
256,192,80172,1,0,0:0:0:0:
256,192,80334,1,2,0:0:0:0:
256,192,80656,1,0,0:0:0:0:
256,192,80817,1,6,0:0:0:0:
256,192,81301,1,2,0:0:0:0:
256,192,81463,1,2,0:0:0:0:
256,192,81785,1,0,0:0:0:0:
256,192,82108,1,2,0:0:0:0:
256,192,82430,1,2,0:0:0:0:
256,192,82753,1,2,0:0:0:0:
256,192,82914,1,0,0:0:0:0:
256,192,83075,1,2,0:0:0:0:
256,192,83237,1,0,0:0:0:0:
256,192,83398,1,6,0:0:0:0:
256,192,84043,1,0,0:0:0:0:
256,192,84366,1,2,0:0:0:0:
256,192,84688,1,0,0:0:0:0:
256,192,84850,1,2,0:0:0:0:
256,192,85011,1,2,0:0:0:0:
256,192,85172,1,0,0:0:0:0:
256,192,85334,1,6,0:0:0:0:
256,192,85495,1,0,0:0:0:0:
256,192,85575,1,0,0:0:0:0:
256,192,85656,1,2,0:0:0:0:
256,192,85817,1,2,0:0:0:0:
256,192,85979,1,4,0:0:0:0:
256,192,86301,1,0,0:0:0:0:
256,192,86463,1,2,0:0:0:0:
256,192,86624,1,4,0:0:0:0:
256,192,86946,1,2,0:0:0:0:
256,192,87108,1,0,0:0:0:0:
256,192,87430,1,0,0:0:0:0:
256,192,87914,1,2,0:0:0:0:
256,192,88237,1,2,0:0:0:0:
256,192,88559,1,2,0:0:0:0:
256,192,88882,1,0,0:0:0:0:
256,192,89043,1,2,0:0:0:0:
256,192,89205,1,4,0:0:0:0:
256,192,89366,1,0,0:0:0:0:
256,192,89527,1,2,0:0:0:0:
256,192,89688,1,0,0:0:0:0:
256,192,89850,1,2,0:0:0:0:
256,192,90011,1,0,0:0:0:0:
256,192,90495,1,0,0:0:0:0:
256,192,90817,1,2,0:0:0:0:
256,192,91140,1,2,0:0:0:0:
256,192,91301,1,2,0:0:0:0:
256,192,91463,1,0,0:0:0:0:
256,192,91624,1,2,0:0:0:0:
256,192,91785,1,4,0:0:0:0:
256,192,91946,1,2,0:0:0:0:
256,192,92027,1,2,0:0:0:0:
256,192,92108,1,0,0:0:0:0:
256,192,92269,1,0,0:0:0:0:
256,192,92430,1,0,0:0:0:0:
256,192,92753,1,2,0:0:0:0:
256,192,93075,1,4,0:0:0:0:
256,192,93237,1,2,0:0:0:0:
256,192,93559,1,0,0:0:0:0:
256,192,93721,1,2,0:0:0:0:
256,192,93882,1,0,0:0:0:0:
256,192,94205,1,2,0:0:0:0:
256,192,94366,1,0,0:0:0:0:
256,192,94688,1,2,0:0:0:0:
256,192,95011,1,2,0:0:0:0:
256,192,95334,1,2,0:0:0:0:
256,192,95656,1,2,0:0:0:0:
256,192,95817,1,0,0:0:0:0:
256,192,95979,1,2,0:0:0:0:
256,192,96140,1,0,0:0:0:0:
256,192,96301,1,2,0:0:0:0:
256,192,96463,1,0,0:0:0:0:
256,192,96946,1,0,0:0:0:0:
256,192,97269,1,0,0:0:0:0:
256,192,97753,1,0,0:0:0:0:
256,192,97914,1,2,0:0:0:0:
256,192,98075,1,2,0:0:0:0:
256,192,98237,1,0,0:0:0:0:
256,192,98398,1,2,0:0:0:0:
256,192,98559,1,0,0:0:0:0:
256,192,98882,1,4,0:0:0:0:
256,192,99043,1,2,0:0:0:0:
256,192,99123,1,2,0:0:0:0:
256,192,99204,1,4,0:0:0:0:
256,192,99365,1,2,0:0:0:0:
256,192,99446,1,2,0:0:0:0:
256,192,99527,1,4,0:0:0:0:
256,192,99688,1,2,0:0:0:0:
256,192,99769,1,2,0:0:0:0:
256,192,99849,1,2,0:0:0:0:
256,192,100011,1,4,0:0:0:0:
256,192,100172,1,2,0:0:0:0:
256,192,100252,1,2,0:0:0:0:
256,192,100333,1,4,0:0:0:0:
256,192,100494,1,4,0:0:0:0:
256,192,100656,1,2,0:0:0:0:
256,192,100736,1,2,0:0:0:0:
256,192,100817,1,4,0:0:0:0:
256,192,100978,1,2,0:0:0:0:
256,192,101059,1,2,0:0:0:0:
256,192,101140,1,4,0:0:0:0:
256,192,101301,1,2,0:0:0:0:
256,192,101382,1,2,0:0:0:0:
256,192,101462,1,2,0:0:0:0:
256,192,101623,1,4,0:0:0:0:
256,192,101785,1,2,0:0:0:0:
256,192,101865,1,2,0:0:0:0:
256,192,101946,1,4,0:0:0:0:
256,192,102107,1,4,0:0:0:0:
256,192,102430,1,4,0:0:0:0:
256,192,102591,1,2,0:0:0:0:
256,192,102671,1,2,0:0:0:0:
256,192,102752,1,4,0:0:0:0:
256,192,102913,1,2,0:0:0:0:
256,192,102994,1,2,0:0:0:0:
256,192,103075,1,4,0:0:0:0:
256,192,103236,1,2,0:0:0:0:
256,192,103317,1,2,0:0:0:0:
256,192,103397,1,2,0:0:0:0:
256,192,103559,1,4,0:0:0:0:
256,192,103720,1,2,0:0:0:0:
256,192,103800,1,2,0:0:0:0:
256,192,103881,1,4,0:0:0:0:
256,192,104042,1,6,0:0:0:0:
256,192,104365,1,4,0:0:0:0:
256,192,104526,1,2,0:0:0:0:
256,192,104607,1,2,0:0:0:0:
256,192,104688,1,4,0:0:0:0:
256,192,104849,1,2,0:0:0:0:
256,192,104930,1,2,0:0:0:0:
256,192,105010,1,4,0:0:0:0:
256,192,105171,1,2,0:0:0:0:
256,192,105252,1,2,0:0:0:0:
256,192,105333,1,2,0:0:0:0:
256,192,105494,1,4,0:0:0:0:
256,192,105655,1,2,0:0:0:0:
256,192,105736,1,2,0:0:0:0:
256,192,105817,1,4,0:0:0:0:
256,192,105978,1,4,0:0:0:0:
256,192,106139,1,2,0:0:0:0:
256,192,106220,1,2,0:0:0:0:
256,192,106300,1,4,0:0:0:0:
256,192,106462,1,2,0:0:0:0:
256,192,106542,1,2,0:0:0:0:
256,192,106623,1,4,0:0:0:0:
256,192,106784,1,2,0:0:0:0:
256,192,106865,1,2,0:0:0:0:
256,192,106946,1,2,0:0:0:0:
256,192,107107,1,4,0:0:0:0:
256,192,107268,1,2,0:0:0:0:
256,192,107349,1,2,0:0:0:0:
256,192,107430,1,4,0:0:0:0:
256,192,107591,1,4,0:0:0:0:
256,192,107913,1,4,0:0:0:0:
256,192,108074,1,2,0:0:0:0:
256,192,108154,1,2,0:0:0:0:
256,192,108235,1,4,0:0:0:0:
256,192,108396,1,2,0:0:0:0:
256,192,108477,1,2,0:0:0:0:
256,192,108558,1,4,0:0:0:0:
256,192,108719,1,2,0:0:0:0:
256,192,108800,1,2,0:0:0:0:
256,192,108880,1,2,0:0:0:0:
256,192,109042,1,4,0:0:0:0:
256,192,109203,1,2,0:0:0:0:
256,192,109283,1,2,0:0:0:0:
256,192,109364,1,4,0:0:0:0:
256,192,109525,1,6,0:0:0:0:
256,192,109848,1,4,0:0:0:0:
256,192,110009,1,2,0:0:0:0:
256,192,110090,1,2,0:0:0:0:
256,192,110171,1,4,0:0:0:0:
256,192,110332,1,2,0:0:0:0:
256,192,110413,1,2,0:0:0:0:
256,192,110493,1,4,0:0:0:0:
256,192,110654,1,2,0:0:0:0:
256,192,110735,1,2,0:0:0:0:
256,192,110816,1,2,0:0:0:0:
256,192,110977,1,4,0:0:0:0:
256,192,111138,1,2,0:0:0:0:
256,192,111219,1,2,0:0:0:0:
256,192,111300,1,4,0:0:0:0:
256,192,111461,1,4,0:0:0:0:
256,192,111622,1,2,0:0:0:0:
256,192,111703,1,2,0:0:0:0:
256,192,111783,1,4,0:0:0:0:
256,192,111945,1,2,0:0:0:0:
256,192,112025,1,2,0:0:0:0:
256,192,112106,1,4,0:0:0:0:
256,192,112267,1,2,0:0:0:0:
256,192,112348,1,2,0:0:0:0:
256,192,112429,1,2,0:0:0:0:
256,192,112590,1,4,0:0:0:0:
256,192,112751,1,2,0:0:0:0:
256,192,112832,1,2,0:0:0:0:
256,192,112913,1,4,0:0:0:0:
256,192,113074,1,4,0:0:0:0:
256,192,113235,1,2,0:0:0:0:
256,192,113396,1,0,0:0:0:0:
256,192,113477,1,0,0:0:0:0:
256,192,113557,1,2,0:0:0:0:
256,192,113638,1,2,0:0:0:0:
256,192,113719,1,2,0:0:0:0:
256,192,113799,1,2,0:0:0:0:
256,192,113880,1,0,0:0:0:0:
256,192,113961,1,0,0:0:0:0:
256,192,114041,1,2,0:0:0:0:
256,192,114095,1,2,0:0:0:0:
256,192,114149,1,2,0:0:0:0:
256,192,114203,1,0,0:0:0:0:
256,192,114256,1,0,0:0:0:0:
256,192,114310,1,0,0:0:0:0:
256,192,114364,1,2,0:0:0:0:
256,192,114418,1,2,0:0:0:0:
256,192,114471,1,0,0:0:0:0:
256,192,114688,1,6,0:0:0:0:
256,192,114902,1,0,0:0:0:0:
256,192,115116,1,2,0:0:0:0:
256,192,115330,1,6,0:0:0:0:
256,192,115759,1,0,0:0:0:0:
256,192,115866,1,0,0:0:0:0:
256,192,115973,1,0,0:0:0:0:
256,192,116616,1,6,0:0:0:0:
256,192,117152,1,0,0:0:0:0:
256,192,117205,1,0,0:0:0:0:
256,192,117259,1,2,0:0:0:0:
256,192,117473,1,0,0:0:0:0:
256,192,117580,1,2,0:0:0:0:
256,192,117795,1,0,0:0:0:0:
256,192,117902,1,2,0:0:0:0:
256,192,118009,1,0,0:0:0:0:
256,192,118330,1,4,0:0:0:0:
256,192,118545,1,6,0:0:0:0:
256,192,119616,1,2,0:0:0:0:
256,192,119723,1,2,0:0:0:0:
256,192,119937,1,0,0:0:0:0:
256,192,120044,1,0,0:0:0:0:
256,192,120258,1,2,0:0:0:0:
256,192,120366,1,2,0:0:0:0:
256,192,120473,1,4,0:0:0:0:
256,192,120901,1,6,0:0:0:0:
256,192,121115,1,4,0:0:0:0:
256,192,121545,1,2,0:0:0:0:
256,192,121652,1,2,0:0:0:0:
256,192,121866,1,0,0:0:0:0:
256,192,121973,1,2,0:0:0:0:
256,192,122080,1,0,0:0:0:0:
256,192,122187,1,2,0:0:0:0:
256,192,122295,1,2,0:0:0:0:
256,192,122402,1,0,0:0:0:0:
256,192,122509,1,0,0:0:0:0:
256,192,122616,1,2,0:0:0:0:
256,192,122669,1,2,0:0:0:0:
256,192,122723,1,2,0:0:0:0:
256,192,122776,1,2,0:0:0:0:
256,192,122830,1,0,0:0:0:0:
256,192,122883,1,0,0:0:0:0:
256,192,122937,1,0,0:0:0:0:
256,192,122991,1,0,0:0:0:0:
256,192,123044,1,2,0:0:0:0:
256,192,123258,1,0,0:0:0:0:
256,192,123473,1,6,0:0:0:0:
256,192,123687,1,0,0:0:0:0:
256,192,123901,1,2,0:0:0:0:
256,192,124115,1,6,0:0:0:0:
256,192,124437,1,0,0:0:0:0:
256,192,124490,1,0,0:0:0:0:
256,192,124544,1,0,0:0:0:0:
256,192,124758,1,0,0:0:0:0:
256,192,124973,1,0,0:0:0:0:
256,192,125401,1,6,0:0:0:0:
256,192,125937,1,0,0:0:0:0:
256,192,125990,1,0,0:0:0:0:
256,192,126044,1,2,0:0:0:0:
256,192,126258,1,0,0:0:0:0:
256,192,126365,1,2,0:0:0:0:
256,192,126580,1,0,0:0:0:0:
256,192,126687,1,2,0:0:0:0:
256,192,126794,1,2,0:0:0:0:
256,192,126902,1,4,0:0:0:0:
256,192,127330,1,4,0:0:0:0:
256,192,127759,1,4,0:0:0:0:
256,192,127973,1,2,0:0:0:0:
256,192,128187,1,0,0:0:0:0:
256,192,128401,1,0,0:0:0:0:
256,192,128616,1,2,0:0:0:0:
256,192,128830,1,0,0:0:0:0:
256,192,129044,1,2,0:0:0:0:
256,192,129151,1,2,0:0:0:0:
256,192,129366,1,2,0:0:0:0:
256,192,129473,1,2,0:0:0:0:
256,192,129580,1,0,0:0:0:0:
256,192,129687,1,0,0:0:0:0:
256,192,129794,1,0,0:0:0:0:
256,192,129901,1,0,0:0:0:0:
256,192,130008,1,6,0:0:0:0:
256,192,130222,1,0,0:0:0:0:
256,192,130330,1,0,0:0:0:0:
256,192,130544,1,0,0:0:0:0:
256,192,130652,1,6,0:0:0:0:
256,192,130759,1,6,0:0:0:0:
256,192,130973,1,6,0:0:0:0:
256,192,131080,1,0,0:0:0:0:
256,192,131187,1,0,0:0:0:0:
256,192,131294,1,2,0:0:0:0:
256,192,131402,1,2,0:0:0:0:
256,192,131509,1,0,0:0:0:0:
256,192,131652,1,2,0:0:0:0:
256,192,131723,1,2,0:0:0:0:
256,192,131794,1,0,0:0:0:0:
256,192,131937,1,6,0:0:0:0:
256,192,132366,1,0,0:0:0:0:
256,192,132509,1,2,0:0:0:0:
256,192,132580,1,2,0:0:0:0:
256,192,132652,1,0,0:0:0:0:
256,192,132795,1,2,0:0:0:0:
256,192,133223,1,2,0:0:0:0:
256,192,133437,1,2,0:0:0:0:
256,192,133652,1,4,0:0:0:0:
256,192,133866,1,0,0:0:0:0:
256,192,134080,1,6,0:0:0:0:
256,192,134294,1,0,0:0:0:0:
256,192,134508,1,2,0:0:0:0:
256,192,134722,1,6,0:0:0:0:
256,192,135151,1,0,0:0:0:0:
256,192,135258,1,0,0:0:0:0:
256,192,135365,1,0,0:0:0:0:
256,192,135794,1,0,0:0:0:0:
256,192,136008,1,6,0:0:0:0:
256,192,136222,1,0,0:0:0:0:
256,192,136651,1,2,0:0:0:0:
256,192,136865,1,0,0:0:0:0:
256,192,136972,1,2,0:0:0:0:
256,192,137187,1,0,0:0:0:0:
256,192,137294,1,2,0:0:0:0:
256,192,137401,1,0,0:0:0:0:
256,192,137722,1,4,0:0:0:0:
256,192,137937,1,6,0:0:0:0:
256,192,138365,1,0,0:0:0:0:
256,192,138580,1,0,0:0:0:0:
256,192,138794,1,2,0:0:0:0:
256,192,139009,1,2,0:0:0:0:
256,192,139116,1,2,0:0:0:0:
256,192,139330,1,0,0:0:0:0:
256,192,139437,1,0,0:0:0:0:
256,192,139651,1,2,0:0:0:0:
256,192,139759,1,2,0:0:0:0:
256,192,139866,1,4,0:0:0:0:
256,192,140294,1,6,0:0:0:0:
256,192,140508,1,4,0:0:0:0:
256,192,140938,1,2,0:0:0:0:
256,192,141045,1,2,0:0:0:0:
256,192,141259,1,0,0:0:0:0:
256,192,141366,1,2,0:0:0:0:
256,192,141473,1,0,0:0:0:0:
256,192,141580,1,2,0:0:0:0:
256,192,141688,1,2,0:0:0:0:
256,192,141795,1,0,0:0:0:0:
256,192,141902,1,0,0:0:0:0:
256,192,142009,1,2,0:0:0:0:
256,192,142062,1,2,0:0:0:0:
256,192,142116,1,2,0:0:0:0:
256,192,142169,1,2,0:0:0:0:
256,192,142223,1,0,0:0:0:0:
256,192,142276,1,0,0:0:0:0:
256,192,142330,1,0,0:0:0:0:
256,192,142384,1,0,0:0:0:0:
256,192,142437,1,2,0:0:0:0:
256,192,142651,1,0,0:0:0:0:
256,192,142866,1,6,0:0:0:0:
256,192,143080,1,0,0:0:0:0:
256,192,143294,1,2,0:0:0:0:
256,192,143508,1,6,0:0:0:0:
256,192,143937,1,0,0:0:0:0:
256,192,144151,1,2,0:0:0:0:
256,192,144366,1,0,0:0:0:0:
256,192,144473,1,0,0:0:0:0:
256,192,144580,1,2,0:0:0:0:
256,192,144687,1,0,0:0:0:0:
256,192,144794,1,6,0:0:0:0:
256,192,145008,1,0,0:0:0:0:
256,192,145437,1,2,0:0:0:0:
256,192,145651,1,0,0:0:0:0:
256,192,145758,1,2,0:0:0:0:
256,192,145973,1,0,0:0:0:0:
256,192,146080,1,2,0:0:0:0:
256,192,146187,1,0,0:0:0:0:
256,192,146295,1,2,0:0:0:0:
256,192,146509,1,0,0:0:0:0:
256,192,146580,1,2,0:0:0:0:
256,192,146652,1,2,0:0:0:0:
256,192,146723,1,0,0:0:0:0:
256,192,146795,1,0,0:0:0:0:
256,192,146866,1,2,0:0:0:0:
256,192,146937,1,2,0:0:0:0:
256,192,147009,1,2,0:0:0:0:
256,192,147080,1,2,0:0:0:0:
256,192,147152,1,0,0:0:0:0:
256,192,147366,1,2,0:0:0:0:
256,192,147580,1,0,0:0:0:0:
256,192,147794,1,0,0:0:0:0:
256,192,148009,1,2,0:0:0:0:
256,192,148223,1,0,0:0:0:0:
256,192,148437,1,2,0:0:0:0:
256,192,148544,1,2,0:0:0:0:
256,192,148759,1,0,0:0:0:0:
256,192,148866,1,0,0:0:0:0:
256,192,148973,1,2,0:0:0:0:
256,192,149401,1,6,0:0:0:0:
256,192,149615,1,0,0:0:0:0:
256,192,149723,1,0,0:0:0:0:
256,192,149937,1,0,0:0:0:0:
256,192,150045,1,6,0:0:0:0:
256,192,150152,1,6,0:0:0:0:
256,192,150366,1,6,0:0:0:0:
256,192,150473,1,0,0:0:0:0:
256,192,150580,1,0,0:0:0:0:
256,192,150687,1,0,0:0:0:0:
256,192,150902,1,6,0:0:0:0:
256,192,151044,1,0,0:0:0:0:
256,192,151115,1,2,0:0:0:0:
256,192,151187,1,0,0:0:0:0:
256,192,151258,1,2,0:0:0:0:
256,192,151330,1,0,0:0:0:0:
256,192,151401,1,2,0:0:0:0:
256,192,151472,1,0,0:0:0:0:
256,192,151544,1,2,0:0:0:0:
256,192,151615,1,0,0:0:0:0:
256,192,151687,1,2,0:0:0:0:
256,192,151759,1,0,0:0:0:0:
256,192,151830,1,2,0:0:0:0:
256,192,151902,1,0,0:0:0:0:
256,192,151973,1,2,0:0:0:0:
256,192,152044,1,4,0:0:0:0:
256,192,152187,1,6,0:0:0:0:
256,192,153044,1,2,0:0:0:0:
256,192,153152,1,2,0:0:0:0:
256,192,153259,1,2,0:0:0:0:
256,192,153366,1,2,0:0:0:0:
256,192,153473,1,4,0:0:0:0:
256,192,153901,1,2,0:0:0:0:
256,192,154115,1,0,0:0:0:0:
256,192,154330,1,0,0:0:0:0:
256,192,154544,1,2,0:0:0:0:
256,192,154758,1,0,0:0:0:0:
256,192,154973,1,4,0:0:0:0:
256,192,155401,1,2,0:0:0:0:
256,192,155615,1,0,0:0:0:0:
256,192,155830,1,0,0:0:0:0:
256,192,156044,1,0,0:0:0:0:
256,192,156258,1,0,0:0:0:0:
256,192,156472,1,0,0:0:0:0:
256,192,156580,1,2,0:0:0:0:
256,192,156687,1,0,0:0:0:0:
256,192,156901,1,2,0:0:0:0:
256,192,157115,1,0,0:0:0:0:
256,192,157330,1,4,0:0:0:0:
256,192,157758,1,2,0:0:0:0:
256,192,157973,1,2,0:0:0:0:
256,192,158187,1,0,0:0:0:0:
256,192,158294,1,2,0:0:0:0:
256,192,158508,1,0,0:0:0:0:
256,192,158615,1,2,0:0:0:0:
256,192,158723,1,2,0:0:0:0:
256,192,158830,1,4,0:0:0:0:
256,192,159258,1,2,0:0:0:0:
256,192,159472,1,4,0:0:0:0:
256,192,159902,1,6,0:0:0:0:
256,192,160009,1,0,0:0:0:0:
256,192,160116,1,2,0:0:0:0:
256,192,160223,1,2,0:0:0:0:
256,192,160330,1,0,0:0:0:0:
256,192,160437,1,0,0:0:0:0:
256,192,160544,1,6,0:0:0:0:
256,192,160652,1,0,0:0:0:0:
256,192,160759,1,2,0:0:0:0:
256,192,160866,1,2,0:0:0:0:
256,192,160973,1,0,0:0:0:0:
256,192,161080,1,0,0:0:0:0:
256,192,161188,1,6,0:0:0:0:
256,192,161616,1,2,0:0:0:0:
256,192,161830,1,0,0:0:0:0:
256,192,162045,1,0,0:0:0:0:
256,192,162259,1,2,0:0:0:0:
256,192,162473,1,0,0:0:0:0:
256,192,162688,1,4,0:0:0:0:
256,192,163116,1,2,0:0:0:0:
256,192,163330,1,0,0:0:0:0:
256,192,163545,1,4,0:0:0:0:
256,192,163687,1,2,0:0:0:0:
256,192,163830,1,2,0:0:0:0:
256,192,163973,1,4,0:0:0:0:
256,192,164116,1,2,0:0:0:0:
256,192,164259,1,2,0:0:0:0:
256,192,164402,1,2,0:0:0:0:
256,192,164545,1,0,0:0:0:0:
256,192,164759,1,4,0:0:0:0:
256,192,165187,1,2,0:0:0:0:
256,192,165401,1,0,0:0:0:0:
256,192,165616,1,0,0:0:0:0:
256,192,165830,1,2,0:0:0:0:
256,192,166044,1,0,0:0:0:0:
256,192,166259,1,4,0:0:0:0:
256,192,166687,1,2,0:0:0:0:
256,192,166901,1,0,0:0:0:0:
256,192,167116,1,2,0:0:0:0:
256,192,167223,1,0,0:0:0:0:
256,192,167330,1,0,0:0:0:0:
256,192,167437,1,0,0:0:0:0:
256,192,167544,1,2,0:0:0:0:
256,192,167651,1,0,0:0:0:0:
256,192,167758,1,2,0:0:0:0:
256,192,167866,1,0,0:0:0:0:
256,192,167973,1,2,0:0:0:0:
256,192,168080,1,2,0:0:0:0:
256,192,168187,1,0,0:0:0:0:
256,192,168294,1,2,0:0:0:0:
256,192,168401,1,0,0:0:0:0:
256,192,168616,1,4,0:0:0:0:
256,192,169044,1,2,0:0:0:0:
256,192,169258,1,2,0:0:0:0:
256,192,169473,1,0,0:0:0:0:
256,192,169580,1,2,0:0:0:0:
256,192,169794,1,0,0:0:0:0:
256,192,169901,1,2,0:0:0:0:
256,192,170008,1,2,0:0:0:0:
256,192,170116,1,4,0:0:0:0:
256,192,170544,1,4,0:0:0:0:
256,192,170973,1,6,0:0:0:0:
256,192,171080,1,0,0:0:0:0:
256,192,171187,1,2,0:0:0:0:
256,192,171294,1,2,0:0:0:0:
256,192,171401,1,0,0:0:0:0:
256,192,171508,1,0,0:0:0:0:
256,192,171615,1,6,0:0:0:0:
256,192,171723,1,0,0:0:0:0:
256,192,171830,1,2,0:0:0:0:
256,192,171937,1,2,0:0:0:0:
256,192,172044,1,0,0:0:0:0:
256,192,172151,1,0,0:0:0:0:
256,192,172259,1,6,0:0:0:0:
256,192,172687,1,2,0:0:0:0:
256,192,172901,1,0,0:0:0:0:
256,192,173116,1,0,0:0:0:0:
256,192,173330,1,2,0:0:0:0:
256,192,173544,1,0,0:0:0:0:
256,192,173759,1,4,0:0:0:0:
256,192,174187,1,2,0:0:0:0:
256,192,174401,1,0,0:0:0:0:
256,192,174616,1,2,0:0:0:0:
256,192,174758,1,0,0:0:0:0:
256,192,174901,1,0,0:0:0:0:
256,192,175044,1,0,0:0:0:0:
256,192,175187,1,2,0:0:0:0:
256,192,175330,1,0,0:0:0:0:
256,192,175401,1,0,0:0:0:0:
256,192,175473,1,2,0:0:0:0:
256,192,175616,1,0,0:0:0:0:
256,192,175830,1,4,0:0:0:0:
256,192,176258,1,2,0:0:0:0:
256,192,176472,1,0,0:0:0:0:
256,192,176687,1,0,0:0:0:0:
256,192,176901,1,2,0:0:0:0:
256,192,177115,1,0,0:0:0:0:
256,192,177330,1,4,0:0:0:0:
256,192,177758,1,2,0:0:0:0:
256,192,177972,1,0,0:0:0:0:
256,192,178187,1,0,0:0:0:0:
256,192,178401,1,0,0:0:0:0:
256,192,178615,1,2,0:0:0:0:
256,192,178829,1,0,0:0:0:0:
256,192,178937,1,0,0:0:0:0:
256,192,179044,1,2,0:0:0:0:
256,192,179258,1,2,0:0:0:0:
256,192,179472,1,0,0:0:0:0:
256,192,179687,1,4,0:0:0:0:
256,192,180115,1,2,0:0:0:0:
256,192,180329,1,2,0:0:0:0:
256,192,180544,1,0,0:0:0:0:
256,192,180651,1,2,0:0:0:0:
256,192,180865,1,0,0:0:0:0:
256,192,180972,1,2,0:0:0:0:
256,192,181079,1,2,0:0:0:0:
256,192,181187,1,4,0:0:0:0:
256,192,181401,1,6,0:0:0:0:
256,192,182258,1,2,0:0:0:0:
256,192,182472,1,6,0:0:0:0:
256,192,182579,1,0,0:0:0:0:
256,192,182686,1,2,0:0:0:0:
256,192,182793,1,0,0:0:0:0:
256,192,182900,1,2,0:0:0:0:
256,192,183007,1,2,0:0:0:0:
256,192,183114,1,4,0:0:0:0:
256,192,183257,1,4,0:0:0:0:
256,192,183400,1,4,0:0:0:0:
256,192,183544,1,0,0:0:0:0:
256,192,183615,1,2,0:0:0:0:
256,192,183686,1,0,0:0:0:0:
256,192,183758,1,2,0:0:0:0:
256,192,183829,1,0,0:0:0:0:
256,192,183972,1,4,0:0:0:0:
256,192,184115,1,4,0:0:0:0:
256,192,184258,1,4,0:0:0:0:
256,192,184401,1,6,0:0:0:0:
256,192,184829,1,2,0:0:0:0:
256,192,185044,1,2,0:0:0:0:
256,192,185258,1,2,0:0:0:0:
256,192,185365,1,2,0:0:0:0:
256,192,185472,1,0,0:0:0:0:
256,192,185579,1,0,0:0:0:0:
256,192,185686,1,2,0:0:0:0:
256,192,185794,1,2,0:0:0:0:
256,192,185901,1,0,0:0:0:0:
256,192,186008,1,0,0:0:0:0:
256,192,186330,1,2,0:0:0:0:
256,192,186437,1,2,0:0:0:0:
256,192,186490,1,0,0:0:0:0:
256,192,186544,1,0,0:0:0:0:
256,192,186651,1,2,0:0:0:0:
256,192,186758,1,2,0:0:0:0:
256,192,186812,1,0,0:0:0:0:
256,192,186865,1,0,0:0:0:0:
256,192,186972,1,2,0:0:0:0:
256,192,187080,1,2,0:0:0:0:
256,192,187723,1,2,0:0:0:0:
256,192,187830,1,2,0:0:0:0:
256,192,188151,1,4,0:0:0:0:
256,192,188365,1,0,0:0:0:0:
256,192,188579,1,2,0:0:0:0:
256,192,189008,1,0,0:0:0:0:
256,192,189222,1,2,0:0:0:0:
256,192,189651,1,0,0:0:0:0:
256,192,189865,1,0,0:0:0:0:
256,192,189972,1,2,0:0:0:0:
256,192,190079,1,0,0:0:0:0:
256,192,190186,1,0,0:0:0:0:
256,192,190293,1,2,0:0:0:0:
256,192,190401,1,2,0:0:0:0:
256,192,190508,1,0,0:0:0:0:
256,192,190615,1,0,0:0:0:0:
256,192,190722,1,6,0:0:0:0:
256,192,190936,1,0,0:0:0:0:
256,192,191043,1,2,0:0:0:0:
256,192,191150,1,2,0:0:0:0:
256,192,191257,1,0,0:0:0:0:
256,192,191364,1,0,0:0:0:0:
256,192,191472,1,2,0:0:0:0:
256,192,191579,1,0,0:0:0:0:
256,192,191686,1,2,0:0:0:0:
256,192,191793,1,0,0:0:0:0:
256,192,191900,1,0,0:0:0:0:
256,192,192008,1,6,0:0:0:0:
256,192,192436,1,0,0:0:0:0:
256,192,192650,1,6,0:0:0:0:
256,192,193079,1,2,0:0:0:0:
256,192,193293,1,0,0:0:0:0:
256,192,193400,1,0,0:0:0:0:
256,192,193508,1,2,0:0:0:0:
256,192,193722,1,6,0:0:0:0:
256,192,194043,1,2,0:0:0:0:
256,192,194150,1,0,0:0:0:0:
256,192,194365,1,6,0:0:0:0:
256,192,194579,1,2,0:0:0:0:
256,192,194686,1,2,0:0:0:0:
256,192,194793,1,0,0:0:0:0:
256,192,195008,1,2,0:0:0:0:
256,192,195115,1,2,0:0:0:0:
256,192,195222,1,0,0:0:0:0:
256,192,195329,1,0,0:0:0:0:
256,192,195437,1,6,0:0:0:0:
256,192,195758,1,2,0:0:0:0:
256,192,195865,1,2,0:0:0:0:
256,192,195972,1,0,0:0:0:0:
256,192,196079,1,0,0:0:0:0:
256,192,196294,1,2,0:0:0:0:
256,192,196401,1,0,0:0:0:0:
256,192,196508,1,0,0:0:0:0:
256,192,196722,1,2,0:0:0:0:
256,192,196937,1,0,0:0:0:0:
256,192,197044,1,0,0:0:0:0:
256,192,197151,1,2,0:0:0:0:
256,192,197258,1,2,0:0:0:0:
256,192,197365,1,0,0:0:0:0:
256,192,197472,1,6,0:0:0:0:
256,192,197793,1,2,0:0:0:0:
256,192,197900,1,0,0:0:0:0:
256,192,198114,1,2,0:0:0:0:
256,192,198329,1,0,0:0:0:0:
256,192,198543,1,2,0:0:0:0:
256,192,198757,1,2,0:0:0:0:
256,192,199186,1,0,0:0:0:0:
256,192,199293,1,0,0:0:0:0:
256,192,199615,1,2,0:0:0:0:
256,192,199722,1,2,0:0:0:0:
256,192,199936,1,0,0:0:0:0:
256,192,200043,1,0,0:0:0:0:
256,192,200257,1,2,0:0:0:0:
256,192,200365,1,2,0:0:0:0:
256,192,200472,1,2,0:0:0:0:
256,192,200793,1,2,0:0:0:0:
256,192,200900,1,0,0:0:0:0:
256,192,201115,1,0,0:0:0:0:
256,192,201329,1,2,0:0:0:0:
256,192,201436,1,2,0:0:0:0:
256,192,201650,1,0,0:0:0:0:
256,192,201757,1,0,0:0:0:0:
256,192,201972,1,2,0:0:0:0:
256,192,202079,1,2,0:0:0:0:
256,192,202186,1,0,0:0:0:0:
256,192,202400,1,0,0:0:0:0:
256,192,202615,1,2,0:0:0:0:
256,192,202829,1,2,0:0:0:0:
256,192,203043,1,0,0:0:0:0:
256,192,203257,1,2,0:0:0:0:
256,192,203472,1,0,0:0:0:0:
256,192,203686,1,0,0:0:0:0:
256,192,203900,1,2,0:0:0:0:
256,192,204114,1,0,0:0:0:0:
256,192,204167,1,0,0:0:0:0:
256,192,204221,1,0,0:0:0:0:
256,192,204275,1,0,0:0:0:0:
256,192,204328,1,2,0:0:0:0:
256,192,204435,1,2,0:0:0:0:
256,192,204542,1,0,0:0:0:0:
256,192,204596,1,0,0:0:0:0:
256,192,204650,1,2,0:0:0:0:
256,192,204757,1,2,0:0:0:0:
256,192,204864,1,0,0:0:0:0:
256,192,204917,1,0,0:0:0:0:
256,192,204971,1,2,0:0:0:0:
256,192,205078,1,2,0:0:0:0:
256,192,205187,1,0,0:0:0:0:
256,192,205294,1,0,0:0:0:0:
256,192,205508,1,2,0:0:0:0:
256,192,205615,1,2,0:0:0:0:
256,192,205829,1,0,0:0:0:0:
256,192,205937,1,0,0:0:0:0:
256,192,206044,1,2,0:0:0:0:
256,192,206258,1,0,0:0:0:0:
256,192,206312,1,0,0:0:0:0:
256,192,206365,1,0,0:0:0:0:
256,192,206419,1,0,0:0:0:0:
256,192,206472,1,2,0:0:0:0:
256,192,206901,1,0,0:0:0:0:
256,192,207008,1,0,0:0:0:0:
256,192,207222,1,2,0:0:0:0:
256,192,207329,1,2,0:0:0:0:
256,192,207544,1,0,0:0:0:0:
256,192,207651,1,0,0:0:0:0:
256,192,207758,1,2,0:0:0:0:
256,192,207865,1,2,0:0:0:0:
256,192,207919,1,2,0:0:0:0:
256,192,207972,1,2,0:0:0:0:
256,192,208079,1,0,0:0:0:0:
256,192,208187,1,2,0:0:0:0:
256,192,208294,1,2,0:0:0:0:
256,192,208401,1,0,0:0:0:0:
256,192,208508,1,2,0:0:0:0:
256,192,208615,1,0,0:0:0:0:
256,192,208722,1,0,0:0:0:0:
256,192,208936,1,2,0:0:0:0:
256,192,209043,1,2,0:0:0:0:
256,192,209257,1,2,0:0:0:0:
256,192,209365,1,2,0:0:0:0:
256,192,209579,1,2,0:0:0:0:
256,192,209686,1,2,0:0:0:0:
256,192,209901,1,2,0:0:0:0:
256,192,209954,1,2,0:0:0:0:
256,192,210008,1,0,0:0:0:0:
256,192,210115,1,2,0:0:0:0:
256,192,210222,1,2,0:0:0:0:
256,192,210329,1,0,0:0:0:0:
256,192,210436,1,2,0:0:0:0:
256,192,210490,1,2,0:0:0:0:
256,192,210543,1,0,0:0:0:0:
256,192,210651,1,2,0:0:0:0:
256,192,210758,1,2,0:0:0:0:
256,192,210865,1,0,0:0:0:0:
256,192,210972,1,0,0:0:0:0:
256,192,211079,1,2,0:0:0:0:
256,192,211186,1,2,0:0:0:0:
256,192,211293,1,0,0:0:0:0:
256,192,211401,1,2,0:0:0:0:
256,192,211508,1,2,0:0:0:0:
256,192,211615,1,0,0:0:0:0:
256,192,211829,1,2,0:0:0:0:
256,192,212043,1,2,0:0:0:0:
256,192,212150,1,0,0:0:0:0:
256,192,212258,1,0,0:0:0:0:
256,192,212365,1,2,0:0:0:0:
256,192,212579,1,2,0:0:0:0:
256,192,212686,1,2,0:0:0:0:
256,192,212793,1,0,0:0:0:0:
256,192,212900,1,0,0:0:0:0:
256,192,213008,1,2,0:0:0:0:
256,192,213115,1,2,0:0:0:0:
256,192,213329,1,2,0:0:0:0:
256,192,213436,1,0,0:0:0:0:
256,192,213543,1,0,0:0:0:0:
256,192,213650,1,2,0:0:0:0:
256,192,213758,1,0,0:0:0:0:
256,192,213865,1,0,0:0:0:0:
256,192,213972,1,2,0:0:0:0:
256,192,214079,1,0,0:0:0:0:
256,192,214186,1,0,0:0:0:0:
256,192,214293,1,2,0:0:0:0:
256,192,214400,1,0,0:0:0:0:
256,192,214508,1,2,0:0:0:0:
256,192,214615,1,2,0:0:0:0:
256,192,214722,1,0,0:0:0:0:
256,192,214829,1,0,0:0:0:0:
256,192,214937,1,6,0:0:0:0:
256,192,215151,1,0,0:0:0:0:
256,192,215258,1,0,0:0:0:0:
256,192,215365,1,2,0:0:0:0:
256,192,215472,1,2,0:0:0:0:
256,192,215579,1,0,0:0:0:0:
256,192,215901,1,0,0:0:0:0:
256,192,215954,1,0,0:0:0:0:
256,192,216008,1,2,0:0:0:0:
256,192,216222,1,6,0:0:0:0:
256,192,216437,1,0,0:0:0:0:
256,192,216490,1,0,0:0:0:0:
256,192,216544,1,0,0:0:0:0:
256,192,216651,1,0,0:0:0:0:
256,192,216758,1,2,0:0:0:0:
256,192,216865,1,0,0:0:0:0:
256,192,217187,1,0,0:0:0:0:
256,192,217240,1,0,0:0:0:0:
256,192,217294,1,2,0:0:0:0:
256,192,217508,1,2,0:0:0:0:
256,192,217722,1,2,0:0:0:0:
256,192,217829,1,2,0:0:0:0:
256,192,217936,1,2,0:0:0:0:
256,192,218043,1,0,0:0:0:0:
256,192,218150,1,2,0:0:0:0:
256,192,218472,1,0,0:0:0:0:
256,192,218525,1,0,0:0:0:0:
256,192,218579,1,2,0:0:0:0:
256,192,218793,1,2,0:0:0:0:
256,192,219008,1,0,0:0:0:0:
256,192,219061,1,0,0:0:0:0:
256,192,219115,1,0,0:0:0:0:
256,192,219222,1,0,0:0:0:0:
256,192,219329,1,0,0:0:0:0:
256,192,219436,1,2,0:0:0:0:
256,192,219543,1,0,0:0:0:0:
256,192,219597,1,0,0:0:0:0:
256,192,219650,1,0,0:0:0:0:
256,192,219758,1,0,0:0:0:0:
256,192,219865,1,2,0:0:0:0:
256,192,220079,1,2,0:0:0:0:
256,192,220186,1,2,0:0:0:0:
256,192,220293,1,2,0:0:0:0:
256,192,220400,1,0,0:0:0:0:
256,192,220615,1,2,0:0:0:0:
256,192,220829,1,0,0:0:0:0:
256,192,220936,1,2,0:0:0:0:
256,192,221043,1,0,0:0:0:0:
256,192,221150,1,2,0:0:0:0:
256,192,221365,1,2,0:0:0:0:
256,192,221472,1,2,0:0:0:0:
256,192,221579,1,0,0:0:0:0:
256,192,221686,1,0,0:0:0:0:
256,192,221793,1,0,0:0:0:0:
256,192,221900,1,2,0:0:0:0:
256,192,222115,1,2,0:0:0:0:
256,192,222222,1,0,0:0:0:0:
256,192,222436,1,2,0:0:0:0:
256,192,222543,1,0,0:0:0:0:
256,192,222758,1,2,0:0:0:0:
256,192,222865,1,0,0:0:0:0:
256,192,222972,1,0,0:0:0:0:
256,192,223079,1,2,0:0:0:0:
256,192,223186,1,0,0:0:0:0:
256,192,223293,1,2,0:0:0:0:
256,192,223400,1,2,0:0:0:0:
256,192,223507,1,0,0:0:0:0:
256,192,223615,1,0,0:0:0:0:
256,192,223722,1,6,0:0:0:0:
256,192,223936,1,0,0:0:0:0:
256,192,224043,1,0,0:0:0:0:
256,192,224150,1,2,0:0:0:0:
256,192,224257,1,2,0:0:0:0:
256,192,224364,1,0,0:0:0:0:
256,192,224579,1,2,0:0:0:0:
256,192,224686,1,0,0:0:0:0:
256,192,224793,1,0,0:0:0:0:
256,192,224900,1,0,0:0:0:0:
256,192,225007,1,6,0:0:0:0:
256,192,225222,1,0,0:0:0:0:
256,192,225275,1,0,0:0:0:0:
256,192,225329,1,0,0:0:0:0:
256,192,225382,1,0,0:0:0:0:
256,192,225436,1,2,0:0:0:0:
256,192,225543,1,2,0:0:0:0:
256,192,225650,1,0,0:0:0:0:
256,192,225864,1,2,0:0:0:0:
256,192,225972,1,2,0:0:0:0:
256,192,226079,1,0,0:0:0:0:
256,192,226186,1,0,0:0:0:0:
256,192,226294,1,6,0:0:0:0:
256,192,226508,1,0,0:0:0:0:
256,192,226615,1,0,0:0:0:0:
256,192,226722,1,2,0:0:0:0:
256,192,226829,1,0,0:0:0:0:
256,192,226936,1,2,0:0:0:0:
256,192,227151,1,2,0:0:0:0:
256,192,227258,1,0,0:0:0:0:
256,192,227311,1,0,0:0:0:0:
256,192,227365,1,2,0:0:0:0:
256,192,227579,1,2,0:0:0:0:
256,192,227794,1,0,0:0:0:0:
256,192,227847,1,0,0:0:0:0:
256,192,227901,1,0,0:0:0:0:
256,192,228008,1,0,0:0:0:0:
256,192,228115,1,0,0:0:0:0:
256,192,228222,1,2,0:0:0:0:
256,192,228294,1,0,0:0:0:0:
256,192,228365,1,2,0:0:0:0:
256,192,228436,1,0,0:0:0:0:
256,192,228490,1,0,0:0:0:0:
256,192,228544,1,0,0:0:0:0:
256,192,228597,1,0,0:0:0:0:
256,192,228651,1,2,0:0:0:0:
256,192,228865,1,0,0:0:0:0:
256,192,228972,1,0,0:0:0:0:
256,192,229080,1,6,0:0:0:0:
256,192,229401,1,0,0:0:0:0:
256,192,229508,1,2,0:0:0:0:
256,192,229615,1,2,0:0:0:0:
256,192,229722,1,0,0:0:0:0:
256,192,229937,1,2,0:0:0:0:
256,192,230044,1,0,0:0:0:0:
256,192,230151,1,2,0:0:0:0:
256,192,230365,1,0,0:0:0:0:
256,192,230472,1,2,0:0:0:0:
256,192,230580,1,2,0:0:0:0:
256,192,230794,1,6,0:0:0:0:
256,192,231115,1,0,0:0:0:0:
256,192,231222,1,2,0:0:0:0:
256,192,231330,1,2,0:0:0:0:
256,192,231437,1,0,0:0:0:0:
256,192,231651,1,2,0:0:0:0:
256,192,231758,1,0,0:0:0:0:
256,192,231865,1,2,0:0:0:0:
256,192,231972,1,2,0:0:0:0:
256,192,232080,1,0,0:0:0:0:
256,192,232294,1,2,0:0:0:0:
256,192,232347,1,2,0:0:0:0:
256,192,232401,1,0,0:0:0:0:
256,192,232508,1,6,0:0:0:0:
256,192,232721,1,0,0:0:0:0:
256,192,232829,1,2,0:0:0:0:
256,192,233150,1,0,0:0:0:0:
256,192,233258,1,0,0:0:0:0:
256,192,233472,1,0,0:0:0:0:
256,192,233686,1,2,0:0:0:0:
256,192,233793,1,0,0:0:0:0:
256,192,233900,1,2,0:0:0:0:
256,192,234115,1,0,0:0:0:0:
256,192,234222,1,2,0:0:0:0:
256,192,234329,1,2,0:0:0:0:
256,192,234544,1,6,0:0:0:0:
256,192,234651,1,0,0:0:0:0:
256,192,234758,1,2,0:0:0:0:
256,192,234865,1,2,0:0:0:0:
256,192,234972,1,0,0:0:0:0:
256,192,235186,1,2,0:0:0:0:
256,192,235294,1,2,0:0:0:0:
256,192,235401,1,2,0:0:0:0:
256,192,235508,1,0,0:0:0:0:
256,192,235615,1,2,0:0:0:0:
256,192,235722,1,2,0:0:0:0:
256,192,235776,1,2,0:0:0:0:
256,192,235829,1,0,0:0:0:0:
256,192,236044,1,0,0:0:0:0:
256,192,236258,1,0,0:0:0:0:
256,192,236472,1,4,0:0:0:0:
256,192,236793,1,0,0:0:0:0:
256,192,236900,1,2,0:0:0:0:
256,192,237114,1,0,0:0:0:0:
256,192,237329,1,6,0:0:0:0:
256,192,237436,1,0,0:0:0:0:
256,192,237543,1,2,0:0:0:0:
256,192,237757,1,2,0:0:0:0:
256,192,237864,1,2,0:0:0:0:
256,192,237972,1,2,0:0:0:0:
256,192,238186,1,4,0:0:0:0:
256,192,238293,1,2,0:0:0:0:
256,192,238400,1,2,0:0:0:0:
256,192,238507,1,0,0:0:0:0:
256,192,238614,1,2,0:0:0:0:
256,192,238828,1,0,0:0:0:0:
256,192,239043,1,6,0:0:0:0:
256,192,239150,1,0,0:0:0:0:
256,192,239257,1,0,0:0:0:0:
256,192,239471,1,2,0:0:0:0:
256,192,239686,1,2,0:0:0:0:
256,192,239793,1,2,0:0:0:0:
256,192,239900,1,2,0:0:0:0:
256,192,240114,1,2,0:0:0:0:
256,192,240222,1,4,0:0:0:0:
256,192,240543,1,0,0:0:0:0:
256,192,240650,1,2,0:0:0:0:
256,192,240864,1,0,0:0:0:0:
256,192,241079,1,6,0:0:0:0:
256,192,241186,1,0,0:0:0:0:
256,192,241293,1,2,0:0:0:0:
256,192,241400,1,2,0:0:0:0:
256,192,241454,1,2,0:0:0:0:
256,192,241507,1,0,0:0:0:0:
256,192,241614,1,0,0:0:0:0:
256,192,241722,1,2,0:0:0:0:
256,192,241829,1,0,0:0:0:0:
256,192,241936,1,6,0:0:0:0:
256,192,242150,1,4,0:0:0:0:
256,192,242364,1,4,0:0:0:0:
256,192,242579,1,6,0:0:0:0:
256,192,242806,1,0,0:0:0:0:
256,192,243033,1,2,0:0:0:0:
256,192,243146,1,2,0:0:0:0:
256,192,243259,1,4,0:0:0:0:
256,192,243520,1,2,0:0:0:0:
256,192,243651,1,2,0:0:0:0:
256,192,243923,1,0,0:0:0:0:
256,192,244065,1,0,0:0:0:0:
256,192,244353,1,6,0:0:0:0:
256,192,244674,1,0,0:0:0:0:
256,192,244725,1,0,0:0:0:0:
256,192,244777,1,0,0:0:0:0:
256,192,244829,1,0,0:0:0:0:
256,192,244881,1,0,0:0:0:0:
256,192,244933,1,0,0:0:0:0:
256,192,245038,1,6,0:0:0:0:
256,192,245420,1,6,0:0:0:0:
256,192,245793,1,6,0:0:0:0:
256,192,246208,1,6,0:0:0:0:
256,192,246458,8,6,249208,0:0:0:0:
256,192,249583,5,0,0:0:0:0:
256,192,249645,1,0,0:0:0:0:
256,192,249708,1,2,0:0:0:0:
256,192,249958,1,0,0:0:0:0:
256,192,250208,1,2,0:0:0:0:
256,192,252208,1,2,0:0:0:0:
256,192,252708,1,0,0:0:0:0:
256,192,252958,1,2,0:0:0:0:
256,192,253458,1,0,0:0:0:0:
256,192,253708,1,2,0:0:0:0:
256,192,254208,1,2,0:0:0:0:
256,192,254708,1,0,0:0:0:0:
256,192,254958,1,2,0:0:0:0:
256,192,255458,1,0,0:0:0:0:
256,192,255708,1,2,0:0:0:0:
256,192,255958,1,0,0:0:0:0:
256,192,256208,1,2,0:0:0:0:
256,192,256708,1,0,0:0:0:0:
256,192,256791,1,0,0:0:0:0:
256,192,256874,1,0,0:0:0:0:
256,192,256958,1,2,0:0:0:0:
256,192,257208,1,0,0:0:0:0:
256,192,257458,1,0,0:0:0:0:
256,192,257708,1,2,0:0:0:0:
256,192,257833,1,0,0:0:0:0:
256,192,257958,1,0,0:0:0:0:
256,192,258083,1,0,0:0:0:0:
256,192,258208,1,2,0:0:0:0:
256,192,258458,1,0,0:0:0:0:
256,192,258708,1,0,0:0:0:0:
256,192,258958,1,2,0:0:0:0:
256,192,259208,1,2,0:0:0:0:
256,192,259458,1,0,0:0:0:0:
256,192,259708,1,2,0:0:0:0:
256,192,260208,1,2,0:0:0:0:
256,192,260458,1,0,0:0:0:0:
256,192,260708,1,0,0:0:0:0:
256,192,260958,1,2,0:0:0:0:
256,192,261208,1,2,0:0:0:0:
256,192,261458,1,2,0:0:0:0:
256,192,261708,1,0,0:0:0:0:
256,192,262208,1,2,0:0:0:0:
256,192,262458,1,2,0:0:0:0:
256,192,262708,1,0,0:0:0:0:
256,192,262958,1,2,0:0:0:0:
256,192,263208,1,0,0:0:0:0:
256,192,263458,1,2,0:0:0:0:
256,192,263708,1,0,0:0:0:0:
256,192,264208,1,2,0:0:0:0:
256,192,264458,1,0,0:0:0:0:
256,192,264708,1,0,0:0:0:0:
256,192,264958,1,0,0:0:0:0:
256,192,265208,1,0,0:0:0:0:
256,192,265458,1,2,0:0:0:0:
256,192,265708,1,2,0:0:0:0:
256,192,265958,1,0,0:0:0:0:
256,192,266208,1,2,0:0:0:0:
256,192,266708,1,0,0:0:0:0:
256,192,266958,1,2,0:0:0:0:
256,192,267458,1,0,0:0:0:0:
256,192,267708,1,2,0:0:0:0:
256,192,268208,1,2,0:0:0:0:
256,192,268708,1,0,0:0:0:0:
256,192,268958,1,2,0:0:0:0:
256,192,269458,1,0,0:0:0:0:
256,192,269708,1,2,0:0:0:0:
256,192,270208,1,0,0:0:0:0:
256,192,270708,1,0,0:0:0:0:
256,192,270958,1,2,0:0:0:0:
256,192,271458,1,0,0:0:0:0:
256,192,271708,1,2,0:0:0:0:
256,192,272208,1,0,0:0:0:0:
256,192,272708,1,0,0:0:0:0:
256,192,272958,1,2,0:0:0:0:
256,192,273208,1,2,0:0:0:0:
256,192,273708,1,0,0:0:0:0:
256,192,274208,1,2,0:0:0:0:
256,192,275708,1,2,0:0:0:0:
256,192,275958,1,2,0:0:0:0:
256,192,276208,1,0,0:0:0:0:
256,192,276458,1,2,0:0:0:0:
256,192,277708,1,0,0:0:0:0:
256,192,278208,1,2,0:0:0:0:
256,192,279708,1,0,0:0:0:0:
256,192,280208,1,2,0:0:0:0:
256,192,281208,1,0,0:0:0:0:
256,192,282208,1,2,0:0:0:0:
256,192,283708,1,2,0:0:0:0:
256,192,284083,1,2,0:0:0:0:
256,192,284395,1,0,0:0:0:0:
256,192,285708,1,0,0:0:0:0:
256,192,285958,1,0,0:0:0:0:
256,192,286208,1,2,0:0:0:0:
256,192,287208,1,2,0:0:0:0:
256,192,288208,1,0,0:0:0:0:
256,192,289208,1,2,0:0:0:0:
256,192,289708,1,0,0:0:0:0:
256,192,289958,1,0,0:0:0:0:
256,192,290208,1,2,0:0:0:0:
256,192,291208,1,2,0:0:0:0:
256,192,291708,1,2,0:0:0:0:
256,192,291958,1,2,0:0:0:0:
256,192,292208,1,0,0:0:0:0:
256,192,292458,1,2,0:0:0:0:
256,192,293208,1,2,0:0:0:0:
256,192,293708,1,0,0:0:0:0:
256,192,294208,1,2,0:0:0:0:
256,192,295208,1,2,0:0:0:0:
256,192,295708,1,0,0:0:0:0:
256,192,296208,1,2,0:0:0:0:
256,192,297208,1,0,0:0:0:0:
256,192,298208,1,2,0:0:0:0:
256,192,299208,1,2,0:0:0:0:
256,192,299708,1,0,0:0:0:0:
256,192,299958,1,2,0:0:0:0:
256,192,300208,1,0,0:0:0:0:
256,192,301208,1,2,0:0:0:0:
256,192,301708,1,0,0:0:0:0:
256,192,301958,1,0,0:0:0:0:
256,192,302208,1,2,0:0:0:0:
256,192,303208,1,2,0:0:0:0:
256,192,303958,1,2,0:0:0:0:
256,192,304083,1,2,0:0:0:0:
256,192,304208,1,0,0:0:0:0:
256,192,304458,1,2,0:0:0:0:
256,192,304520,1,2,0:0:0:0:
256,192,304708,1,0,0:0:0:0:
256,192,304791,1,0,0:0:0:0:
256,192,304874,1,0,0:0:0:0:
256,192,304958,1,0,0:0:0:0:
256,192,305208,1,2,0:0:0:0:
256,192,305458,1,0,0:0:0:0:
256,192,305583,1,0,0:0:0:0:
256,192,305708,1,2,0:0:0:0:
256,192,305833,1,0,0:0:0:0:
256,192,305958,1,2,0:0:0:0:
256,192,306208,1,4,0:0:0:0:
256,192,306458,1,2,0:0:0:0:
256,192,306708,1,0,0:0:0:0:
256,192,306833,1,2,0:0:0:0:
256,192,307083,1,0,0:0:0:0:
256,192,307208,1,2,0:0:0:0:
256,192,307458,1,0,0:0:0:0:
256,192,307583,1,0,0:0:0:0:
256,192,307645,1,0,0:0:0:0:
256,192,307708,1,2,0:0:0:0:
256,192,307833,1,2,0:0:0:0:
256,192,307958,1,0,0:0:0:0:
256,192,308208,1,2,0:0:0:0:
256,192,308458,1,0,0:0:0:0:
256,192,308583,1,0,0:0:0:0:
256,192,308708,1,2,0:0:0:0:
256,192,308958,1,0,0:0:0:0:
256,192,309083,1,2,0:0:0:0:
256,192,309208,1,0,0:0:0:0:
256,192,309333,1,0,0:0:0:0:
256,192,309458,1,2,0:0:0:0:
256,192,309583,1,2,0:0:0:0:
256,192,309708,1,2,0:0:0:0:
256,192,309791,1,2,0:0:0:0:
256,192,309874,1,2,0:0:0:0:
256,192,309958,1,2,0:0:0:0:
256,192,310041,1,2,0:0:0:0:
256,192,310124,1,2,0:0:0:0:
256,192,310208,1,4,0:0:0:0:
256,192,310458,1,0,0:0:0:0:
256,192,310708,1,0,0:0:0:0:
256,192,310833,1,2,0:0:0:0:
256,192,311083,1,0,0:0:0:0:
256,192,311208,1,2,0:0:0:0:
256,192,311458,1,0,0:0:0:0:
256,192,311583,1,0,0:0:0:0:
256,192,311645,1,0,0:0:0:0:
256,192,311708,1,2,0:0:0:0:
256,192,311833,1,2,0:0:0:0:
256,192,311958,1,0,0:0:0:0:
256,192,312208,1,2,0:0:0:0:
256,192,312458,1,0,0:0:0:0:
256,192,312583,1,0,0:0:0:0:
256,192,312708,1,2,0:0:0:0:
256,192,312958,1,0,0:0:0:0:
256,192,313083,1,2,0:0:0:0:
256,192,313208,1,2,0:0:0:0:
256,192,313333,1,0,0:0:0:0:
256,192,313458,1,2,0:0:0:0:
256,192,313583,1,2,0:0:0:0:
256,192,313708,1,2,0:0:0:0:
256,192,313833,1,0,0:0:0:0:
256,192,313958,1,6,0:0:0:0:
256,192,314208,1,4,0:0:0:0:
256,192,314458,1,0,0:0:0:0:
256,192,314708,1,0,0:0:0:0:
256,192,314833,1,2,0:0:0:0:
256,192,315083,1,0,0:0:0:0:
256,192,315208,1,2,0:0:0:0:
256,192,315333,1,0,0:0:0:0:
256,192,315458,1,0,0:0:0:0:
256,192,315583,1,0,0:0:0:0:
256,192,315645,1,0,0:0:0:0:
256,192,315708,1,2,0:0:0:0:
256,192,315833,1,2,0:0:0:0:
256,192,315958,1,0,0:0:0:0:
256,192,316208,1,2,0:0:0:0:
256,192,316458,1,0,0:0:0:0:
256,192,316708,1,2,0:0:0:0:
256,192,316833,1,2,0:0:0:0:
256,192,316895,1,2,0:0:0:0:
256,192,316958,1,0,0:0:0:0:
256,192,317083,1,2,0:0:0:0:
256,192,317208,1,0,0:0:0:0:
256,192,317333,1,0,0:0:0:0:
256,192,317458,1,2,0:0:0:0:
256,192,317583,1,2,0:0:0:0:
256,192,317708,1,0,0:0:0:0:
256,192,317791,1,0,0:0:0:0:
256,192,317874,1,0,0:0:0:0:
256,192,317958,1,0,0:0:0:0:
256,192,318041,1,0,0:0:0:0:
256,192,318124,1,0,0:0:0:0:
256,192,318208,1,2,0:0:0:0:
256,192,318458,1,0,0:0:0:0:
256,192,318833,1,0,0:0:0:0:
256,192,318958,1,2,0:0:0:0:
256,192,319083,1,0,0:0:0:0:
256,192,319208,1,2,0:0:0:0:
256,192,319458,1,0,0:0:0:0:
256,192,319583,1,2,0:0:0:0:
256,192,319645,1,2,0:0:0:0:
256,192,319708,1,2,0:0:0:0:
256,192,319833,1,2,0:0:0:0:
256,192,319958,1,0,0:0:0:0:
256,192,320083,1,0,0:0:0:0:
256,192,320208,1,2,0:0:0:0:
256,192,320458,1,2,0:0:0:0:
256,192,320520,1,2,0:0:0:0:
256,192,320708,1,0,0:0:0:0:
256,192,320791,1,0,0:0:0:0:
256,192,320874,1,0,0:0:0:0:
256,192,320958,1,2,0:0:0:0:
256,192,321208,1,2,0:0:0:0:
256,192,321374,1,0,0:0:0:0:
256,192,321541,1,0,0:0:0:0:
256,192,321708,1,2,0:0:0:0:
256,192,321958,1,2,0:0:0:0:
256,192,322083,1,2,0:0:0:0:
256,192,322208,5,4,0:0:0:0:
256,192,322458,1,8,0:0:0:0:
256,192,322708,1,0,0:0:0:0:
256,192,322833,1,8,0:0:0:0:
256,192,323083,1,8,0:0:0:0:
256,192,323208,1,0,0:0:0:0:
256,192,323708,1,8,0:0:0:0:
256,192,323958,1,8,0:0:0:0:
256,192,324083,1,8,0:0:0:0:
256,192,324208,1,8,0:0:0:0:
256,192,324458,1,0,0:0:0:0:
256,192,324708,1,8,0:0:0:0:
256,192,324833,1,0,0:0:0:0:
256,192,324895,1,0,0:0:0:0:
256,192,324958,1,8,0:0:0:0:
256,192,325083,1,8,0:0:0:0:
256,192,325208,1,0,0:0:0:0:
256,192,325458,1,0,0:0:0:0:
256,192,325708,1,8,0:0:0:0:
256,192,325833,1,8,0:0:0:0:
256,192,325958,1,0,0:0:0:0:
256,192,326208,1,4,0:0:0:0:
256,192,326458,1,8,0:0:0:0:
256,192,326708,1,0,0:0:0:0:
256,192,326833,1,8,0:0:0:0:
256,192,327083,1,8,0:0:0:0:
256,192,327208,1,0,0:0:0:0:
256,192,327583,1,0,0:0:0:0:
256,192,327708,1,8,0:0:0:0:
256,192,327958,1,8,0:0:0:0:
256,192,328083,1,0,0:0:0:0:
256,192,328208,1,8,0:0:0:0:
256,192,328708,1,0,0:0:0:0:
256,192,328958,1,8,0:0:0:0:
256,192,329208,1,4,0:0:0:0:
256,192,329458,1,8,0:0:0:0:
256,192,329583,1,8,0:0:0:0:
256,192,329708,1,8,0:0:0:0:
256,192,329833,1,0,0:0:0:0:
256,192,329958,1,8,0:0:0:0:
288,192,330083,1,8,0:0:0:0:
256,192,330208,1,4,0:0:0:0:
256,192,330458,1,8,0:0:0:0:
256,192,330708,1,0,0:0:0:0:
256,192,330833,1,8,0:0:0:0:
256,192,331083,1,8,0:0:0:0:
256,192,331208,1,0,0:0:0:0:
256,192,331583,1,0,0:0:0:0:
256,192,331708,1,8,0:0:0:0:
256,192,331958,1,0,0:0:0:0:
256,192,332083,1,0,0:0:0:0:
256,192,332208,1,8,0:0:0:0:
256,192,332333,1,8,0:0:0:0:
256,192,332458,1,0,0:0:0:0:
256,192,332583,1,0,0:0:0:0:
256,192,332708,1,8,0:0:0:0:
256,192,332833,1,0,0:0:0:0:
256,192,332895,1,0,0:0:0:0:
256,192,332958,1,8,0:0:0:0:
288,224,333083,1,8,0:0:0:0:
256,192,333208,1,0,0:0:0:0:
256,192,333333,1,0,0:0:0:0:
256,192,333458,1,8,0:0:0:0:
256,192,333583,1,0,0:0:0:0:
256,192,333708,1,8,0:0:0:0:
256,192,333833,1,8,0:0:0:0:
256,192,333958,1,8,0:0:0:0:
256,192,334208,1,4,0:0:0:0:
256,192,334395,1,8,0:0:0:0:
256,192,334583,1,8,0:0:0:0:
256,192,334708,1,0,0:0:0:0:
256,192,334833,1,8,0:0:0:0:
256,192,334958,1,8,0:0:0:0:
256,192,335083,1,0,0:0:0:0:
256,192,335208,1,0,0:0:0:0:
256,192,335333,1,0,0:0:0:0:
256,192,335458,1,8,0:0:0:0:
256,192,335708,1,0,0:0:0:0:
256,192,335958,1,0,0:0:0:0:
256,192,336208,1,8,0:0:0:0:
256,192,336333,1,0,0:0:0:0:
256,192,336395,1,8,0:0:0:0:
256,192,336458,1,8,0:0:0:0:
256,192,336583,1,8,0:0:0:0:
256,192,336708,1,0,0:0:0:0:
256,192,336833,1,0,0:0:0:0:
256,192,337041,1,8,0:0:0:0:
256,192,337208,1,0,0:0:0:0:
256,192,337374,1,8,0:0:0:0:
256,192,337541,1,8,0:0:0:0:
256,192,337708,1,0,0:0:0:0:
256,192,337874,1,0,0:0:0:0:
256,192,338041,1,0,0:0:0:0:
256,192,338208,1,12,0:0:0:0:
256,192,339333,1,8,0:0:0:0:
256,192,339395,1,8,0:0:0:0:
256,192,339458,1,8,0:0:0:0:
256,192,339583,1,8,0:0:0:0:
288,192,339708,1,0,0:0:0:0:
256,192,339833,1,0,0:0:0:0:
256,192,339958,1,8,0:0:0:0:
256,192,340208,1,4,0:0:0:0:
256,192,341208,1,8,0:0:0:0:
256,192,341333,1,8,0:0:0:0:
256,192,341395,1,8,0:0:0:0:
256,192,341458,1,0,0:0:0:0:
256,192,341583,1,8,0:0:0:0:
256,192,341645,1,0,0:0:0:0:
256,192,341708,1,8,0:0:0:0:
256,192,341833,1,8,0:0:0:0:
256,192,341958,1,0,0:0:0:0:
256,192,342083,1,0,0:0:0:0:
256,192,342208,1,12,0:0:0:0:
256,192,342458,1,0,0:0:0:0:
256,192,342708,1,8,0:0:0:0:
256,192,342833,1,0,0:0:0:0:
256,192,343083,1,0,0:0:0:0:
256,192,343208,1,8,0:0:0:0:
256,192,343333,1,0,0:0:0:0:
256,192,343458,1,0,0:0:0:0:
256,192,343583,1,0,0:0:0:0:
256,192,343708,1,8,0:0:0:0:
256,192,343833,1,8,0:0:0:0:
256,192,344208,1,0,0:0:0:0:
256,192,344333,1,8,0:0:0:0:
256,192,344458,1,8,0:0:0:0:
256,192,344583,1,0,0:0:0:0:
256,192,344708,1,8,0:0:0:0:
256,192,344958,1,0,0:0:0:0:
256,192,345083,1,0,0:0:0:0:
256,192,345333,1,8,0:0:0:0:
256,192,345395,1,8,0:0:0:0:
256,192,345458,1,0,0:0:0:0:
256,192,345583,1,0,0:0:0:0:
256,192,345708,1,8,0:0:0:0:
256,192,345833,1,8,0:0:0:0:
256,192,345958,1,8,0:0:0:0:
256,192,346208,1,4,0:0:0:0:
256,192,346458,1,0,0:0:0:0:
256,192,346708,1,8,0:0:0:0:
256,192,346833,1,8,0:0:0:0:
256,192,347083,1,0,0:0:0:0:
256,192,347833,1,0,0:0:0:0:
256,192,347895,1,0,0:0:0:0:
256,192,347958,1,8,0:0:0:0:
256,192,348083,1,8,0:0:0:0:
256,192,348208,1,0,0:0:0:0:
256,192,348333,1,0,0:0:0:0:
256,192,348458,1,8,0:0:0:0:
256,192,348708,1,8,0:0:0:0:
256,192,348958,1,0,0:0:0:0:
256,192,349083,1,8,0:0:0:0:
256,192,349333,1,8,0:0:0:0:
256,192,349458,1,0,0:0:0:0:
256,192,349583,1,0,0:0:0:0:
256,192,349708,1,8,0:0:0:0:
256,192,349833,1,0,0:0:0:0:
256,192,349958,1,8,0:0:0:0:
256,192,350208,1,4,0:0:0:0:
256,192,350458,1,8,0:0:0:0:
256,192,350708,1,0,0:0:0:0:
256,192,350833,1,8,0:0:0:0:
256,192,350895,1,8,0:0:0:0:
256,192,350958,1,0,0:0:0:0:
256,192,351083,1,8,0:0:0:0:
256,192,351833,1,8,0:0:0:0:
256,192,352208,1,4,0:0:0:0:
256,192,352708,1,8,0:0:0:0:
256,192,352958,1,0,0:0:0:0:
256,192,353083,1,0,0:0:0:0:
256,192,353208,1,8,0:0:0:0:
256,192,353333,1,8,0:0:0:0:
256,192,353395,1,8,0:0:0:0:
256,192,353458,1,0,0:0:0:0:
256,192,353583,1,8,0:0:0:0:
256,192,353645,1,0,0:0:0:0:
256,192,353708,1,8,0:0:0:0:
256,192,353833,1,8,0:0:0:0:
256,192,353958,1,0,0:0:0:0:
256,192,354083,1,0,0:0:0:0:
256,192,354208,1,12,0:0:0:0:
256,192,354458,1,8,0:0:0:0:
256,192,354708,1,0,0:0:0:0:
256,192,354833,1,8,0:0:0:0:
256,192,355083,1,0,0:0:0:0:
256,192,355333,1,8,0:0:0:0:
256,192,355458,1,0,0:0:0:0:
256,192,355583,1,0,0:0:0:0:
256,192,355708,1,8,0:0:0:0:
256,192,355833,1,8,0:0:0:0:
256,192,356083,1,0,0:0:0:0:
256,192,356208,1,8,0:0:0:0:
256,192,356333,1,0,0:0:0:0:
256,192,356458,1,0,0:0:0:0:
256,192,356708,1,8,0:0:0:0:
256,192,356958,1,0,0:0:0:0:
256,192,357083,1,8,0:0:0:0:
256,192,357333,1,0,0:0:0:0:
256,192,357395,1,0,0:0:0:0:
256,192,357458,1,0,0:0:0:0:
256,192,357583,1,0,0:0:0:0:
256,192,357708,1,8,0:0:0:0:
256,192,357833,1,8,0:0:0:0:
256,192,357958,1,8,0:0:0:0:
256,192,358208,1,4,0:0:0:0:
256,192,358458,1,0,0:0:0:0:
256,192,358708,1,8,0:0:0:0:
256,192,358833,1,8,0:0:0:0:
256,192,359083,1,0,0:0:0:0:
256,192,359833,1,0,0:0:0:0:
256,192,359895,1,0,0:0:0:0:
256,192,359958,1,8,0:0:0:0:
256,192,360083,1,8,0:0:0:0:
288,224,360208,1,0,0:0:0:0:
256,192,360333,1,0,0:0:0:0:
256,192,360458,1,8,0:0:0:0:
256,192,360708,1,8,0:0:0:0:
256,192,360958,1,0,0:0:0:0:
256,192,361083,1,8,0:0:0:0:
256,192,361333,1,0,0:0:0:0:
256,192,361395,1,0,0:0:0:0:
256,192,361458,1,8,0:0:0:0:
256,192,361583,1,0,0:0:0:0:
256,192,361708,1,8,0:0:0:0:
256,192,361833,1,8,0:0:0:0:
256,192,361958,1,8,0:0:0:0:
256,192,362208,1,4,0:0:0:0:
256,192,362458,1,0,0:0:0:0:
256,192,362708,1,8,0:0:0:0:
256,192,362833,1,8,0:0:0:0:
256,192,362895,1,0,0:0:0:0:
256,192,362958,1,0,0:0:0:0:
256,192,363083,1,8,0:0:0:0:
256,192,363833,1,8,0:0:0:0:
256,192,364208,1,4,0:0:0:0:
256,192,364458,1,8,0:0:0:0:
256,192,364583,1,0,0:0:0:0:
256,192,364708,1,8,0:0:0:0:
256,192,364958,1,0,0:0:0:0:
256,192,365083,1,0,0:0:0:0:
256,192,365208,1,8,0:0:0:0:
256,192,365333,1,8,0:0:0:0:
256,192,365395,1,8,0:0:0:0:
256,192,365458,1,0,0:0:0:0:
256,192,365583,1,8,0:0:0:0:
256,192,365645,1,0,0:0:0:0:
256,192,365708,1,8,0:0:0:0:
256,192,365833,1,8,0:0:0:0:
256,192,365958,1,0,0:0:0:0:
256,192,366208,1,12,0:0:0:0:
256,192,366708,1,8,0:0:0:0:
256,192,366833,1,0,0:0:0:0:
256,192,367083,1,8,0:0:0:0:
256,192,367458,1,0,0:0:0:0:
256,192,367583,1,0,0:0:0:0:
256,192,367708,1,8,0:0:0:0:
256,192,367833,1,8,0:0:0:0:
256,192,368208,1,0,0:0:0:0:
256,192,368458,1,0,0:0:0:0:
256,192,368708,1,8,0:0:0:0:
256,192,368958,1,0,0:0:0:0:
256,192,369083,1,8,0:0:0:0:
256,192,369458,1,0,0:0:0:0:
256,192,369708,1,8,0:0:0:0:
256,192,369833,1,8,0:0:0:0:
256,192,369958,1,8,0:0:0:0:
256,192,370208,1,4,0:0:0:0:
256,192,370458,1,0,0:0:0:0:
256,192,370708,1,8,0:0:0:0:
256,192,370833,1,8,0:0:0:0:
256,192,371083,1,0,0:0:0:0:
256,192,371833,1,0,0:0:0:0:
256,192,371895,1,0,0:0:0:0:
256,192,371958,1,8,0:0:0:0:
256,192,372083,1,8,0:0:0:0:
256,192,372208,1,0,0:0:0:0:
256,192,372333,1,0,0:0:0:0:
256,192,372458,1,8,0:0:0:0:
256,192,372708,1,8,0:0:0:0:
256,192,372958,1,0,0:0:0:0:
256,192,373083,1,8,0:0:0:0:
256,192,373333,1,0,0:0:0:0:
256,192,373395,1,0,0:0:0:0:
256,192,373458,1,8,0:0:0:0:
256,192,373583,1,0,0:0:0:0:
256,192,373708,1,8,0:0:0:0:
256,192,373833,1,0,0:0:0:0:
256,192,373895,1,8,0:0:0:0:
256,192,373958,1,8,0:0:0:0:
256,192,374083,1,8,0:0:0:0:
256,192,374208,1,4,0:0:0:0:
256,192,374458,1,8,0:0:0:0:
256,192,374708,1,0,0:0:0:0:
256,192,374833,1,8,0:0:0:0:
256,192,374895,1,0,0:0:0:0:
256,192,374958,1,0,0:0:0:0:
256,192,375083,1,8,0:0:0:0:
256,192,375833,1,8,0:0:0:0:
256,192,376208,1,4,0:0:0:0:
256,192,376458,1,0,0:0:0:0:
256,192,376583,1,0,0:0:0:0:
256,192,376708,1,8,0:0:0:0:
256,192,376833,1,0,0:0:0:0:
256,192,377208,1,8,0:0:0:0:
256,192,377333,1,8,0:0:0:0:
256,192,377395,1,8,0:0:0:0:
256,192,377458,1,0,0:0:0:0:
256,192,377583,1,8,0:0:0:0:
256,192,377645,1,0,0:0:0:0:
256,192,377708,1,8,0:0:0:0:
256,192,377833,1,8,0:0:0:0:
256,192,377958,1,0,0:0:0:0:
256,192,378083,1,0,0:0:0:0:
256,192,378208,1,12,0:0:0:0:
256,192,378458,1,0,0:0:0:0:
256,192,378708,1,8,0:0:0:0:
256,192,378833,1,0,0:0:0:0:
256,192,379083,1,8,0:0:0:0:
256,192,379333,1,0,0:0:0:0:
256,192,379458,1,0,0:0:0:0:
256,192,379583,1,0,0:0:0:0:
256,192,379708,1,8,0:0:0:0:
256,192,379833,1,8,0:0:0:0:
256,192,380083,1,0,0:0:0:0:
256,192,380208,1,0,0:0:0:0:
256,192,380458,1,8,0:0:0:0:
256,192,380583,1,0,0:0:0:0:
256,192,380708,1,8,0:0:0:0:
256,192,380958,1,0,0:0:0:0:
256,192,381083,1,8,0:0:0:0:
256,192,381333,1,0,0:0:0:0:
256,192,381395,1,0,0:0:0:0:
256,192,381458,1,8,0:0:0:0:
256,192,381583,1,0,0:0:0:0:
256,192,381708,1,8,0:0:0:0:
256,192,381833,1,8,0:0:0:0:
256,192,381958,1,8,0:0:0:0:
256,192,382208,1,4,0:0:0:0:
256,192,382458,1,8,0:0:0:0:
256,192,382708,1,0,0:0:0:0:
256,192,382833,1,8,0:0:0:0:
256,192,383083,1,0,0:0:0:0:
256,192,383833,1,0,0:0:0:0:
256,192,383895,1,0,0:0:0:0:
256,192,383958,1,8,0:0:0:0:
256,192,384083,1,8,0:0:0:0:
256,192,384208,1,0,0:0:0:0:
256,192,384333,1,0,0:0:0:0:
256,192,384458,1,8,0:0:0:0:
256,192,384708,1,8,0:0:0:0:
256,192,384958,1,0,0:0:0:0:
256,192,385083,1,8,0:0:0:0:
256,192,385333,1,0,0:0:0:0:
256,192,385395,1,0,0:0:0:0:
256,192,385458,1,8,0:0:0:0:
256,192,385583,1,0,0:0:0:0:
256,192,385708,1,8,0:0:0:0:
256,192,385833,1,8,0:0:0:0:
256,192,385895,1,0,0:0:0:0:
256,192,385958,1,8,0:0:0:0:
256,192,386083,1,8,0:0:0:0:
256,192,386208,1,4,0:0:0:0:
256,192,386458,1,8,0:0:0:0:
256,192,386708,1,8,0:0:0:0:
256,192,386833,1,0,0:0:0:0:
256,192,386895,1,0,0:0:0:0:
256,192,386958,1,0,0:0:0:0:
256,192,387083,1,8,0:0:0:0:
256,192,387833,1,8,0:0:0:0:
256,192,388208,1,4,0:0:0:0:
256,192,388458,1,8,0:0:0:0:
256,192,388708,1,8,0:0:0:0:
256,192,388833,1,0,0:0:0:0:
256,192,388958,1,0,0:0:0:0:
256,192,389083,1,8,0:0:0:0:
256,192,389208,1,8,0:0:0:0:
256,192,389333,1,8,0:0:0:0:
256,192,389395,1,8,0:0:0:0:
256,192,389458,1,0,0:0:0:0:
256,192,389583,1,8,0:0:0:0:
256,192,389645,1,0,0:0:0:0:
256,192,389708,1,8,0:0:0:0:
256,192,389833,1,8,0:0:0:0:
256,192,390208,1,12,0:0:0:0:
256,192,390458,1,12,0:0:0:0:
256,192,390708,1,0,0:0:0:0:
256,192,391083,1,8,0:0:0:0:
256,192,391333,1,0,0:0:0:0:
256,192,391583,1,0,0:0:0:0:
256,192,391708,1,8,0:0:0:0:
256,192,391833,1,8,0:0:0:0:
256,192,392083,1,0,0:0:0:0:
256,192,392333,1,0,0:0:0:0:
256,192,392458,1,8,0:0:0:0:
256,192,392520,1,8,0:0:0:0:
256,192,392583,1,8,0:0:0:0:
256,192,392833,1,8,0:0:0:0:
256,192,392999,1,8,0:0:0:0:
256,192,393041,1,8,0:0:0:0:
256,192,393124,1,0,0:0:0:0:
256,192,393208,1,8,0:0:0:0:
256,192,393583,1,8,0:0:0:0:
256,192,393833,1,0,0:0:0:0:
256,192,393958,1,8,0:0:0:0:
256,192,394083,1,8,0:0:0:0:
256,192,394208,1,0,0:0:0:0:
256,192,394583,1,0,0:0:0:0:
256,192,394708,1,0,0:0:0:0:
256,192,395083,1,8,0:0:0:0:
256,192,395333,1,8,0:0:0:0:
256,192,395583,1,0,0:0:0:0:
256,192,395708,1,8,0:0:0:0:
256,192,395833,1,8,0:0:0:0:
256,192,395958,1,0,0:0:0:0:
256,192,396083,1,0,0:0:0:0:
256,192,396208,1,8,0:0:0:0:
256,192,396333,1,0,0:0:0:0:
256,192,396395,1,0,0:0:0:0:
256,192,396458,1,8,0:0:0:0:
256,192,396520,1,8,0:0:0:0:
256,192,396583,1,0,0:0:0:0:
256,192,396708,1,8,0:0:0:0:
256,192,396833,1,0,0:0:0:0:
256,192,396895,1,0,0:0:0:0:
256,192,396958,1,0,0:0:0:0:
256,192,397083,1,8,0:0:0:0:
256,192,397208,1,0,0:0:0:0:
256,192,397270,1,8,0:0:0:0:
256,192,397333,1,8,0:0:0:0:
256,192,397458,1,8,0:0:0:0:
256,192,397520,1,8,0:0:0:0:
256,192,397583,1,0,0:0:0:0:
256,192,397645,1,0,0:0:0:0:
256,192,397708,1,8,0:0:0:0:
256,192,397833,1,8,0:0:0:0:
256,192,397958,1,8,0:0:0:0:
256,192,398020,1,0,0:0:0:0:
256,192,398083,1,0,0:0:0:0:
256,192,398145,1,0,0:0:0:0:
256,192,398208,1,8,0:0:0:0:
256,192,398333,1,0,0:0:0:0:
256,192,398395,1,0,0:0:0:0:
256,192,398458,1,0,0:0:0:0:
256,192,398583,1,0,0:0:0:0:
256,192,398645,1,0,0:0:0:0:
256,192,398708,1,0,0:0:0:0:
256,192,398770,1,0,0:0:0:0:
256,192,398833,1,8,0:0:0:0:
256,192,398958,1,0,0:0:0:0:
256,192,399020,1,0,0:0:0:0:
256,192,399083,1,0,0:0:0:0:
256,192,399208,1,8,0:0:0:0:
256,192,399333,1,8,0:0:0:0:
256,192,399458,1,0,0:0:0:0:
256,192,399520,1,8,0:0:0:0:
256,192,399583,1,0,0:0:0:0:
256,192,399708,1,8,0:0:0:0:
256,160,399791,1,8,0:0:0:0:
256,160,399874,1,8,0:0:0:0:
256,224,399958,1,0,0:0:0:0:
256,160,400041,1,0,0:0:0:0:
256,160,400124,1,0,0:0:0:0:
256,192,400208,1,12,0:0:0:0:
256,192,400458,1,12,0:0:0:0:
256,192,401208,1,8,0:0:0:0:
256,192,401333,1,8,0:0:0:0:
256,192,401395,1,8,0:0:0:0:
256,192,401458,1,0,0:0:0:0:
256,192,401583,1,8,0:0:0:0:
256,192,401645,1,0,0:0:0:0:
256,192,401708,1,8,0:0:0:0:
256,192,401833,1,8,0:0:0:0:
256,192,401958,1,0,0:0:0:0:
256,192,402208,1,0,0:0:0:0:
128,256,402458,1,8,0:0:0:0:
256,192,402583,1,0,0:0:0:0:
256,192,402645,1,0,0:0:0:0:
256,192,402708,1,8,0:0:0:0:
256,192,402958,1,4,0:0:0:0:
256,192,403208,1,4,0:0:0:0:
256,192,403458,1,8,0:0:0:0:
256,192,403583,1,8,0:0:0:0:
256,192,403708,1,0,0:0:0:0:
256,192,403833,1,0,0:0:0:0:
256,192,403958,1,8,0:0:0:0:
256,192,404020,1,8,0:0:0:0:
256,192,404083,1,8,0:0:0:0:
256,192,404145,1,8,0:0:0:0:
256,192,404208,1,8,0:0:0:0:
256,192,404270,1,8,0:0:0:0:
256,192,404333,1,8,0:0:0:0:
256,192,404395,1,8,0:0:0:0:
256,192,404458,1,4,0:0:0:0:
256,192,404708,1,8,0:0:0:0:
256,192,404833,1,0,0:0:0:0:
256,192,405083,1,0,0:0:0:0:
256,192,405333,1,8,0:0:0:0:
256,192,405458,1,8,0:0:0:0:
256,192,405708,1,0,0:0:0:0:
256,192,405770,1,0,0:0:0:0:
256,192,405833,1,0,0:0:0:0:
256,192,405895,1,0,0:0:0:0:
256,192,405958,1,8,0:0:0:0:
256,192,406208,1,0,0:0:0:0:
256,192,406458,1,8,0:0:0:0:
256,192,406583,1,0,0:0:0:0:
256,192,406708,1,0,0:0:0:0:
256,192,406833,1,8,0:0:0:0:
256,192,406958,1,8,0:0:0:0:
256,192,407083,1,0,0:0:0:0:
256,192,407208,1,0,0:0:0:0:
256,192,407333,1,8,0:0:0:0:
256,192,407458,1,0,0:0:0:0:
256,192,407583,1,0,0:0:0:0:
256,192,407708,1,8,0:0:0:0:
256,192,407958,1,8,0:0:0:0:
256,192,408083,1,8,0:0:0:0:
256,192,408208,1,0,0:0:0:0:
256,192,408333,1,0,0:0:0:0:
256,192,408458,1,0,0:0:0:0:
256,192,408708,1,12,0:0:0:0:
256,192,408958,1,0,0:0:0:0:
256,192,409208,1,8,0:0:0:0:
256,192,409333,1,0,0:0:0:0:
256,192,409583,1,0,0:0:0:0:
256,192,409708,1,8,0:0:0:0:
256,192,409958,1,0,0:0:0:0:
256,192,410020,1,0,0:0:0:0:
256,192,410083,1,0,0:0:0:0:
256,192,410145,1,0,0:0:0:0:
256,192,410208,1,8,0:0:0:0:
256,192,410458,1,0,0:0:0:0:
256,192,410708,1,8,0:0:0:0:
256,192,410833,1,0,0:0:0:0:
256,192,410958,1,8,0:0:0:0:
256,192,411083,1,8,0:0:0:0:
256,192,411208,1,0,0:0:0:0:
256,192,411333,1,0,0:0:0:0:
256,192,411458,1,0,0:0:0:0:
256,192,411583,1,8,0:0:0:0:
256,192,411833,1,0,0:0:0:0:
256,192,411958,1,8,0:0:0:0:
256,192,412083,1,8,0:0:0:0:
256,192,412208,1,0,0:0:0:0:
256,192,412333,1,0,0:0:0:0:
256,192,412458,1,8,0:0:0:0:
256,192,412708,1,12,0:0:0:0:
256,192,412958,1,0,0:0:0:0:
256,192,413208,1,8,0:0:0:0:
256,192,413333,1,0,0:0:0:0:
256,192,413583,1,0,0:0:0:0:
256,192,413708,1,8,0:0:0:0:
256,192,413958,1,0,0:0:0:0:
256,192,414020,1,0,0:0:0:0:
256,192,414083,1,0,0:0:0:0:
256,192,414145,1,0,0:0:0:0:
256,192,414208,1,8,0:0:0:0:
256,192,414458,1,8,0:0:0:0:
256,192,414708,1,0,0:0:0:0:
256,192,414833,1,0,0:0:0:0:
256,192,414958,1,8,0:0:0:0:
256,192,415083,1,8,0:0:0:0:
256,192,415208,1,0,0:0:0:0:
256,192,415458,1,0,0:0:0:0:
256,192,415583,1,8,0:0:0:0:
256,192,415833,1,0,0:0:0:0:
256,192,415958,1,8,0:0:0:0:
256,192,416083,1,8,0:0:0:0:
256,192,416208,1,0,0:0:0:0:
256,192,416333,1,0,0:0:0:0:
256,192,416458,1,8,0:0:0:0:
256,192,416708,1,0,0:0:0:0:
256,192,416958,1,12,0:0:0:0:
256,192,417208,1,0,0:0:0:0:
256,192,417333,1,0,0:0:0:0:
256,192,417458,1,8,0:0:0:0:
256,192,417583,1,0,0:0:0:0:
256,192,417833,1,8,0:0:0:0:
256,192,417958,1,8,0:0:0:0:
256,192,418208,1,0,0:0:0:0:
256,192,418270,1,0,0:0:0:0:
256,192,418333,1,0,0:0:0:0:
256,192,418395,1,0,0:0:0:0:
256,192,418458,1,8,0:0:0:0:
256,192,418708,1,8,0:0:0:0:
256,192,418958,1,0,0:0:0:0:
256,192,419083,1,0,0:0:0:0:
256,192,419208,1,8,0:0:0:0:
256,192,419333,1,8,0:0:0:0:
256,192,419458,1,0,0:0:0:0:
256,192,419583,1,0,0:0:0:0:
256,192,419708,1,8,0:0:0:0:
256,192,419833,1,0,0:0:0:0:
256,192,419958,1,8,0:0:0:0:
256,192,420208,1,8,0:0:0:0:
256,192,420374,1,0,0:0:0:0:
256,192,420458,1,8,0:0:0:0:
256,192,420541,1,0,0:0:0:0:
256,192,420624,1,0,0:0:0:0:
256,192,420708,1,8,0:0:0:0:
256,192,420958,1,12,0:0:0:0:
256,192,421208,1,0,0:0:0:0:
256,192,421458,1,8,0:0:0:0:
256,192,421583,1,0,0:0:0:0:
256,192,421833,1,8,0:0:0:0:
256,192,421958,1,8,0:0:0:0:
256,192,422208,1,0,0:0:0:0:
256,192,422270,1,0,0:0:0:0:
256,192,422333,1,0,0:0:0:0:
256,192,422395,1,0,0:0:0:0:
256,192,422458,1,8,0:0:0:0:
256,192,422708,1,8,0:0:0:0:
256,192,422958,1,0,0:0:0:0:
256,192,423083,1,0,0:0:0:0:
256,192,423208,1,8,0:0:0:0:
256,192,423333,1,8,0:0:0:0:
256,192,423458,1,0,0:0:0:0:
256,192,423708,1,8,0:0:0:0:
256,192,423833,1,0,0:0:0:0:
256,192,424083,1,8,0:0:0:0:
256,192,424208,1,8,0:0:0:0:
256,192,424458,1,0,0:0:0:0:
256,192,424583,1,0,0:0:0:0:
256,192,424708,1,8,0:0:0:0:
256,192,424958,1,0,0:0:0:0:
256,192,425208,1,12,0:0:0:0:
256,192,425458,1,0,0:0:0:0:
256,192,425708,1,8,0:0:0:0:
256,192,425833,1,0,0:0:0:0:
256,192,426083,1,8,0:0:0:0:
256,192,426208,1,8,0:0:0:0:
256,192,426458,1,0,0:0:0:0:
256,192,426520,1,0,0:0:0:0:
256,192,426583,1,0,0:0:0:0:
256,192,426645,1,0,0:0:0:0:
256,192,426708,1,8,0:0:0:0:
256,192,426958,1,8,0:0:0:0:
256,192,427208,1,0,0:0:0:0:
256,192,427333,1,0,0:0:0:0:
256,192,427458,1,8,0:0:0:0:
256,192,427583,1,8,0:0:0:0:
256,192,427708,1,0,0:0:0:0:
256,192,427833,1,0,0:0:0:0:
256,192,427958,1,8,0:0:0:0:
256,192,428083,1,0,0:0:0:0:
256,192,428208,1,0,0:0:0:0:
256,192,428333,1,8,0:0:0:0:
256,192,428458,1,8,0:0:0:0:
256,192,428583,1,8,0:0:0:0:
256,192,428708,1,0,0:0:0:0:
256,192,428833,1,0,0:0:0:0:
256,192,428958,1,8,0:0:0:0:
256,192,429208,1,12,0:0:0:0:
256,192,429458,1,0,0:0:0:0:
192,320,429708,1,8,0:0:0:0:
256,192,429833,1,0,0:0:0:0:
256,192,430083,1,8,0:0:0:0:
256,192,430208,1,8,0:0:0:0:
256,192,430458,1,0,0:0:0:0:
256,192,430520,1,0,0:0:0:0:
256,192,430583,1,0,0:0:0:0:
256,192,430645,1,0,0:0:0:0:
256,192,430708,1,8,0:0:0:0:
256,192,430958,1,0,0:0:0:0:
256,192,431208,1,8,0:0:0:0:
256,192,431333,1,0,0:0:0:0:
256,192,431458,1,8,0:0:0:0:
256,192,431583,1,8,0:0:0:0:
256,192,431708,1,0,0:0:0:0:
256,192,431958,1,8,0:0:0:0:
256,192,432083,1,0,0:0:0:0:
256,192,432333,1,8,0:0:0:0:
256,192,432458,1,8,0:0:0:0:
256,192,432645,1,8,0:0:0:0:
256,192,432708,1,0,0:0:0:0:
256,192,432833,1,0,0:0:0:0:
256,192,432958,1,8,0:0:0:0:
256,192,433208,1,0,0:0:0:0:
256,192,433458,1,12,0:0:0:0:
256,192,433708,1,0,0:0:0:0:
256,192,433958,1,8,0:0:0:0:
256,192,434083,1,0,0:0:0:0:
256,192,434333,1,8,0:0:0:0:
256,192,434458,1,8,0:0:0:0:
256,192,434708,1,0,0:0:0:0:
256,192,434770,1,0,0:0:0:0:
256,192,434833,1,0,0:0:0:0:
256,192,434895,1,0,0:0:0:0:
256,192,434958,1,8,0:0:0:0:
256,192,435208,1,0,0:0:0:0:
256,192,435458,1,8,0:0:0:0:
256,192,435583,1,0,0:0:0:0:
256,192,435708,1,8,0:0:0:0:
256,192,435833,1,8,0:0:0:0:
256,192,435958,1,0,0:0:0:0:
256,192,436020,1,0,0:0:0:0:
256,192,436083,1,0,0:0:0:0:
256,192,436145,1,0,0:0:0:0:
256,192,436208,1,8,0:0:0:0:
256,192,436333,1,0,0:0:0:0:
256,192,436395,1,0,0:0:0:0:
256,192,436458,1,0,0:0:0:0:
256,192,436583,1,0,0:0:0:0:
256,192,436645,1,0,0:0:0:0:
256,192,436708,1,8,0:0:0:0:
256,192,436833,1,0,0:0:0:0:
256,192,436958,1,8,0:0:0:0:
256,192,437083,1,8,0:0:0:0:
256,192,437208,1,0,0:0:0:0:
256,192,437333,1,0,0:0:0:0:
256,192,437458,1,12,0:0:0:0:
256,192,437708,1,0,0:0:0:0:
256,192,438208,1,8,0:0:0:0:
256,192,438333,1,0,0:0:0:0:
299,62,438583,1,8,0:0:0:0:
251,205,438833,1,8,0:0:0:0:
256,192,438958,1,0,0:0:0:0:
256,192,439208,1,8,0:0:0:0:
256,192,439333,1,8,0:0:0:0:
256,192,439458,1,0,0:0:0:0:
256,192,439583,1,0,0:0:0:0:
256,192,439708,1,8,0:0:0:0:
256,192,439958,1,0,0:0:0:0:
256,192,440458,1,8,0:0:0:0:
256,192,440583,1,0,0:0:0:0:
256,192,440833,1,8,0:0:0:0:
256,192,441083,1,8,0:0:0:0:
256,192,441208,1,0,0:0:0:0:
256,192,441333,1,0,0:0:0:0:
256,192,441395,1,0,0:0:0:0:
256,192,441458,1,8,0:0:0:0:
256,192,441583,1,8,0:0:0:0:
256,192,441708,1,4,0:0:0:0:
256,192,441958,1,0,0:0:0:0:
256,192,442458,1,8,0:0:0:0:
256,192,442583,1,0,0:0:0:0:
256,192,442833,1,8,0:0:0:0:
256,192,443208,1,0,0:0:0:0:
256,192,443458,1,0,0:0:0:0:
256,192,443708,1,8,0:0:0:0:
256,192,443833,1,0,0:0:0:0:
256,192,443958,1,8,0:0:0:0:
256,192,444208,1,0,0:0:0:0:
256,192,444333,1,0,0:0:0:0:
256,192,444458,1,8,0:0:0:0:
256,192,444583,1,8,0:0:0:0:
256,192,444708,1,0,0:0:0:0:
256,192,444833,1,0,0:0:0:0:
256,192,444958,1,8,0:0:0:0:
256,192,445020,1,8,0:0:0:0:
256,192,445083,1,8,0:0:0:0:
256,192,445208,1,0,0:0:0:0:
256,192,445270,1,0,0:0:0:0:
256,192,445333,1,0,0:0:0:0:
256,192,445458,1,8,0:0:0:0:
256,192,445708,1,4,0:0:0:0:
256,192,445958,1,0,0:0:0:0:
256,192,446208,1,8,0:0:0:0:
256,192,446583,1,0,0:0:0:0:
256,192,446833,1,8,0:0:0:0:
256,192,447083,1,8,0:0:0:0:
256,192,447208,1,0,0:0:0:0:
256,192,447458,1,0,0:0:0:0:
256,192,447583,1,8,0:0:0:0:
256,192,447645,1,8,0:0:0:0:
256,192,447708,1,0,0:0:0:0:
256,192,447833,1,0,0:0:0:0:
256,192,447958,1,8,0:0:0:0:
256,192,448208,1,0,0:0:0:0:
256,192,448458,1,8,0:0:0:0:
256,192,448708,1,8,0:0:0:0:
256,192,448833,1,0,0:0:0:0:
256,192,449083,1,8,0:0:0:0:
256,192,449333,1,8,0:0:0:0:
256,192,449458,1,0,0:0:0:0:
256,192,449708,1,0,0:0:0:0:
256,192,449958,1,4,0:0:0:0:
256,192,450208,1,0,0:0:0:0:
256,192,450458,1,8,0:0:0:0:
256,192,450833,1,0,0:0:0:0:
256,192,450958,1,8,0:0:0:0:
256,192,451083,1,8,0:0:0:0:
256,192,451208,1,0,0:0:0:0:
256,192,451333,1,0,0:0:0:0:
256,192,451458,1,8,0:0:0:0:
256,192,451583,1,0,0:0:0:0:
256,192,451708,1,8,0:0:0:0:
256,192,451833,1,0,0:0:0:0:
256,192,451958,1,8,0:0:0:0:
256,192,452083,1,8,0:0:0:0:
256,192,452208,1,0,0:0:0:0:
256,192,452458,1,8,0:0:0:0:
256,192,452520,1,8,0:0:0:0:
256,192,452583,1,8,0:0:0:0:
256,192,452708,1,0,0:0:0:0:
256,192,452770,1,0,0:0:0:0:
256,192,452833,1,0,0:0:0:0:
256,192,452895,1,0,0:0:0:0:
256,192,452958,1,8,0:0:0:0:
256,192,453083,1,0,0:0:0:0:
256,192,453145,1,0,0:0:0:0:
256,192,453208,1,8,0:0:0:0:
256,192,453333,1,8,0:0:0:0:
256,192,453458,1,0,0:0:0:0:
256,192,453583,1,0,0:0:0:0:
256,192,453708,1,8,0:0:0:0:
256,192,453833,1,0,0:0:0:0:
256,192,453958,1,12,0:0:0:0:
256,192,454208,1,0,0:0:0:0:
256,192,454708,1,8,0:0:0:0:
256,192,454833,1,0,0:0:0:0:
256,192,455083,1,8,0:0:0:0:
256,192,455333,1,8,0:0:0:0:
256,192,455458,1,0,0:0:0:0:
256,192,455583,1,0,0:0:0:0:
256,192,455708,1,8,0:0:0:0:
256,192,455833,1,8,0:0:0:0:
256,192,455958,1,0,0:0:0:0:
256,192,456083,1,0,0:0:0:0:
256,192,456208,1,0,0:0:0:0:
256,192,456458,1,8,0:0:0:0:
256,192,456708,1,0,0:0:0:0:
256,192,456958,1,8,0:0:0:0:
256,192,457083,1,0,0:0:0:0:
256,192,457333,1,8,0:0:0:0:
256,192,457583,1,8,0:0:0:0:
256,192,457708,1,0,0:0:0:0:
256,192,457833,1,0,0:0:0:0:
256,192,457895,1,0,0:0:0:0:
256,192,457958,1,8,0:0:0:0:
256,192,458083,1,8,0:0:0:0:
256,192,458208,1,4,0:0:0:0:
256,192,458458,1,0,0:0:0:0:
256,192,458958,1,8,0:0:0:0:
256,192,459083,1,0,0:0:0:0:
256,192,459333,1,8,0:0:0:0:
256,192,459708,1,0,0:0:0:0:
256,192,459958,1,0,0:0:0:0:
256,192,460083,1,8,0:0:0:0:
256,192,460208,1,0,0:0:0:0:
256,192,460333,1,0,0:0:0:0:
256,192,460458,1,0,0:0:0:0:
256,192,460708,1,8,0:0:0:0:
256,192,460833,1,8,0:0:0:0:
256,192,460958,1,0,0:0:0:0:
256,192,461083,1,8,0:0:0:0:
256,192,461208,1,0,0:0:0:0:
256,192,461333,1,0,0:0:0:0:
256,192,461458,1,8,0:0:0:0:
256,192,461583,1,0,0:0:0:0:
256,192,461645,1,0,0:0:0:0:
256,192,461708,1,8,0:0:0:0:
256,192,461833,1,8,0:0:0:0:
256,192,461958,1,0,0:0:0:0:
256,192,462208,1,4,0:0:0:0:
256,192,462458,1,0,0:0:0:0:
256,192,462708,1,8,0:0:0:0:
256,192,462958,1,8,0:0:0:0:
256,192,463083,1,0,0:0:0:0:
256,192,463333,1,8,0:0:0:0:
256,192,463583,1,0,0:0:0:0:
256,192,463708,1,8,0:0:0:0:
256,192,463958,1,0,0:0:0:0:
256,192,464083,1,8,0:0:0:0:
256,192,464145,1,8,0:0:0:0:
256,192,464208,1,0,0:0:0:0:
256,192,464333,1,0,0:0:0:0:
256,192,464458,1,8,0:0:0:0:
256,192,464708,1,0,0:0:0:0:
256,192,464958,1,8,0:0:0:0:
256,192,465208,1,8,0:0:0:0:
256,192,465333,1,0,0:0:0:0:
256,192,465583,1,8,0:0:0:0:
256,192,465833,1,8,0:0:0:0:
256,192,465958,1,0,0:0:0:0:
256,192,466208,1,0,0:0:0:0:
256,192,466270,1,0,0:0:0:0:
256,192,466333,1,8,0:0:0:0:
256,192,466458,1,4,0:0:0:0:
256,192,466708,1,0,0:0:0:0:
256,192,466958,1,8,0:0:0:0:
256,192,467208,1,0,0:0:0:0:
256,192,467333,1,0,0:0:0:0:
256,192,467458,1,8,0:0:0:0:
256,192,467583,1,8,0:0:0:0:
256,192,467708,1,0,0:0:0:0:
256,192,467833,1,0,0:0:0:0:
256,192,467958,1,8,0:0:0:0:
256,192,468083,1,0,0:0:0:0:
256,192,468208,1,8,0:0:0:0:
256,192,468333,1,0,0:0:0:0:
256,192,468458,1,8,0:0:0:0:
256,192,468583,1,8,0:0:0:0:
256,192,468708,1,0,0:0:0:0:
256,192,468958,1,8,0:0:0:0:
256,192,469020,1,8,0:0:0:0:
256,192,469083,1,8,0:0:0:0:
256,192,469208,1,0,0:0:0:0:
256,192,469270,1,0,0:0:0:0:
256,192,469333,1,0,0:0:0:0:
256,192,469458,1,8,0:0:0:0:
256,192,469583,1,0,0:0:0:0:
256,192,469645,1,0,0:0:0:0:
256,192,469708,1,8,0:0:0:0:
256,192,469833,1,8,0:0:0:0:
256,192,469958,1,0,0:0:0:0:
256,192,470083,1,8,0:0:0:0:
256,192,470208,1,8,0:0:0:0:
256,192,470333,1,8,0:0:0:0:
256,192,470458,5,0,0:0:0:0:
256,192,470708,8,2,473958,0:0:0:0:
256,192,474458,5,2,0:0:0:0:
256,192,478458,1,2,0:0:0:0:
256,192,482458,1,2,0:0:0:0:
256,192,484458,1,0,0:0:0:0:
256,192,486458,1,2,0:0:0:0:
256,192,488458,1,0,0:0:0:0:
256,192,490458,1,2,0:0:0:0:
256,192,492458,1,0,0:0:0:0:
256,192,494458,1,2,0:0:0:0:
256,192,496458,1,2,0:0:0:0:
256,192,498458,1,0,0:0:0:0:
256,192,500458,1,2,0:0:0:0:
256,192,501458,1,2,0:0:0:0:
256,192,502458,1,0,0:0:0:0:
256,192,504458,1,2,0:0:0:0:
256,192,505458,1,0,0:0:0:0:
256,192,505958,1,0,0:0:0:0:
256,192,506458,1,2,0:0:0:0:
256,192,507458,1,2,0:0:0:0:
256,192,508458,1,0,0:0:0:0:
256,192,509458,1,0,0:0:0:0:
256,192,510458,1,2,0:0:0:0:
256,192,511458,1,2,0:0:0:0:
256,192,511958,1,0,0:0:0:0:
256,192,512458,1,0,0:0:0:0:
256,192,513458,1,0,0:0:0:0:
256,192,514458,1,2,0:0:0:0:
256,192,515458,1,2,0:0:0:0:
256,192,516458,1,0,0:0:0:0:
256,192,517458,1,2,0:0:0:0:
256,192,518458,1,2,0:0:0:0:
256,192,520458,1,2,0:0:0:0:
256,192,522458,1,0,0:0:0:0:
256,192,522958,1,0,0:0:0:0:
256,192,523458,1,0,0:0:0:0:
256,192,523958,1,0,0:0:0:0:
256,192,524458,1,0,0:0:0:0:
256,192,524958,1,0,0:0:0:0:
256,192,525458,1,0,0:0:0:0:
256,192,525708,1,0,0:0:0:0:
256,192,525958,1,2,0:0:0:0:
256,192,526208,1,0,0:0:0:0:
256,192,526458,1,2,0:0:0:0:
256,192,526708,1,2,0:0:0:0:
256,192,526958,1,2,0:0:0:0:
256,192,527208,1,2,0:0:0:0:
256,192,527458,1,2,0:0:0:0:
256,192,527708,1,2,0:0:0:0:
256,192,527958,1,2,0:0:0:0:
256,192,528208,1,2,0:0:0:0:
256,192,528458,1,4,0:0:0:0:
256,192,528708,1,2,0:0:0:0:
256,192,528833,1,0,0:0:0:0:
256,192,528958,1,2,0:0:0:0:
256,192,529208,1,0,0:0:0:0:
256,192,529333,1,0,0:0:0:0:
256,192,529458,1,2,0:0:0:0:
256,192,529583,1,0,0:0:0:0:
256,192,529708,1,0,0:0:0:0:
256,192,529833,1,0,0:0:0:0:
256,192,529958,1,2,0:0:0:0:
256,192,530083,1,2,0:0:0:0:
256,192,530208,1,2,0:0:0:0:
256,192,530333,1,2,0:0:0:0:
256,192,530458,1,4,0:0:0:0:
256,192,531458,1,2,0:0:0:0:
256,192,531958,1,2,0:0:0:0:
256,192,532208,1,0,0:0:0:0:
256,192,532458,1,2,0:0:0:0:
256,192,532958,1,2,0:0:0:0:
256,192,533208,1,0,0:0:0:0:
256,192,533458,1,2,0:0:0:0:
256,192,533708,1,2,0:0:0:0:
256,192,533958,1,0,0:0:0:0:
256,192,534208,1,0,0:0:0:0:
256,192,534458,1,2,0:0:0:0:
256,192,534958,1,0,0:0:0:0:
256,192,535208,1,0,0:0:0:0:
256,192,535458,1,2,0:0:0:0:
256,192,535958,1,8,0:0:0:0:
256,192,536208,1,0,0:0:0:0:
256,192,536458,1,2,0:0:0:0:
256,192,536958,1,0,0:0:0:0:
256,192,537208,1,0,0:0:0:0:
256,192,537458,1,2,0:0:0:0:
256,192,537708,1,2,0:0:0:0:
256,192,537958,1,0,0:0:0:0:
256,192,538208,1,0,0:0:0:0:
256,192,538458,1,2,0:0:0:0:
256,192,538958,1,0,0:0:0:0:
256,192,539208,1,0,0:0:0:0:
256,192,539458,1,2,0:0:0:0:
256,192,539958,1,8,0:0:0:0:
256,192,540208,1,0,0:0:0:0:
256,192,540458,1,2,0:0:0:0:
256,192,540958,1,2,0:0:0:0:
256,192,541458,1,2,0:0:0:0:
256,192,541708,1,0,0:0:0:0:
256,192,542208,1,0,0:0:0:0:
256,192,542458,1,2,0:0:0:0:
256,192,542958,1,0,0:0:0:0:
256,192,543208,1,0,0:0:0:0:
256,192,543458,1,2,0:0:0:0:
256,192,543958,1,0,0:0:0:0:
256,192,544208,1,0,0:0:0:0:
256,192,544458,1,0,0:0:0:0:
256,192,544708,1,2,0:0:0:0:
256,192,544958,1,0,0:0:0:0:
256,192,545458,1,2,0:0:0:0:
256,192,545708,1,2,0:0:0:0:
256,192,545958,1,0,0:0:0:0:
256,192,546208,1,0,0:0:0:0:
256,192,546458,1,2,0:0:0:0:
256,192,546958,1,0,0:0:0:0:
256,192,547208,1,0,0:0:0:0:
256,192,547458,1,2,0:0:0:0:
256,192,547958,1,2,0:0:0:0:
256,192,548208,1,0,0:0:0:0:
256,192,548458,1,2,0:0:0:0:
256,192,548958,1,0,0:0:0:0:
256,192,549208,1,0,0:0:0:0:
256,192,549458,1,2,0:0:0:0:
256,192,549520,1,2,0:0:0:0:
256,192,549708,1,0,0:0:0:0:
256,192,549958,1,2,0:0:0:0:
256,192,550208,1,0,0:0:0:0:
256,192,550458,1,2,0:0:0:0:
256,192,550958,1,0,0:0:0:0:
256,192,551208,1,0,0:0:0:0:
256,192,551458,1,2,0:0:0:0:
256,192,551958,1,2,0:0:0:0:
256,192,552208,1,0,0:0:0:0:
256,192,552458,1,2,0:0:0:0:
256,192,552958,1,0,0:0:0:0:
256,192,553208,1,0,0:0:0:0:
256,192,553458,1,2,0:0:0:0:
256,192,553708,1,2,0:0:0:0:
256,192,553791,1,2,0:0:0:0:
256,192,553874,1,2,0:0:0:0:
256,192,553958,1,0,0:0:0:0:
256,192,554208,1,0,0:0:0:0:
256,192,554458,1,2,0:0:0:0:
256,192,554958,1,2,0:0:0:0:
256,192,555208,1,0,0:0:0:0:
256,192,555458,1,2,0:0:0:0:
256,192,555958,1,2,0:0:0:0:
256,192,556208,1,2,0:0:0:0:
256,192,556458,1,0,0:0:0:0:
256,192,556958,1,0,0:0:0:0:
256,192,557458,1,2,0:0:0:0:
256,192,557708,1,0,0:0:0:0:
256,192,557958,1,0,0:0:0:0:
256,192,558458,1,2,0:0:0:0:
256,192,558958,1,0,0:0:0:0:
256,192,559208,1,0,0:0:0:0:
256,192,559458,1,2,0:0:0:0:
256,192,559958,1,0,0:0:0:0:
256,192,560208,1,0,0:0:0:0:
256,192,560458,1,2,0:0:0:0:
256,192,560541,1,2,0:0:0:0:
256,192,560624,1,2,0:0:0:0:
256,192,560791,1,0,0:0:0:0:
256,192,560958,1,2,0:0:0:0:
256,192,561124,1,0,0:0:0:0:
256,192,561291,1,0,0:0:0:0:
256,192,561458,1,2,0:0:0:0:
256,192,561624,1,0,0:0:0:0:
256,192,561791,1,2,0:0:0:0:
256,192,561958,1,0,0:0:0:0:
256,192,562124,1,2,0:0:0:0:
256,192,562291,1,0,0:0:0:0:
256,192,562458,5,12,0:0:0:0:
256,192,563458,1,8,0:0:0:0:
256,192,563624,1,0,0:0:0:0:
256,192,563791,1,0,0:0:0:0:
256,192,563958,1,8,0:0:0:0:
256,192,564124,1,8,0:0:0:0:
256,192,564291,1,0,0:0:0:0:
256,192,564458,1,8,0:0:0:0:
256,192,564583,1,8,0:0:0:0:
256,192,564708,1,0,0:0:0:0:
256,192,564958,1,8,0:0:0:0:
256,192,565208,1,0,0:0:0:0:
256,192,565458,1,0,0:0:0:0:
256,192,565708,1,0,0:0:0:0:
256,192,565958,1,8,0:0:0:0:
256,192,566208,1,0,0:0:0:0:
256,192,566458,1,8,0:0:0:0:
256,192,566708,1,8,0:0:0:0:
256,192,566958,1,0,0:0:0:0:
256,192,567208,1,0,0:0:0:0:
256,192,567458,1,8,0:0:0:0:
256,192,567708,1,0,0:0:0:0:
256,192,567833,1,0,0:0:0:0:
256,192,567958,1,8,0:0:0:0:
256,192,568208,1,8,0:0:0:0:
256,192,568458,1,8,0:0:0:0:
256,192,568708,1,8,0:0:0:0:
256,192,568958,1,0,0:0:0:0:
256,192,569208,1,0,0:0:0:0:
256,192,569458,1,8,0:0:0:0:
256,192,569624,1,0,0:0:0:0:
256,192,569791,1,0,0:0:0:0:
256,192,569958,1,8,0:0:0:0:
256,192,570124,1,8,0:0:0:0:
256,192,570291,1,0,0:0:0:0:
256,192,570458,1,8,0:0:0:0:
256,192,570708,1,0,0:0:0:0:
256,192,570958,1,8,0:0:0:0:
256,192,571208,1,0,0:0:0:0:
256,192,571458,1,8,0:0:0:0:
256,192,571708,1,8,0:0:0:0:
256,192,571958,1,8,0:0:0:0:
256,192,572208,1,0,0:0:0:0:
256,192,572458,1,8,0:0:0:0:
256,192,572708,1,0,0:0:0:0:
256,192,572958,1,8,0:0:0:0:
256,192,573208,1,0,0:0:0:0:
256,192,573458,1,8,0:0:0:0:
256,192,573708,1,8,0:0:0:0:
256,192,573958,1,0,0:0:0:0:
256,192,574208,1,8,0:0:0:0:
256,192,574458,1,0,0:0:0:0:
256,192,574708,1,0,0:0:0:0:
256,192,574958,1,8,0:0:0:0:
256,192,575208,1,0,0:0:0:0:
256,192,575458,1,8,0:0:0:0:
256,192,575708,1,8,0:0:0:0:
256,192,575958,1,0,0:0:0:0:
256,192,576208,1,8,0:0:0:0:
256,192,576458,1,0,0:0:0:0:
256,192,576708,1,8,0:0:0:0:
256,192,576958,1,0,0:0:0:0:
256,192,577208,1,0,0:0:0:0:
256,192,577458,1,8,0:0:0:0:
256,192,577708,1,0,0:0:0:0:
256,192,577958,1,8,0:0:0:0:
256,192,578208,1,0,0:0:0:0:
256,192,578458,1,8,0:0:0:0:
256,192,578708,1,0,0:0:0:0:
256,192,578958,1,8,0:0:0:0:
256,192,579208,1,8,0:0:0:0:
256,192,579458,1,8,0:0:0:0:
256,192,579708,1,0,0:0:0:0:
256,192,579958,1,8,0:0:0:0:
256,192,580208,1,8,0:0:0:0:
256,192,580458,1,0,0:0:0:0:
256,192,580708,1,8,0:0:0:0:
256,192,580958,1,0,0:0:0:0:
256,192,581208,1,0,0:0:0:0:
256,192,581458,1,8,0:0:0:0:
256,192,581520,1,8,0:0:0:0:
256,192,581708,1,8,0:0:0:0:
256,192,581958,1,0,0:0:0:0:
256,192,582208,1,0,0:0:0:0:
256,192,582458,1,8,0:0:0:0:
256,192,582708,1,0,0:0:0:0:
256,192,582958,1,8,0:0:0:0:
256,192,583208,1,0,0:0:0:0:
256,192,583458,1,8,0:0:0:0:
256,192,583708,1,8,0:0:0:0:
256,192,583958,1,8,0:0:0:0:
256,192,584208,1,0,0:0:0:0:
256,192,584458,1,8,0:0:0:0:
256,192,584708,1,0,0:0:0:0:
256,192,584958,1,8,0:0:0:0:
256,192,585208,1,0,0:0:0:0:
256,192,585458,1,0,0:0:0:0:
256,192,585708,1,8,0:0:0:0:
256,192,585874,1,8,0:0:0:0:
256,192,585958,1,0,0:0:0:0:
256,192,586458,1,8,0:0:0:0:
256,192,586708,1,0,0:0:0:0:
256,192,586958,1,8,0:0:0:0:
256,192,587208,1,0,0:0:0:0:
256,192,587458,1,8,0:0:0:0:
256,192,587708,1,8,0:0:0:0:
256,192,587958,1,0,0:0:0:0:
256,192,588208,1,0,0:0:0:0:
256,192,588458,1,8,0:0:0:0:
256,192,588708,1,0,0:0:0:0:
256,192,588958,1,8,0:0:0:0:
256,192,589208,1,0,0:0:0:0:
256,192,589458,1,8,0:0:0:0:
256,192,589708,1,8,0:0:0:0:
256,192,589958,1,8,0:0:0:0:
256,192,590208,1,0,0:0:0:0:
256,192,590458,1,8,0:0:0:0:
256,192,590708,1,0,0:0:0:0:
256,192,590958,1,8,0:0:0:0:
256,192,591208,1,8,0:0:0:0:
256,192,591458,1,0,0:0:0:0:
256,192,591708,1,0,0:0:0:0:
256,192,591958,1,8,0:0:0:0:
256,192,592208,1,0,0:0:0:0:
256,192,592458,1,8,0:0:0:0:
256,192,592624,1,0,0:0:0:0:
256,192,592791,1,0,0:0:0:0:
256,192,592958,1,8,0:0:0:0:
256,192,593124,1,8,0:0:0:0:
256,192,593291,1,0,0:0:0:0:
256,192,593458,1,8,0:0:0:0:
256,192,593583,1,0,0:0:0:0:
256,192,593708,1,8,0:0:0:0:
256,192,593833,1,0,0:0:0:0:
256,192,593958,1,8,0:0:0:0:
256,192,594083,1,0,0:0:0:0:
256,192,594208,1,8,0:0:0:0:
256,192,594333,1,0,0:0:0:0:
256,192,594458,1,12,0:0:0:0:
256,192,596172,2,0,L|544:192,1,279.000011555263
256,192,597029,1,8,0:0:0:0:
256,192,597100,1,8,0:0:0:0:
256,192,597171,1,8,0:0:0:0:
256,192,597243,1,8,0:0:0:0:
256,192,597314,1,8,0:0:0:0:
256,192,597386,1,8,0:0:0:0:
256,192,597457,1,0,0:0:0:0:
256,192,597529,1,0,0:0:0:0:
256,192,597600,1,0,0:0:0:0:
256,192,597671,1,0,0:0:0:0:
256,192,597743,1,0,0:0:0:0:
256,192,597814,1,0,0:0:0:0:
256,192,597886,1,8,0:0:0:0:
256,192,598029,1,8,0:0:0:0:
256,192,598100,1,0,0:0:0:0:
256,192,598171,1,0,0:0:0:0:
256,192,598314,1,12,0:0:0:0:
256,192,598743,1,4,0:0:0:0:
256,192,598885,1,8,0:0:0:0:
256,192,598957,1,0,0:0:0:0:
256,192,599028,1,8,0:0:0:0:
256,192,599171,1,8,0:0:0:0:
256,192,599314,1,8,0:0:0:0:
256,192,599457,1,0,0:0:0:0:
256,192,599600,1,8,0:0:0:0:
256,192,599743,1,0,0:0:0:0:
256,192,599814,1,0,0:0:0:0:
256,192,599885,1,0,0:0:0:0:
256,192,600028,1,8,0:0:0:0:
256,192,600171,1,0,0:0:0:0:
256,192,600314,1,0,0:0:0:0:
256,192,600457,1,8,0:0:0:0:
256,192,600600,1,0,0:0:0:0:
256,192,600671,1,0,0:0:0:0:
256,192,600743,1,0,0:0:0:0:
256,192,600885,1,8,0:0:0:0:
256,192,601028,1,0,0:0:0:0:
256,192,601100,1,0,0:0:0:0:
256,192,601171,1,8,0:0:0:0:
256,192,601314,1,8,0:0:0:0:
256,192,601457,1,0,0:0:0:0:
256,192,601528,1,0,0:0:0:0:
256,192,601600,1,0,0:0:0:0:
256,192,601743,1,8,0:0:0:0:
256,192,601814,1,0,0:0:0:0:
256,192,601885,1,8,0:0:0:0:
256,192,602028,1,0,0:0:0:0:
256,192,602171,1,12,0:0:0:0:
256,192,602314,1,0,0:0:0:0:
256,192,602457,1,8,0:0:0:0:
256,192,602528,1,0,0:0:0:0:
256,192,602600,1,8,0:0:0:0:
256,192,602743,1,0,0:0:0:0:
256,192,602885,1,0,0:0:0:0:
256,192,603028,1,8,0:0:0:0:
256,192,603171,1,8,0:0:0:0:
256,192,603243,1,8,0:0:0:0:
256,192,603314,1,0,0:0:0:0:
256,192,603457,1,12,0:0:0:0:
256,192,603599,1,0,0:0:0:0:
256,192,603671,1,0,0:0:0:0:
256,192,603742,1,0,0:0:0:0:
256,192,603885,1,8,0:0:0:0:
256,192,604028,1,8,0:0:0:0:
256,192,604171,1,0,0:0:0:0:
256,192,604314,1,8,0:0:0:0:
256,192,604385,1,8,0:0:0:0:
256,192,604457,1,0,0:0:0:0:
256,192,604599,1,8,0:0:0:0:
256,192,604742,1,8,0:0:0:0:
256,192,604885,1,0,0:0:0:0:
256,192,604957,1,0,0:0:0:0:
256,192,605028,1,0,0:0:0:0:
256,192,605171,1,12,0:0:0:0:
256,192,605314,1,0,0:0:0:0:
256,192,605385,1,0,0:0:0:0:
256,192,605457,1,8,0:0:0:0:
256,192,605599,1,8,0:0:0:0:
256,192,605742,1,0,0:0:0:0:
256,192,605885,1,0,0:0:0:0:
256,192,606028,1,12,0:0:0:0:
256,192,606171,1,0,0:0:0:0:
256,192,606242,1,0,0:0:0:0:
256,192,606314,1,0,0:0:0:0:
256,192,606457,1,8,0:0:0:0:
256,192,606599,1,8,0:0:0:0:
256,192,606742,1,0,0:0:0:0:
256,192,606885,1,12,0:0:0:0:
256,192,607028,1,0,0:0:0:0:
256,192,607099,1,0,0:0:0:0:
256,192,607171,1,0,0:0:0:0:
256,192,607314,1,8,0:0:0:0:
256,192,607457,1,0,0:0:0:0:
256,192,607528,1,0,0:0:0:0:
256,192,607599,1,8,0:0:0:0:
256,192,607742,1,8,0:0:0:0:
256,192,607885,1,0,0:0:0:0:
256,192,607957,1,0,0:0:0:0:
256,192,608028,1,0,0:0:0:0:
256,192,608171,1,8,0:0:0:0:
256,192,608314,1,0,0:0:0:0:
256,192,608385,1,0,0:0:0:0:
256,192,608457,1,8,0:0:0:0:
256,192,608599,1,12,0:0:0:0:
256,192,608741,1,0,0:0:0:0:
256,192,608813,1,0,0:0:0:0:
256,192,608884,1,8,0:0:0:0:
256,192,609027,1,8,0:0:0:0:
256,192,609170,1,0,0:0:0:0:
256,192,609241,1,0,0:0:0:0:
256,192,609313,1,0,0:0:0:0:
256,192,609456,1,8,0:0:0:0:
256,192,609599,1,0,0:0:0:0:
256,192,609741,1,0,0:0:0:0:
256,192,609884,1,8,0:0:0:0:
256,192,609956,1,8,0:0:0:0:
256,192,610027,1,0,0:0:0:0:
256,192,610099,1,0,0:0:0:0:
256,192,610170,1,8,0:0:0:0:
256,192,610313,1,8,0:0:0:0:
256,192,610456,1,0,0:0:0:0:
256,192,610599,1,0,0:0:0:0:
256,192,610741,1,8,0:0:0:0:
256,192,610812,1,8,0:0:0:0:
256,192,610883,1,8,0:0:0:0:
256,192,610955,1,8,0:0:0:0:
256,192,611026,1,8,0:0:0:0:
256,192,611098,1,8,0:0:0:0:
256,192,611169,1,0,0:0:0:0:
256,192,611241,1,0,0:0:0:0:
256,192,611312,1,0,0:0:0:0:
256,192,611383,1,0,0:0:0:0:
256,192,611455,1,0,0:0:0:0:
256,192,611526,1,0,0:0:0:0:
256,192,611598,1,8,0:0:0:0:
256,192,611669,1,8,0:0:0:0:
256,192,611741,1,8,0:0:0:0:
256,192,611812,1,0,0:0:0:0:
256,192,611883,1,0,0:0:0:0:
256,192,611955,1,0,0:0:0:0:
256,192,612026,1,8,0:0:0:0:
256,192,612169,1,8,0:0:0:0:
256,192,612312,1,0,0:0:0:0:
256,192,612455,1,12,0:0:0:0:
256,192,613026,1,0,0:0:0:0:
256,192,613312,1,0,0:0:0:0:
256,192,613883,1,0,0:0:0:0:
256,192,614169,1,8,0:0:0:0:
256,192,614598,1,8,0:0:0:0:
256,192,614741,1,0,0:0:0:0:
256,192,615026,1,8,0:0:0:0:
256,192,615455,1,0,0:0:0:0:
256,192,615598,1,8,0:0:0:0:
256,192,615883,1,8,0:0:0:0:
256,192,615955,1,8,0:0:0:0:
256,192,616026,1,8,0:0:0:0:
256,192,616169,1,0,0:0:0:0:
256,192,616312,1,8,0:0:0:0:
256,192,616455,1,0,0:0:0:0:
256,192,616526,1,0,0:0:0:0:
256,192,616598,1,0,0:0:0:0:
256,192,616669,1,0,0:0:0:0:
256,192,616741,1,8,0:0:0:0:
256,192,617171,1,8,0:0:0:0:
256,192,617456,1,0,0:0:0:0:
256,192,617599,1,8,0:0:0:0:
256,192,618028,1,8,0:0:0:0:
256,192,618313,1,8,0:0:0:0:
256,192,618456,1,0,0:0:0:0:
256,192,618885,1,8,0:0:0:0:
256,192,619313,1,0,0:0:0:0:
256,192,619456,1,0,0:0:0:0:
256,192,619599,1,0,0:0:0:0:
256,192,619742,1,8,0:0:0:0:
256,192,619885,1,0,0:0:0:0:
256,192,620171,1,0,0:0:0:0:
256,192,620313,1,8,0:0:0:0:
256,192,620599,1,0,0:0:0:0:
256,192,620670,1,0,0:0:0:0:
256,192,620741,1,0,0:0:0:0:
256,192,620884,1,0,0:0:0:0:
256,192,621027,1,8,0:0:0:0:
256,192,621170,1,0,0:0:0:0:
256,192,621241,1,8,0:0:0:0:
256,192,621313,1,8,0:0:0:0:
256,192,621384,1,8,0:0:0:0:
256,192,621456,1,0,0:0:0:0:
256,192,621527,1,0,0:0:0:0:
256,192,621599,1,0,0:0:0:0:
256,192,621670,1,8,0:0:0:0:
256,192,621741,1,8,0:0:0:0:
256,192,621813,1,8,0:0:0:0:
256,192,621884,1,0,0:0:0:0:
256,192,622027,1,0,0:0:0:0:
256,192,622099,1,0,0:0:0:0:
256,192,622170,1,0,0:0:0:0:
256,192,622313,1,8,0:0:0:0:
256,192,622384,1,8,0:0:0:0:
256,192,622456,1,0,0:0:0:0:
256,192,622599,1,0,0:0:0:0:
256,192,622743,1,12,0:0:0:0:
256,192,623028,1,0,0:0:0:0:
256,192,623171,1,8,0:0:0:0:
256,192,623243,1,8,0:0:0:0:
256,192,623457,1,0,0:0:0:0:
256,192,623600,1,8,0:0:0:0:
256,192,623671,1,8,0:0:0:0:
256,192,623885,1,0,0:0:0:0:
256,192,624028,1,8,0:0:0:0:
256,192,624100,1,8,0:0:0:0:
256,192,624314,1,0,0:0:0:0:
256,192,624457,1,8,0:0:0:0:
256,192,624528,1,8,0:0:0:0:
256,192,624600,1,8,0:0:0:0:
256,192,624671,1,8,0:0:0:0:
256,192,624743,1,8,0:0:0:0:
256,192,624814,1,8,0:0:0:0:
256,192,624885,1,0,0:0:0:0:
256,192,624957,1,0,0:0:0:0:
256,192,625028,1,0,0:0:0:0:
256,192,625100,1,0,0:0:0:0:
256,192,625171,1,0,0:0:0:0:
256,192,625243,1,0,0:0:0:0:
256,192,625314,1,8,0:0:0:0:
256,192,625457,1,0,0:0:0:0:
256,192,625528,1,8,0:0:0:0:
256,192,625600,1,8,0:0:0:0:
256,192,625743,1,4,0:0:0:0:
256,192,626171,1,12,0:0:0:0:
256,192,626456,1,0,0:0:0:0:
256,192,626599,1,0,0:0:0:0:
256,192,626885,1,0,0:0:0:0:
256,192,627028,1,8,0:0:0:0:
256,192,627313,1,8,0:0:0:0:
256,192,627456,1,0,0:0:0:0:
256,192,627742,1,0,0:0:0:0:
256,192,627885,1,8,0:0:0:0:
256,192,628171,1,0,0:0:0:0:
256,192,628313,1,0,0:0:0:0:
256,192,628599,1,0,0:0:0:0:
256,192,628742,1,8,0:0:0:0:
256,192,629028,1,8,0:0:0:0:
256,192,629171,1,8,0:0:0:0:
256,192,629314,1,12,0:0:0:0:
256,192,629599,1,0,0:0:0:0:
256,192,629742,1,0,0:0:0:0:
256,192,630028,1,0,0:0:0:0:
256,192,630171,1,8,0:0:0:0:
256,192,630456,1,8,0:0:0:0:
256,192,630599,1,0,0:0:0:0:
256,192,630885,1,0,0:0:0:0:
256,192,630956,1,0,0:0:0:0:
256,192,631028,1,0,0:0:0:0:
256,192,631171,1,8,0:0:0:0:
256,192,631314,1,12,0:0:0:0:
256,192,631456,1,0,0:0:0:0:
256,192,631742,1,0,0:0:0:0:
256,192,631885,1,0,0:0:0:0:
256,192,631956,1,0,0:0:0:0:
256,192,632028,1,0,0:0:0:0:
256,192,632171,1,0,0:0:0:0:
256,192,632314,1,0,0:0:0:0:
256,192,632385,1,0,0:0:0:0:
256,192,632456,1,0,0:0:0:0:
256,192,632599,1,0,0:0:0:0:
256,192,632742,1,0,0:0:0:0:
256,192,632814,1,0,0:0:0:0:
256,192,632885,1,0,0:0:0:0:
256,192,633027,1,0,0:0:0:0:
256,192,633170,1,0,0:0:0:0:
256,192,633242,1,0,0:0:0:0:
256,192,633314,1,0,0:0:0:0:
256,192,633456,1,0,0:0:0:0:
256,192,633599,1,0,0:0:0:0:
256,192,633671,1,0,0:0:0:0:
256,192,633742,1,0,0:0:0:0:
256,192,633884,1,8,0:0:0:0:
256,192,634027,1,0,0:0:0:0:
256,192,634171,1,8,0:0:0:0:
256,192,634314,1,8,0:0:0:0:
256,192,634599,1,8,0:0:0:0:
256,192,634742,1,12,0:0:0:0:
256,192,635027,1,0,0:0:0:0:
256,192,635170,1,0,0:0:0:0:
256,192,635456,1,0,0:0:0:0:
256,192,635599,1,8,0:0:0:0:
256,192,635884,1,8,0:0:0:0:
256,192,636027,1,0,0:0:0:0:
256,192,636313,1,8,0:0:0:0:
256,192,636456,1,8,0:0:0:0:
256,192,636599,1,0,0:0:0:0:
256,192,636742,1,8,0:0:0:0:
256,192,636884,1,8,0:0:0:0:
256,192,637170,1,0,0:0:0:0:
256,192,637313,1,8,0:0:0:0:
256,192,637384,1,8,0:0:0:0:
256,192,637456,1,0,0:0:0:0:
256,192,637599,1,8,0:0:0:0:
256,192,637742,1,0,0:0:0:0:
256,192,637813,1,0,0:0:0:0:
256,192,637884,1,0,0:0:0:0:
256,192,638027,1,8,0:0:0:0:
256,192,638170,1,0,0:0:0:0:
256,192,638242,1,8,0:0:0:0:
256,192,638313,1,0,0:0:0:0:
256,192,638456,1,8,0:0:0:0:
256,192,638527,1,0,0:0:0:0:
256,192,638599,1,8,0:0:0:0:
256,192,638670,1,8,0:0:0:0:
256,192,638742,1,0,0:0:0:0:
256,192,638813,1,8,0:0:0:0:
256,192,638884,1,0,0:0:0:0:
256,192,638956,1,0,0:0:0:0:
256,192,639027,1,8,0:0:0:0:
256,192,639099,1,8,0:0:0:0:
256,192,639170,1,8,0:0:0:0:
256,192,639242,1,0,0:0:0:0:
256,192,639313,1,0,0:0:0:0:
256,192,639384,1,0,0:0:0:0:
256,192,639456,1,8,0:0:0:0:
256,192,639527,1,8,0:0:0:0:
256,192,639599,1,0,0:0:0:0:
256,192,639670,1,8,0:0:0:0:
256,192,639742,1,0,0:0:0:0:
256,192,639813,1,0,0:0:0:0:
256,192,639884,1,8,0:0:0:0:
256,192,640027,1,0,0:0:0:0:
256,192,640099,1,8,0:0:0:0:
256,192,640170,1,8,0:0:0:0:
256,192,640313,1,0,0:0:0:0:
256,192,640384,1,8,0:0:0:0:
256,192,640456,1,0,0:0:0:0:
256,192,640527,1,8,0:0:0:0:
256,192,640599,1,0,0:0:0:0:
256,192,640742,1,8,0:0:0:0:
256,192,640884,1,0,0:0:0:0:
256,192,640956,1,8,0:0:0:0:
256,192,641027,1,8,0:0:0:0:
256,192,641171,1,4,0:0:0:0:
256,192,641599,1,0,0:0:0:0:
256,192,641813,1,0,0:0:0:0:
256,192,642028,1,8,0:0:0:0:
256,192,642135,1,8,0:0:0:0:
256,192,642242,1,0,0:0:0:0:
256,192,642349,1,0,0:0:0:0:
256,192,642456,1,8,0:0:0:0:
256,192,642563,1,8,0:0:0:0:
256,192,642670,1,0,0:0:0:0:
256,192,642778,1,0,0:0:0:0:
256,192,643099,1,8,0:0:0:0:
256,192,643206,1,8,0:0:0:0:
256,192,643313,1,0,0:0:0:0:
256,192,643420,1,8,0:0:0:0:
256,192,643527,1,0,0:0:0:0:
256,192,643634,1,0,0:0:0:0:
256,192,643741,1,8,0:0:0:0:
256,192,643849,1,8,0:0:0:0:
256,192,644171,12,0,645243,0:0:0:0:
256,192,645456,5,8,0:0:0:0:
256,192,645563,1,8,0:0:0:0:
256,192,645885,1,8,0:0:0:0:
256,192,645992,1,8,0:0:0:0:
256,192,646099,1,0,0:0:0:0:
256,192,646206,1,0,0:0:0:0:
256,192,646313,1,8,0:0:0:0:
256,192,646420,1,8,0:0:0:0:
256,192,646527,1,0,0:0:0:0:
256,192,646635,1,0,0:0:0:0:
256,192,646742,1,8,0:0:0:0:
256,192,646956,1,8,0:0:0:0:
256,192,647063,1,8,0:0:0:0:
256,192,647170,1,0,0:0:0:0:
256,192,647277,1,0,0:0:0:0:
256,192,647384,1,8,0:0:0:0:
256,192,647491,1,0,0:0:0:0:
256,192,647598,1,8,0:0:0:0:
256,192,647706,1,8,0:0:0:0:
256,192,648028,1,8,0:0:0:0:
256,192,648135,1,8,0:0:0:0:
256,192,648349,1,0,0:0:0:0:
256,192,648456,1,8,0:0:0:0:
256,192,648670,1,8,0:0:0:0:
256,192,648778,1,8,0:0:0:0:
256,192,648992,1,0,0:0:0:0:
256,192,649099,1,0,0:0:0:0:
256,192,649206,1,8,0:0:0:0:
256,192,649314,1,8,0:0:0:0:
256,192,649421,1,0,0:0:0:0:
256,192,649635,1,8,0:0:0:0:
256,192,649742,1,8,0:0:0:0:
256,192,649849,1,0,0:0:0:0:
256,192,649903,1,0,0:0:0:0:
256,192,649956,1,0,0:0:0:0:
256,192,650064,1,8,0:0:0:0:
256,192,650171,1,8,0:0:0:0:
256,192,650385,1,0,0:0:0:0:
256,192,650492,1,0,0:0:0:0:
256,192,650599,1,8,0:0:0:0:
256,192,650706,1,8,0:0:0:0:
256,192,651028,1,12,0:0:0:0:
256,192,651242,1,0,0:0:0:0:
256,192,651349,1,8,0:0:0:0:
256,192,651456,1,0,0:0:0:0:
256,192,651564,1,0,0:0:0:0:
256,192,651671,1,8,0:0:0:0:
256,192,651778,1,8,0:0:0:0:
256,192,651885,1,0,0:0:0:0:
256,192,651992,1,8,0:0:0:0:
256,192,652099,1,0,0:0:0:0:
256,192,652206,1,0,0:0:0:0:
256,192,652314,1,8,0:0:0:0:
256,192,652421,1,8,0:0:0:0:
256,192,652528,1,8,0:0:0:0:
256,192,652635,1,0,0:0:0:0:
256,192,652742,1,8,0:0:0:0:
256,192,652849,1,8,0:0:0:0:
256,192,652956,1,0,0:0:0:0:
256,192,653063,1,0,0:0:0:0:
256,192,653170,1,8,0:0:0:0:
256,192,653277,1,8,0:0:0:0:
256,192,653384,1,0,0:0:0:0:
256,192,653492,1,0,0:0:0:0:
256,192,653599,1,8,0:0:0:0:
256,192,653814,1,8,0:0:0:0:
256,192,653921,1,8,0:0:0:0:
256,192,654028,1,0,0:0:0:0:
256,192,654135,1,0,0:0:0:0:
256,192,654242,1,8,0:0:0:0:
256,192,654349,1,0,0:0:0:0:
256,192,654456,1,8,0:0:0:0:
256,192,654564,1,8,0:0:0:0:
256,192,654885,1,8,0:0:0:0:
256,192,654992,1,8,0:0:0:0:
256,192,655206,1,0,0:0:0:0:
256,192,655313,1,0,0:0:0:0:
256,192,655527,1,8,0:0:0:0:
256,192,655635,1,8,0:0:0:0:
256,192,656063,1,0,0:0:0:0:
256,192,656171,1,12,0:0:0:0:
256,192,656492,1,0,0:0:0:0:
256,192,656921,1,8,0:0:0:0:
256,192,657028,1,8,0:0:0:0:
256,192,657135,1,0,0:0:0:0:
256,192,657242,1,8,0:0:0:0:
256,192,657349,1,8,0:0:0:0:
256,192,657456,1,0,0:0:0:0:
256,192,657563,1,0,0:0:0:0:
256,192,657671,1,8,0:0:0:0:
256,192,657778,1,0,0:0:0:0:
256,192,657831,1,0,0:0:0:0:
256,192,657885,1,8,0:0:0:0:
256,192,657992,1,8,0:0:0:0:
256,192,658099,1,0,0:0:0:0:
256,192,658206,1,0,0:0:0:0:
256,192,658313,1,8,0:0:0:0:
256,192,658420,1,0,0:0:0:0:
256,192,658527,1,8,0:0:0:0:
256,192,658634,1,0,0:0:0:0:
256,192,658741,1,8,0:0:0:0:
256,192,658849,1,8,0:0:0:0:
256,192,658956,1,0,0:0:0:0:
256,192,659063,1,0,0:0:0:0:
256,192,659170,1,8,0:0:0:0:
256,192,659277,1,8,0:0:0:0:
256,192,659384,1,0,0:0:0:0:
256,192,659491,1,0,0:0:0:0:
256,192,659599,1,8,0:0:0:0:
256,192,659706,1,8,0:0:0:0:
256,192,659813,1,8,0:0:0:0:
256,192,659920,1,8,0:0:0:0:
256,192,660027,1,0,0:0:0:0:
256,192,660134,1,0,0:0:0:0:
256,192,660241,1,8,0:0:0:0:
256,192,660349,1,8,0:0:0:0:
256,192,660456,1,8,0:0:0:0:
256,192,660563,1,0,0:0:0:0:
256,192,660670,1,0,0:0:0:0:
256,192,660777,1,0,0:0:0:0:
256,192,660884,1,0,0:0:0:0:
256,192,660991,1,8,0:0:0:0:
256,192,661527,1,0,0:0:0:0:
256,192,661634,1,8,0:0:0:0:
256,192,661956,1,12,0:0:0:0:
256,192,662170,1,0,0:0:0:0:
256,192,662277,1,0,0:0:0:0:
256,192,662384,1,8,0:0:0:0:
256,192,662491,1,8,0:0:0:0:
256,192,662598,1,0,0:0:0:0:
256,192,662706,1,0,0:0:0:0:
256,192,662813,1,8,0:0:0:0:
256,192,663027,1,8,0:0:0:0:
256,192,663134,1,8,0:0:0:0:
256,192,663241,1,0,0:0:0:0:
256,192,663348,1,0,0:0:0:0:
256,192,663456,1,8,0:0:0:0:
256,192,663563,1,8,0:0:0:0:
256,192,663670,1,8,0:0:0:0:
256,192,663777,1,8,0:0:0:0:
256,192,664099,1,4,0:0:0:0:
256,192,664420,1,8,0:0:0:0:
256,192,664741,1,0,0:0:0:0:
256,192,664849,1,0,0:0:0:0:
256,192,664956,1,8,0:0:0:0:
256,192,665063,1,0,0:0:0:0:
256,192,665170,1,8,0:0:0:0:
256,192,665224,1,8,0:0:0:0:
256,192,665277,1,8,0:0:0:0:
256,192,665385,1,0,0:0:0:0:
256,192,665492,1,0,0:0:0:0:
256,192,665706,1,8,0:0:0:0:
256,192,665813,1,8,0:0:0:0:
256,192,665920,1,0,0:0:0:0:
256,192,666027,1,8,0:0:0:0:
256,192,666135,1,0,0:0:0:0:
256,192,666242,1,8,0:0:0:0:
256,192,666349,1,0,0:0:0:0:
256,192,666402,1,0,0:0:0:0:
256,192,666456,1,8,0:0:0:0:
256,192,666563,1,8,0:0:0:0:
256,192,666670,1,0,0:0:0:0:
256,192,666777,1,0,0:0:0:0:
256,192,667313,1,4,0:0:0:0:
256,192,667527,1,8,0:0:0:0:
256,192,667634,1,0,0:0:0:0:
256,192,667741,1,8,0:0:0:0:
256,192,667848,1,8,0:0:0:0:
256,192,667955,1,0,0:0:0:0:
256,192,668063,1,8,0:0:0:0:
256,192,668116,1,8,0:0:0:0:
256,192,668170,1,0,0:0:0:0:
256,192,668277,1,0,0:0:0:0:
256,192,668384,1,8,0:0:0:0:
256,192,668491,1,8,0:0:0:0:
256,192,668598,1,0,0:0:0:0:
256,192,668705,1,0,0:0:0:0:
256,192,668814,1,8,0:0:0:0:
256,192,668867,1,0,0:0:0:0:
256,192,668921,1,8,0:0:0:0:
256,192,668974,1,0,0:0:0:0:
256,192,669028,1,8,0:0:0:0:
256,192,669135,1,0,0:0:0:0:
256,192,669242,1,8,0:0:0:0:
256,192,669296,1,8,0:0:0:0:
256,192,669349,1,0,0:0:0:0:
256,192,669403,1,0,0:0:0:0:
256,192,669456,1,8,0:0:0:0:
256,192,669564,1,0,0:0:0:0:
256,192,669885,1,8,0:0:0:0:
256,192,669938,1,0,0:0:0:0:
256,192,669992,1,8,0:0:0:0:
256,192,670045,1,0,0:0:0:0:
256,192,670099,1,8,0:0:0:0:
256,192,670206,1,0,0:0:0:0:
256,192,670313,1,8,0:0:0:0:
256,192,670367,1,8,0:0:0:0:
256,192,670420,1,0,0:0:0:0:
256,192,670474,1,0,0:0:0:0:
256,192,670527,1,8,0:0:0:0:
256,192,670635,1,0,0:0:0:0:
256,192,670956,1,0,0:0:0:0:
256,192,671063,1,8,0:0:0:0:
256,192,671277,1,8,0:0:0:0:
256,192,671384,1,0,0:0:0:0:
256,192,671491,1,8,0:0:0:0:
256,192,671598,1,0,0:0:0:0:
256,192,671706,1,0,0:0:0:0:
256,192,671920,1,8,0:0:0:0:
256,192,672027,1,0,0:0:0:0:
256,192,672134,1,0,0:0:0:0:
256,192,672242,1,8,0:0:0:0:
256,192,672349,1,8,0:0:0:0:
256,192,672563,1,0,0:0:0:0:
256,192,672670,1,0,0:0:0:0:
256,192,672777,1,8,0:0:0:0:
256,192,672992,1,0,0:0:0:0:
256,192,673099,1,0,0:0:0:0:
256,192,673313,1,8,0:0:0:0:
256,192,673420,1,0,0:0:0:0:
256,192,673527,1,8,0:0:0:0:
256,192,673634,1,8,0:0:0:0:
256,192,674171,1,4,0:0:0:0:
256,192,674385,1,8,0:0:0:0:
256,192,674492,1,0,0:0:0:0:
256,192,674599,1,8,0:0:0:0:
256,192,674706,1,0,0:0:0:0:
256,192,674813,1,8,0:0:0:0:
256,192,674921,1,8,0:0:0:0:
256,192,675028,1,0,0:0:0:0:
256,192,675135,1,0,0:0:0:0:
256,192,675242,1,8,0:0:0:0:
256,192,675349,1,8,0:0:0:0:
256,192,675456,1,8,0:0:0:0:
256,192,675563,1,0,0:0:0:0:
256,192,675671,1,8,0:0:0:0:
256,192,675778,1,8,0:0:0:0:
256,192,675885,1,8,0:0:0:0:
256,192,675992,1,8,0:0:0:0:
256,192,676099,1,0,0:0:0:0:
256,192,676206,1,0,0:0:0:0:
256,192,676313,1,8,0:0:0:0:
256,192,676421,1,8,0:0:0:0:
256,192,676528,1,8,0:0:0:0:
256,192,676635,1,8,0:0:0:0:
256,192,676742,1,0,0:0:0:0:
256,192,676849,1,0,0:0:0:0:
256,192,676956,1,0,0:0:0:0:
256,192,677063,1,8,0:0:0:0:
256,192,677171,1,0,0:0:0:0:
256,192,677385,1,0,0:0:0:0:
256,192,677599,1,8,0:0:0:0:
256,192,677706,1,8,0:0:0:0:
256,192,678456,1,0,0:0:0:0:
256,192,678563,1,8,0:0:0:0:
256,192,678884,1,0,0:0:0:0:
256,192,678991,1,0,0:0:0:0:
256,192,679313,1,12,0:0:0:0:
256,192,679741,1,8,0:0:0:0:
256,192,679848,1,8,0:0:0:0:
256,192,680170,1,4,0:0:0:0:
256,192,680277,1,8,0:0:0:0:
256,192,680330,1,0,0:0:0:0:
256,192,680384,1,8,0:0:0:0:
256,192,680438,1,8,0:0:0:0:
256,192,680491,1,0,0:0:0:0:
256,192,680545,1,0,0:0:0:0:
256,192,680598,1,12,0:0:0:0:
256,192,680741,1,12,0:0:0:0:
256,192,680884,1,4,0:0:0:0:
256,192,681027,1,12,0:0:0:0:
256,192,681455,1,0,0:0:0:0:
256,192,681670,1,0,0:0:0:0:
256,192,681884,1,12,0:0:0:0:
256,192,682027,1,12,0:0:0:0:
256,192,682170,1,12,0:0:0:0:
256,192,682313,1,4,0:0:0:0:
256,192,682741,1,8,0:0:0:0:
256,192,682884,1,8,0:0:0:0:
256,192,683027,1,8,0:0:0:0:
256,192,683171,1,4,0:0:0:0:
256,192,683313,1,8,0:0:0:0:
256,192,683385,1,8,0:0:0:0:
256,192,683456,1,0,0:0:0:0:
256,192,683528,1,0,0:0:0:0:
256,192,683599,1,8,0:0:0:0:
256,192,683671,1,8,0:0:0:0:
256,192,683742,1,0,0:0:0:0:
256,192,683813,1,0,0:0:0:0:
256,192,683885,1,8,0:0:0:0:
256,192,683956,1,8,0:0:0:0:
256,192,684028,1,0,0:0:0:0:
256,192,684099,1,8,0:0:0:0:
256,192,684171,1,8,0:0:0:0:
256,192,684242,1,0,0:0:0:0:
256,192,684313,1,8,0:0:0:0:
256,192,684385,1,8,0:0:0:0:
256,192,684456,1,0,0:0:0:0:
256,192,684528,1,8,0:0:0:0:
256,192,684599,1,8,0:0:0:0:
256,192,684671,1,0,0:0:0:0:
256,192,684742,1,8,0:0:0:0:
256,192,684813,1,8,0:0:0:0:
256,192,684885,1,8,0:0:0:0:
256,192,688516,12,8,692172,0:0:0:0:
256,192,692465,5,12,0:0:0:0:
256,192,692787,1,0,0:0:0:0:
256,192,693110,1,4,0:0:0:0:
256,192,693594,1,0,0:0:0:0:
256,192,693755,1,8,0:0:0:0:
256,192,693916,1,0,0:0:0:0:
256,192,694077,1,12,0:0:0:0:
256,192,694399,1,8,0:0:0:0:
256,192,694722,1,4,0:0:0:0:
256,192,695206,1,0,0:0:0:0:
256,192,695367,1,8,0:0:0:0:
256,192,695528,1,0,0:0:0:0:
256,192,695689,1,4,0:0:0:0:
256,192,696013,1,12,0:0:0:0:
256,192,696335,1,0,0:0:0:0:
256,192,696658,1,4,0:0:0:0:
256,192,697142,1,0,0:0:0:0:
256,192,697303,1,8,0:0:0:0:
256,192,697464,1,8,0:0:0:0:
256,192,697625,1,4,0:0:0:0:
256,192,697787,1,12,0:0:0:0:
256,192,697948,1,4,0:0:0:0:
256,192,698109,1,4,0:0:0:0:
256,192,698271,1,12,0:0:0:0:
256,192,698432,1,12,0:0:0:0:
256,192,698754,1,0,0:0:0:0:
256,192,699077,1,4,0:0:0:0:
256,192,699561,1,0,0:0:0:0:
256,192,699722,1,8,0:0:0:0:
256,192,699883,1,0,0:0:0:0:
256,192,700044,1,12,0:0:0:0:
256,192,700367,1,8,0:0:0:0:
256,192,700690,1,4,0:0:0:0:
256,192,701174,1,0,0:0:0:0:
256,192,701335,1,8,0:0:0:0:
256,192,701496,1,0,0:0:0:0:
256,192,701657,1,4,0:0:0:0:
256,192,701980,1,12,0:0:0:0:
256,192,702303,1,0,0:0:0:0:
256,192,702625,1,4,0:0:0:0:
256,192,703109,1,0,0:0:0:0:
256,192,703270,1,8,0:0:0:0:
256,192,703432,1,8,0:0:0:0:
256,192,703593,1,4,0:0:0:0:
256,192,704239,2,8,L|480:192,1,210
256,192,704884,1,12,0:0:0:0:
256,192,705206,1,0,0:0:0:0:
256,192,705529,1,0,0:0:0:0:
256,192,705851,1,8,0:0:0:0:
256,192,706013,1,0,0:0:0:0:
256,192,706335,1,0,0:0:0:0:
256,192,706496,1,0,0:0:0:0:
256,192,706819,1,12,0:0:0:0:
256,192,707142,1,0,0:0:0:0:
256,192,707625,1,0,0:0:0:0:
256,192,707787,1,8,0:0:0:0:
256,192,707948,1,0,0:0:0:0:
256,192,708109,1,12,0:0:0:0:
256,192,708432,1,4,0:0:0:0:
256,192,708754,1,12,0:0:0:0:
256,192,709077,1,0,0:0:0:0:
256,192,709561,1,0,0:0:0:0:
256,192,709722,1,8,0:0:0:0:
256,192,709884,1,0,0:0:0:0:
256,192,710045,1,12,0:0:0:0:
256,192,710206,1,0,0:0:0:0:
256,192,710287,1,8,0:0:0:0:
256,192,710367,1,0,0:0:0:0:
256,192,710448,1,0,0:0:0:0:
256,192,710529,1,8,0:0:0:0:
256,192,710609,1,0,0:0:0:0:
256,192,710690,1,8,0:0:0:0:
256,192,710852,1,12,0:0:0:0:
256,192,711174,1,0,0:0:0:0:
256,192,711497,1,0,0:0:0:0:
256,192,711658,1,8,0:0:0:0:
256,192,711981,1,0,0:0:0:0:
256,192,712303,1,0,0:0:0:0:
256,192,712464,1,8,0:0:0:0:
256,192,712626,1,8,0:0:0:0:
256,192,712787,1,4,0:0:0:0:
256,192,713110,1,12,0:0:0:0:
256,192,713271,1,0,0:0:0:0:
256,192,713593,1,8,0:0:0:0:
256,192,713755,1,8,0:0:0:0:
256,192,713916,1,0,0:0:0:0:
256,192,714077,1,12,0:0:0:0:
256,192,714399,1,12,0:0:0:0:
256,192,714722,1,4,0:0:0:0:
256,192,715044,1,4,0:0:0:0:
256,192,715368,5,12,0:0:0:0:
256,192,715690,8,0,725045,0:0:0:0:
256,192,725529,5,2,0:0:0:0:
256,192,726819,1,0,0:0:0:0:
256,192,727303,1,0,0:0:0:0:
256,192,727626,1,2,0:0:0:0:
256,192,728109,1,0,0:0:0:0:
256,192,728513,1,0,0:0:0:0:
256,192,728755,1,2,0:0:0:0:
256,192,729561,8,0,732142,0:0:0:0:
256,192,732546,5,0,0:0:0:0:
256,192,732626,1,2,0:0:0:0:
256,192,733432,8,0,742464,0:0:0:0:
