osu file format v14

[General]
AudioFilename: Kuusou_Mesorogiwi.mp3
AudioLeadIn: 0
PreviewTime: 51716
Countdown: 0
SampleSet: Soft
StackLeniency: 0.7
Mode: 2
LetterboxInBreaks: 0
WidescreenStoryboard: 1

[Editor]
DistanceSpacing: 1
BeatDivisor: 4
GridSize: 32
TimelineZoom: 1.6

[Metadata]
Title:Kuusou Mesorogiwi
TitleUnicode:Kuusou Mesorogiwi
Artist:NateWantsToBattle feat. Amanda Lee
ArtistUnicode:NateWantsToBattle feat. Amanda Lee
Creator:Du5t
Version:Salad
Source:未来日記
Tags:Future Diary english cover metal german Yousei Teikoku Mirai Nikki mbomb - Magic Bomb - idust idu5t dust
BeatmapID:1874088
BeatmapSetID:897035

[Difficulty]
HPDrainRate:3
CircleSize:2.5
OverallDifficulty:7
ApproachRate:7
SliderMultiplier:1.25
SliderTickRate:1

[Events]
//Background and Video events
0,0,"bg.jpg",0,0
//Break Periods
//Storyboard Layer 0 (Background)
//Storyboard Layer 1 (Fail)
//Storyboard Layer 2 (Pass)
//Storyboard Layer 3 (Foreground)
//Storyboard Sound Samples

[TimingPoints]
30,521.739130434783,4,2,22,40,1,0
8377,260.869565217391,4,3,22,80,1,0
16724,-100,4,3,22,70,0,0
25072,-100,4,3,22,55,0,0
25855,-100,4,3,22,50,0,0
26116,-100,4,3,22,60,0,0
28203,-100,4,3,22,70,0,0
30290,-100,4,3,22,60,0,0
32116,-100,4,3,22,50,0,0
32376,-100,4,3,22,70,0,0
34463,-100,4,3,22,80,0,0
38376,-100,4,3,22,50,0,0
38637,-100,4,3,22,60,0,0
42811,-100,4,3,22,70,0,0
51420,-100,4,3,22,40,0,0
51681,-100,4,3,22,50,0,0
52203,-100,4,3,22,80,0,1
60290,-100,4,3,22,50,0,0
60550,-100,4,3,22,80,0,1
67855,-100,4,3,22,70,0,0
68898,-100,4,3,22,90,0,1
72811,-100,4,3,22,50,0,0
73072,-100,4,3,22,90,0,1
76203,-100,4,3,22,70,0,0
77246,-100,4,3,22,80,0,1
85594,-100,4,2,22,40,0,0

[Colours]
Combo1 : 255,40,40
Combo2 : 150,0,0
Combo3 : 255,40,80

[HitObjects]
345,306,30,6,0,P|350:152|350:152,1,125,2|2,0:0|0:0,0:0:0:0:
198,103,1073,2,0,L|348:108,1,125,2|0,0:0|0:0,0:0:0:0:
170,322,2116,6,0,L|167:182,1,125,2|0,0:0|0:0,0:0:0:0:
317,115,3160,2,0,L|167:98,1,125,2|2,0:0|0:0,0:0:0:0:
274,97,3943,1,2,0:0:0:0:
373,97,4203,5,4,0:0:0:0:
256,192,4464,12,0,5769,0:0:0:0:
244,272,6290,6,0,L|232:136,1,125,2|2,0:0|0:0,0:0:0:0:
391,272,7334,2,0,L|480:261,2,62.5,2|2|8,0:0|0:0|0:0,0:0:0:0:
16,272,8377,6,0,L|27:144,1,125,6|10,0:0|0:0,0:0:0:0:
167,119,8898,1,0,0:0:0:0:
247,118,9029,1,2,0:0:0:0:
116,300,9290,6,0,L|256:287,2,125,2|2|2,0:0|0:0|0:0,0:0:0:0:
247,187,10072,1,2,0:0:0:0:
311,193,10203,2,0,L|336:67,1,125,10|0,0:0|0:0,0:0:0:0:
210,328,10724,6,0,P|64:312|64:312,1,125,10|0,0:0|0:0,0:0:0:0:
148,321,11116,1,2,0:0:0:0:
396,242,11376,1,2,0:0:0:0:
458,248,11507,2,0,P|459:112|459:112,1,125,2|8,0:0|0:0,0:0:0:0:
394,126,11898,1,2,0:0:0:0:
250,246,12159,1,0,0:0:0:0:
187,239,12290,1,10,0:0:0:0:
437,294,12550,6,0,L|429:153,1,125,6|10,0:0|0:0,0:0:0:0:
291,148,13072,1,0,0:0:0:0:
228,146,13203,1,2,0:0:0:0:
362,313,13463,6,0,L|209:304,2,125,2|2|2,0:0|0:0|0:0,0:0:0:0:
227,138,14246,1,2,0:0:0:0:
164,139,14376,2,0,L|175:281,1,125,10|0,0:0|0:0,0:0:0:0:
331,177,14898,6,0,B|191:195,1,125,10|0,0:0|0:0,0:0:0:0:
144,196,15290,1,2,0:0:0:0:
390,217,15550,1,2,0:0:0:0:
452,215,15681,2,0,B|431:74,1,125,2|8,0:0|0:0,0:0:0:0:
367,99,16072,1,2,0:0:0:0:
234,140,16333,1,0,0:0:0:0:
171,134,16463,1,10,0:0:0:0:
421,324,16724,6,0,L|415:191,1,125,4|10,0:0|0:0,0:0:0:0:
284,185,17246,1,0,0:0:0:0:
410,94,17507,1,10,0:0:0:0:
164,162,17768,6,0,L|171:306,1,125,2|8,0:0|0:0,0:0:0:0:
238,285,18159,1,10,0:0:0:0:
366,201,18420,1,0,0:0:0:0:
428,195,18550,1,10,0:0:0:0:
302,331,18811,6,0,L|167:322,1,125,2|10,0:0|0:0,0:0:0:0:
311,221,19333,2,0,L|449:230,1,125,2|10,0:0|0:0,0:0:0:0:
306,51,19855,1,2,0:0:0:0:
306,113,19985,1,2,0:0:0:0:
122,165,20376,1,2,0:0:0:0:
122,227,20506,1,2,0:0:0:0:
293,276,20898,6,0,P|296:145|296:145,1,125,6|10,0:0|0:0,0:0:0:0:
168,118,21420,2,0,L|41:108,1,125,2|10,0:0|0:0,0:0:0:0:
297,331,21942,6,0,L|291:199,1,125,2|8,0:0|0:0,0:0:0:0:
223,205,22333,1,10,0:0:0:0:
98,174,22594,1,0,0:0:0:0:
97,116,22724,1,10,0:0:0:0:
239,95,22985,6,0,L|376:104,1,125,2|10,0:0|0:0,0:0:0:0:
236,285,23507,1,2,0:0:0:0:
390,241,23768,1,10,0:0:0:0:
262,148,24029,5,2,0:0:0:0:
200,139,24159,1,2,0:0:0:0:
395,81,24550,1,2,0:0:0:0:
457,72,24680,1,2,0:0:0:0:
253,286,25072,6,0,L|111:277,1,125,0|8,0:0|0:0,0:0:0:0:
259,179,25594,1,0,0:0:0:0:
398,175,25855,1,8,0:0:0:0:
148,316,26116,6,0,L|140:173,1,125,4|0,0:0|0:0,0:0:0:0:
280,159,26637,2,0,L|291:303,1,125,8|0,0:0|0:0,0:0:0:0:
159,79,27159,6,0,L|31:50,2,125,2|2|10,0:0|0:0|0:0,0:0:0:0:
298,70,27942,1,2,0:0:0:0:
51,307,28203,6,0,P|75:172|75:172,1,125,2|10,0:0|0:0,0:0:0:0:
209,183,28724,1,2,0:0:0:0:
353,308,28985,2,0,P|413:288|343:165,1,250,10|8,0:0|0:0,0:0:0:0:
221,173,29768,1,0,0:0:0:0:
95,173,30029,1,8,0:0:0:0:
344,332,30290,6,0,P|481:339|481:339,1,125,4|0,0:0|0:0,0:0:0:0:
322,245,30811,2,0,L|192:237,1,125,8|0,0:0|0:0,0:0:0:0:
328,33,31333,6,0,L|324:166,1,125,2|2,0:0|0:0,0:0:0:0:
177,155,31855,1,10,0:0:0:0:
52,159,32116,1,10,0:0:0:0:
304,309,32376,6,0,L|296:173,1,125,2|10,0:0|0:0,0:0:0:0:
156,172,32898,1,2,0:0:0:0:
396,243,33159,2,0,P|430:200|305:117,1,250,10|8,0:0|0:0,0:0:0:0:
186,116,33942,1,0,0:0:0:0:
311,204,34203,1,8,0:0:0:0:
70,286,34463,5,12,0:0:0:0:
195,287,34724,1,8,0:0:0:0:
320,294,34985,1,8,0:0:0:0:
444,298,35246,1,8,0:0:0:0:
194,186,35507,6,0,L|185:54,1,125,2|10,0:0|0:0,0:0:0:0:
322,255,36029,2,0,L|184:264,1,125,2|10,0:0|0:0,0:0:0:0:
444,105,36550,5,12,0:0:0:0:
319,108,36811,1,8,0:0:0:0:
193,109,37072,1,8,0:0:0:0:
67,109,37333,1,8,0:0:0:0:
320,322,37594,6,0,P|327:192|327:192,1,125,2|10,0:0|0:0,0:0:0:0:
184,199,38116,2,0,L|48:190,1,125,2|8,0:0|0:0,0:0:0:0:
311,93,38637,6,0,L|453:100,1,125,6|8,0:0|0:0,0:0:0:0:
380,98,39029,1,2,0:0:0:0:
244,262,39290,2,0,L|119:266,1,125,2|2,0:0|0:0,0:0:0:0:
365,213,39811,5,10,0:0:0:0:
428,215,39942,2,0,L|415:88,1,125,0|2,0:0|0:0,0:0:0:0:
279,80,40463,1,2,0:0:0:0:
30,291,40724,6,0,L|90:163,1,125,6|10,0:0|0:0,0:0:0:0:
153,173,41116,1,2,0:0:0:0:
284,305,41376,1,0,0:0:0:0:
346,306,41507,1,2,0:0:0:0:
284,305,41637,1,2,0:0:0:0:
136,254,41898,5,10,0:0:0:0:
387,84,42159,1,0,0:0:0:0:
468,84,42290,2,0,L|464:224,1,125,2|8,0:0|0:0,0:0:0:0:
214,249,42811,6,0,L|63:241,1,125,6|10,0:0|0:0,0:0:0:0:
220,43,43333,2,0,L|213:197,1,125,0|10,0:0|0:0,0:0:0:0:
342,303,43855,2,0,L|480:313,1,125,2|10,0:0|0:0,0:0:0:0:
317,218,44376,2,0,L|175:208,1,125,2|10,0:0|0:0,0:0:0:0:
443,213,44898,6,0,L|427:82,1,125,2|8,0:0|0:0,0:0:0:0:
362,93,45290,1,2,0:0:0:0:
210,287,45550,5,0,0:0:0:0:
147,286,45681,2,0,P|83:251|182:160,1,250,10|8,0:0|0:0,0:0:0:0:
303,100,46463,2,0,L|156:85,1,125,2|8,0:0|0:0,0:0:0:0:
428,326,46985,6,0,P|440:189|440:189,1,125,6|8,0:0|0:0,0:0:0:0:
293,193,47507,2,0,L|284:334,1,125,0|8,0:0|0:0,0:0:0:0:
413,80,48029,6,0,L|268:72,1,125,2|8,0:0|0:0,0:0:0:0:
218,70,48420,1,2,0:0:0:0:
347,268,48681,1,0,0:0:0:0:
409,266,48811,1,10,0:0:0:0:
159,74,49072,6,0,L|151:206,1,125,2|8,0:0|0:0,0:0:0:0:
288,79,49594,2,0,L|421:86,1,125,0|10,0:0|0:0,0:0:0:0:
163,325,50116,6,0,P|86:304|238:73,1,500,6|2,0:0|0:0,0:0:0:0:
361,185,51681,2,0,L|209:179,1,125,8|8,0:0|0:0,0:0:0:0:
486,336,52203,6,0,P|485:188|485:188,1,125,6|8,0:0|0:0,0:0:0:0:
422,204,52594,1,2,0:0:0:0:
275,245,52855,1,0,0:0:0:0:
212,248,52985,6,0,L|200:113,1,125,10|0,0:0|0:0,0:0:0:0:
333,77,53507,2,0,P|193:72|193:72,2,125,10|2|10,0:0|0:0|0:0,0:0:0:0:
192,313,54290,6,0,L|50:309,1,125,2|8,0:0|0:0,0:0:0:0:
129,310,54681,1,2,0:0:0:0:
379,226,54942,1,0,0:0:0:0:
447,228,55072,6,0,P|469:197|348:75,1,250,10|8,0:0|0:0,0:0:0:0:
208,101,55855,1,2,0:0:0:0:
83,108,56116,1,10,0:0:0:0:
339,291,56376,6,0,L|477:295,1,125,6|8,0:0|0:0,0:0:0:0:
400,291,56768,1,2,0:0:0:0:
249,183,57029,1,0,0:0:0:0:
186,180,57159,6,0,P|48:167|48:167,1,125,10|0,0:0|0:0,0:0:0:0:
189,71,57681,1,10,0:0:0:0:
318,74,57942,1,2,0:0:0:0:
447,79,58203,1,10,0:0:0:0:
297,296,58463,6,0,B|439:287,1,125,2|8,0:0|0:0,0:0:0:0:
358,295,58855,1,2,0:0:0:0:
107,223,59116,1,0,0:0:0:0:
24,219,59246,6,0,L|149:215,1,125,10|0,0:0|0:0,0:0:0:0:
273,83,59768,1,8,0:0:0:0:
147,80,60029,1,2,0:0:0:0:
22,73,60290,1,8,0:0:0:0:
275,291,60550,6,0,L|426:306,1,125,6|8,0:0|0:0,0:0:0:0:
255,78,61072,2,0,P|240:213|240:213,1,125,2|8,0:0|0:0,0:0:0:0:
366,176,61594,2,0,L|502:188,1,125,0|8,0:0|0:0,0:0:0:0:
347,291,62116,1,2,0:0:0:0:
471,293,62376,1,10,0:0:0:0:
215,204,62637,6,0,L|61:196,1,125,6|8,0:0|0:0,0:0:0:0:
228,97,63159,2,0,P|359:107|359:107,1,125,2|8,0:0|0:0,0:0:0:0:
223,213,63681,2,0,L|212:338,1,125,0|8,0:0|0:0,0:0:0:0:
351,157,64203,2,0,L|478:167,1,125,0|8,0:0|0:0,0:0:0:0:
221,286,64724,5,6,0:0:0:0:
159,273,64855,1,0,0:0:0:0:
97,261,64985,1,8,0:0:0:0:
35,249,65116,2,0,L|33:113,1,125,2|0,0:0|0:0,0:0:0:0:
97,126,65507,1,10,0:0:0:0:
250,228,65768,6,0,L|390:233,1,125,2|8,0:0|0:0,0:0:0:0:
312,228,66159,1,2,0:0:0:0:
188,140,66420,1,0,0:0:0:0:
126,137,66550,1,10,0:0:0:0:
368,333,66811,6,0,L|372:193,1,125,6|8,0:0|0:0,0:0:0:0:
236,197,67333,2,0,P|86:192|86:192,1,125,0|8,0:0|0:0,0:0:0:0:
363,100,67855,2,0,L|162:86,2,187.5,2|2|2,0:0|0:0|0:0,0:0:0:0:
105,301,68898,6,0,L|251:286,1,125,12|8,0:0|0:0,0:0:0:0:
370,165,69420,2,0,L|224:180,2,125,8|8|8,0:0|0:0|0:0,0:0:0:0:
116,258,70203,6,0,L|260:248,1,125,8|8,0:0|0:0,0:0:0:0:
384,107,70724,2,0,B|386:106|259:110,1,125,8|8,0:0|0:0,0:0:0:0:
20,308,71246,6,0,L|144:302,1,125,8|8,0:0|0:0,0:0:0:0:
296,168,71768,2,0,L|153:172,1,125,8|8,0:0|0:0,0:0:0:0:
308,288,72290,2,0,L|454:278,2,125,10|10|8,0:0|0:0|0:0,0:0:0:0:
55,249,73072,6,0,P|200:268|200:268,1,125,12|8,0:0|0:0,0:0:0:0:
321,148,73594,2,0,L|196:132,1,125,8|8,0:0|0:0,0:0:0:0:
454,325,74116,6,0,P|311:308|311:308,1,125,8|8,0:0|0:0,0:0:0:0:
202,180,74637,2,0,P|338:197|338:197,1,125,8|10,0:0|0:0,0:0:0:0:
79,303,75159,6,0,P|79:168|79:168,1,125,10|8,0:0|0:0,0:0:0:0:
235,97,75681,2,0,L|381:92,1,125,8|8,0:0|0:0,0:0:0:0:
115,268,76203,6,0,L|-8:272,2,83.3333333333333,10|2|2,0:0|0:0|0:0,0:0:0:0:
219,167,76724,2,0,L|342:171,2,83.3333333333333,2|2|2,0:0|0:0|0:0,0:0:0:0:
28,315,77246,6,0,P|40:170|40:170,1,125,4|10,0:0|0:0,0:0:0:0:
193,101,77768,2,0,L|68:101,1,125,0|10,0:0|0:0,0:0:0:0:
317,283,78290,6,0,L|320:155,1,125,0|8,0:0|0:0,0:0:0:0:
256,171,78681,1,2,0:0:0:0:
127,191,78942,1,2,0:0:0:0:
64,185,79072,1,8,0:0:0:0:
396,236,79463,5,0,0:0:0:0:
458,237,79594,2,0,L|463:91,1,125,10|0,0:0|0:0,0:0:0:0:
399,108,79985,1,0,0:0:0:0:
336,103,80116,1,10,0:0:0:0:
188,244,80376,1,2,0:0:0:0:
323,207,80637,1,10,0:0:0:0:
325,144,80768,1,10,0:0:0:0:
135,160,81159,1,10,0:0:0:0:
136,97,81290,1,10,0:0:0:0:
385,320,81550,5,0,0:0:0:0:
447,323,81681,2,0,L|451:194,1,125,10|2,0:0|0:0,0:0:0:0:
388,199,82072,1,2,0:0:0:0:
136,273,82333,5,0,0:0:0:0:
76,273,82463,2,0,P|63:134|63:134,1,125,2|10,0:0|0:0,0:0:0:0:
202,81,82985,2,0,P|74:74|74:74,1,125,2|8,0:0|0:0,0:0:0:0:
219,279,83507,6,0,L|354:289,1,125,0|10,0:0|0:0,0:0:0:0:
216,56,84029,2,0,L|198:198,1,125,2|10,0:0|0:0,0:0:0:0:
452,222,84550,6,0,L|462:80,1,125,2|10,0:0|0:0,0:0:0:0:
387,103,84942,2,0,P|253:95|253:95,1,125,2|2,0:0|0:0,0:0:0:0:
329,97,85333,1,2,0:0:0:0:
391,104,85463,1,2,0:0:0:0:
183,329,85855,5,0,0:0:0:0:
186,267,85985,1,0,0:0:0:0:
305,121,86246,1,0,0:0:0:0:
174,171,86507,2,0,P|107:168|171:61,1,250,4|0,0:0|0:0,0:0:0:0:
