osu file format v14

[General]
AudioFilename: Kuusou_Mesorogiwi.mp3
AudioLeadIn: 0
PreviewTime: 51716
Countdown: 0
SampleSet: None
StackLeniency: 0.7
Mode: 2
LetterboxInBreaks: 0
WidescreenStoryboard: 1

[Editor]
DistanceSpacing: 0.9
BeatDivisor: 4
GridSize: 16
TimelineZoom: 1.6

[Metadata]
Title:Kuusou Mesorogiwi
TitleUnicode:Kuusou Mesorogiwi
Artist:NateWantsToBattle feat. Amanda Lee
ArtistUnicode:NateWantsToBattle feat. Amanda Lee
Creator:Du5t
Version:Revenge
Source:未来日記
Tags:Future Diary english cover metal german Yousei Teikoku Mirai Nikki mbomb - Magic Bomb - idust idu5t dust
BeatmapID:1874082
BeatmapSetID:897035

[Difficulty]
HPDrainRate:7
CircleSize:4.4
OverallDifficulty:9.6
ApproachRate:9.6
SliderMultiplier:2.2
SliderTickRate:2

[Events]
//Background and Video events
0,0,"bg.jpg",0,0
//Break Periods
//Storyboard Layer 0 (Background)
//Storyboard Layer 1 (Fail)
//Storyboard Layer 2 (Pass)
//Storyboard Layer 3 (Foreground)
//Storyboard Sound Samples

[TimingPoints]
30,521.739130434783,4,2,22,40,1,0
8377,260.869565217391,4,3,22,80,1,0
16724,-100,4,3,22,70,0,0
25072,-100,4,3,22,55,0,0
25855,-100,4,3,22,50,0,0
26116,-100,4,3,22,60,0,0
28203,-100,4,3,22,70,0,0
30290,-100,4,3,22,60,0,0
32116,-100,4,3,22,50,0,0
32376,-100,4,3,22,70,0,0
34463,-100,4,3,22,80,0,0
38376,-100,4,3,22,50,0,0
38637,-100,4,3,22,60,0,0
42811,-100,4,3,22,70,0,0
51420,-100,4,3,22,40,0,0
51681,-100,4,3,22,50,0,0
52203,-100,4,3,22,80,0,1
60290,-100,4,3,22,50,0,0
60550,-100,4,3,22,80,0,1
67855,-100,4,3,22,70,0,0
68898,-90.9090909090909,4,3,22,90,0,1
72811,-90.9090909090909,4,3,22,50,0,0
73072,-90.9090909090909,4,3,22,90,0,1
76203,-100,4,3,22,70,0,0
77246,-100,4,3,22,80,0,1
85594,-100,4,2,22,40,0,0

[Colours]
Combo1 : 255,40,40
Combo2 : 150,0,0
Combo3 : 255,40,80

[HitObjects]
351,309,30,5,2,0:0:0:0:
407,262,160,1,0,0:0:0:0:
407,189,290,1,0,0:0:0:0:
346,148,421,1,0,0:0:0:0:
208,94,551,1,2,0:0:0:0:
263,89,682,1,0,0:0:0:0:
317,83,812,1,0,0:0:0:0:
375,77,943,1,0,0:0:0:0:
236,296,1073,5,2,0:0:0:0:
181,267,1203,1,0,0:0:0:0:
181,211,1334,1,0,0:0:0:0:
237,186,1464,1,0,0:0:0:0:
296,183,1595,1,0,0:0:0:0:
350,149,1725,1,0,0:0:0:0:
350,93,1856,1,0,0:0:0:0:
295,65,1986,1,0,0:0:0:0:
158,309,2116,5,2,0:0:0:0:
223,304,2247,1,0,0:0:0:0:
284,281,2377,1,0,0:0:0:0:
329,230,2508,1,0,0:0:0:0:
331,164,2638,1,0,0:0:0:0:
303,100,2769,1,0,0:0:0:0:
243,69,2899,1,0,0:0:0:0:
181,53,3030,1,0,0:0:0:0:
322,315,3160,5,2,0:0:0:0:
381,290,3290,1,0,0:0:0:0:
384,234,3421,1,0,0:0:0:0:
327,200,3551,1,0,0:0:0:0:
183,154,3682,1,2,0:0:0:0:
235,137,3812,1,2,0:0:0:0:
371,89,3943,1,2,0:0:0:0:
319,72,4073,1,2,0:0:0:0:
117,291,4203,5,4,0:0:0:0:
256,192,4334,12,0,5769,0:0:0:0:
330,288,6290,6,0,L|337:150,1,110,2|0,0:0|0:0,0:0:0:0:
209,153,6812,2,0,L|203:265,1,110,2|0,0:0|0:0,0:0:0:0:
426,105,7334,1,2,0:0:0:0:
191,70,7595,1,2,0:0:0:0:
425,338,7856,1,8,0:0:0:0:
361,313,7986,1,8,0:0:0:0:
453,273,8116,1,8,0:0:0:0:
495,222,8247,1,8,0:0:0:0:
152,284,8377,6,0,P|149:160|149:160,1,110,6|0,0:0|0:0,0:0:0:0:
370,80,8637,2,0,B|388:79|260:85,2,110,10|0|0,0:0|0:0|0:0,0:0:0:0:
164,188,9029,2,0,P|291:182|291:182,1,110,2|8,0:0|0:0,0:0:0:0:
481,97,9290,6,0,L|353:100,1,110,2|0,0:0|0:0,0:0:0:0:
171,300,9550,2,0,P|293:298|293:298,1,110,2|8,0:0|0:0,0:0:0:0:
71,141,9811,2,0,P|203:136|203:136,1,110,2|0,0:0|0:0,0:0:0:0:
390,143,10072,1,2,0:0:0:0:
164,246,10203,6,0,L|161:127,1,110,10|0,0:0|0:0,0:0:0:0:
277,72,10463,2,0,P|159:75|159:75,1,110
385,277,10724,2,0,B|275:275,2,110,10|0|0,0:0|0:0|0:0,0:0:0:0:
173,144,11116,2,0,P|302:145|302:145,1,110,2|8,0:0|0:0,0:0:0:0:
77,283,11376,2,0,P|10:281|10:281,1,55,2|0,0:0|0:0,0:0:0:0:
284,215,11507,6,0,P|402:216|402:216,2,110,2|0|8,0:0|0:0|0:0,0:0:0:0:
164,120,11898,2,0,P|295:120|295:120,2,110,2|0|0,0:0|0:0|0:0,0:0:0:0:
373,293,12290,2,0,P|489:296|489:296,1,110,10|0,0:0|0:0,0:0:0:0:
242,254,12550,6,0,L|121:247,1,110,6|0,0:0|0:0,0:0:0:0:
343,137,12811,2,0,B|221:128|221:128|220:127,2,110,10|0|0,0:0|0:0|0:0,0:0:0:0:
128,297,13203,2,0,B|8:286,1,110,2|8,0:0|0:0,0:0:0:0:
233,219,13463,6,0,L|369:235,1,110,2|0,0:0|0:0,0:0:0:0:
121,192,13724,2,0,L|132:82,1,110,2|8,0:0|0:0,0:0:0:0:
408,69,13985,2,0,L|278:56,1,110,2|0,0:0|0:0,0:0:0:0:
495,318,14246,1,2,0:0:0:0:
256,321,14376,6,0,L|250:198,1,110,10|0,0:0|0:0,0:0:0:0:
371,168,14637,2,0,P|490:162|490:162,1,110,0|0,0:0|0:0,0:0:0:0:
229,81,14898,2,0,L|338:76,2,110,10|0|0,0:0|0:0|0:0,0:0:0:0:
24,285,15290,2,0,P|150:279|150:279,1,110,2|8,0:0|0:0,0:0:0:0:
339,248,15550,2,0,L|397:248,1,55,2|0,0:0|0:0,0:0:0:0:
135,155,15681,6,0,P|19:151|19:151,2,110,2|0|8,0:0|0:0|0:0,0:0:0:0:
279,78,16072,2,0,L|169:76,2,110,2|0|0,0:0|0:0|0:0,0:0:0:0:
144,293,16463,2,0,B|25:289|26:289|26:289,1,110,10|0,0:0|0:0,0:0:0:0:
302,284,16724,6,0,P|306:160|306:160,1,110,4|0,0:0|0:0,0:0:0:0:
163,178,16985,2,0,P|167:61|167:61,1,110,10|8,0:0|0:0,0:0:0:0:
306,322,17246,2,0,L|415:322,1,110,0|0,0:0|0:0,0:0:0:0:
162,278,17507,2,0,L|159:157,1,110,10|0,0:0|0:0,0:0:0:0:
364,207,17768,5,2,0:0:0:0:
152,157,17898,2,0,L|149:42,1,110,2|8,0:0|0:0,0:0:0:0:
362,301,18159,2,0,L|120:308,1,220,10|0,0:0|0:0,0:0:0:0:
288,232,18550,2,0,L|403:228,1,110,10|0,0:0|0:0,0:0:0:0:
176,201,18811,6,0,L|180:77,1,110,2|0,0:0|0:0,0:0:0:0:
323,137,19072,2,0,L|323:252,1,110,10|8,0:0|0:0,0:0:0:0:
177,233,19333,2,0,L|59:230,1,110,2|0,0:0|0:0,0:0:0:0:
283,241,19594,2,0,L|286:128,1,110,10|0,0:0|0:0,0:0:0:0:
65,76,19855,5,2,0:0:0:0:
290,40,19985,1,2,0:0:0:0:
24,271,20116,2,0,L|24:157,1,110,8|8,0:0|0:0,0:0:0:0:
250,90,20376,1,2,0:0:0:0:
33,58,20507,1,2,0:0:0:0:
302,308,20637,2,0,L|306:193,1,110,8|8,0:0|0:0,0:0:0:0:
83,124,20898,6,0,L|81:234,1,110,6|0,0:0|0:0,0:0:0:0:
220,132,21159,2,0,L|347:134,1,110,10|8,0:0|0:0,0:0:0:0:
187,342,21420,2,0,L|53:348,1,110,2|0,0:0|0:0,0:0:0:0:
330,258,21681,2,0,L|327:144,1,110,10|0,0:0|0:0,0:0:0:0:
129,199,21942,5,2,0:0:0:0:
339,198,22072,2,0,P|467:198|467:198,1,110,2|8,0:0|0:0,0:0:0:0:
218,93,22333,2,0,L|450:86,1,220,10|0,0:0|0:0,0:0:0:0:
293,309,22724,2,0,P|422:303|422:303,1,110,10|0,0:0|0:0,0:0:0:0:
158,261,22985,6,0,L|156:133,1,110,2|0,0:0|0:0,0:0:0:0:
300,78,23246,2,0,P|166:81|166:81,1,110,10|8,0:0|0:0,0:0:0:0:
334,244,23507,2,0,P|445:240|445:240,1,110,2|0,0:0|0:0,0:0:0:0:
218,218,23768,2,0,L|216:106,1,110,10|0,0:0|0:0,0:0:0:0:
440,63,24029,5,2,0:0:0:0:
213,38,24159,1,2,0:0:0:0:
479,309,24290,2,0,L|483:196,1,110,8|8,0:0|0:0,0:0:0:0:
263,194,24550,1,2,0:0:0:0:
493,138,24681,1,2,0:0:0:0:
232,131,24811,2,0,L|225:249,1,110,8|8,0:0|0:0,0:0:0:0:
450,302,25072,6,0,L|456:184,1,110
334,128,25333,2,0,L|328:253,1,110,8|0,0:0|0:0,0:0:0:0:
468,57,25594,2,0,P|349:52|349:52,1,110,0|0,0:0|0:0,0:0:0:0:
125,95,25855,2,0,L|48:91,1,55,8|8,0:0|0:0,0:0:0:0:
287,185,25985,2,0,L|346:187,1,55,8|8,0:0|0:0,0:0:0:0:
61,305,26116,6,0,L|51:188,1,110,4|0,0:0|0:0,0:0:0:0:
137,196,26376,2,0,L|126:73,1,110
281,233,26637,2,0,L|297:118,1,110,8|0,0:0|0:0,0:0:0:0:
386,142,26898,2,0,L|409:27,1,110
243,336,27159,6,0,P|240:219|240:219,1,110,2|0,0:0|0:0,0:0:0:0:
377,148,27420,2,0,P|247:150|247:150,1,110,2|0,0:0|0:0,0:0:0:0:
411,334,27681,2,0,P|408:214|408:214,1,110,10|0,0:0|0:0,0:0:0:0:
267,149,27942,2,0,L|383:146,1,110,2|0,0:0|0:0,0:0:0:0:
161,300,28203,6,0,L|45:302,1,110,2|0,0:0|0:0,0:0:0:0:
193,235,28463,2,0,P|328:232|328:232,1,110,10|0,0:0|0:0,0:0:0:0:
158,164,28724,2,0,B|151:45|151:44|151:44,1,110,2|0,0:0|0:0,0:0:0:0:
384,302,28985,6,0,L|158:309,1,220,10|0,0:0|0:0,0:0:0:0:
307,219,29376,2,0,L|198:221,2,110,0|8|0,0:0|0:0|0:0,0:0:0:0:
442,140,29768,2,0,P|323:145|323:145,1,110,0|0,0:0|0:0,0:0:0:0:
193,87,30029,1,8,0:0:0:0:
330,70,30159,1,8,0:0:0:0:
80,294,30290,6,0,L|104:175,1,110,4|0,0:0|0:0,0:0:0:0:
190,193,30550,2,0,L|220:53,1,110
371,227,30811,2,0,L|354:94,1,110,8|0,0:0|0:0,0:0:0:0:
443,115,31072,2,0,L|427:2,1,110
269,107,31333,6,0,P|150:114|150:114,1,110,2|0,0:0|0:0,0:0:0:0:
306,311,31594,2,0,L|415:316,1,110,2|0,0:0|0:0,0:0:0:0:
273,244,31855,2,0,L|269:117,1,110,10|0,0:0|0:0,0:0:0:0:
492,78,32116,2,0,B|437:77,1,55,10|8,0:0|0:0,0:0:0:0:
210,78,32246,2,0,L|147:76,1,55,8|8,0:0|0:0,0:0:0:0:
432,351,32376,6,0,L|437:225,1,110,2|0,0:0|0:0,0:0:0:0:
295,216,32637,2,0,L|185:212,1,110,10|0,0:0|0:0,0:0:0:0:
321,128,32898,2,0,P|326:9|326:9,1,110,2|0,0:0|0:0,0:0:0:0:
103,299,33159,6,0,P|335:288|335:288,1,220,10|0,0:0|0:0,0:0:0:0:
181,219,33550,2,0,L|311:212,2,110,0|8|0,0:0|0:0|0:0,0:0:0:0:
325,76,33942,2,0,L|333:192,1,110,0|0,0:0|0:0,0:0:0:0:
192,62,34203,2,0,P|65:67|65:67,1,110,8|0,0:0|0:0,0:0:0:0:
333,265,34463,6,0,L|209:270,1,110,12|0,0:0|0:0,0:0:0:0:
458,158,34724,2,0,B|327:162,1,110,8|0,0:0|0:0,0:0:0:0:
119,111,34985,2,0,P|245:106|245:106,2,110,8|0|8,0:0|0:0|0:0,0:0:0:0:
340,266,35376,5,2,0:0:0:0:
105,227,35507,1,2,0:0:0:0:
340,145,35637,1,2,0:0:0:0:
121,337,35768,2,0,L|362:328,2,220,10|2|10,0:0|0:0|0:0,0:0:0:0:
27,342,36420,1,0,0:0:0:0:
258,232,36550,6,0,L|387:225,1,110,12|0,0:0|0:0,0:0:0:0:
125,136,36811,2,0,L|242:129,1,110,8|0,0:0|0:0,0:0:0:0:
464,48,37072,2,0,L|350:53,2,110,8|0|8,0:0|0:0|0:0,0:0:0:0:
226,296,37463,5,2,0:0:0:0:
454,213,37594,1,2,0:0:0:0:
223,182,37724,1,2,0:0:0:0:
456,136,37855,2,0,P|462:23|462:23,1,110,10|0,0:0|0:0,0:0:0:0:
226,44,38116,2,0,B|359:46,1,110,2|0,0:0|0:0,0:0:0:0:
138,299,38376,2,0,B|75:298,1,55,8|8,0:0|0:0,0:0:0:0:
328,252,38507,2,0,P|390:251|390:251,1,55,8|8,0:0|0:0,0:0:0:0:
159,181,38637,6,0,P|44:178|44:178,2,110,6|0|8,0:0|0:0|0:0,0:0:0:0:
302,76,39029,2,0,L|179:72,1,110,2|0,0:0|0:0,0:0:0:0:
337,182,39290,2,0,L|332:307,1,110,2|0,0:0|0:0,0:0:0:0:
192,107,39550,2,0,L|186:224,1,110,2|0,0:0|0:0,0:0:0:0:
390,263,39811,6,0,B|151:275|151:275|154:275,1,220,10|0,0:0|0:0,0:0:0:0:
373,147,40203,2,0,L|254:150,1,110,2|8,0:0|0:0,0:0:0:0:
17,70,40463,2,0,P|132:67|132:67,1,110,2|0,0:0|0:0,0:0:0:0:
360,245,40724,6,0,L|366:135,1,110,6|0,0:0|0:0,0:0:0:0:
256,139,40985,1,10,0:0:0:0:
113,143,41116,2,0,L|120:21,1,110,2|0,0:0|0:0,0:0:0:0:
247,255,41376,2,0,L|132:247,1,110,0|2,0:0|0:0,0:0:0:0:
357,196,41637,2,0,P|230:189|230:189,1,110,2|0,0:0|0:0,0:0:0:0:
471,92,41898,5,10,0:0:0:0:
234,108,42029,2,0,P|108:104|108:104,1,110,0|0,0:0|0:0,0:0:0:0:
345,296,42290,2,0,P|374:237|261:180,1,220,2|8,0:0|0:0,0:0:0:0:
37,277,42681,1,8,0:0:0:0:
279,192,42811,6,0,L|388:186,1,110,6|0,0:0|0:0,0:0:0:0:
193,81,43072,1,10,0:0:0:0:
391,59,43203,1,2,0:0:0:0:
182,306,43333,2,0,L|177:176,1,110,0|0,0:0|0:0,0:0:0:0:
322,181,43594,2,0,P|443:175|443:175,1,110,10|0,0:0|0:0,0:0:0:0:
222,49,43855,6,0,L|226:160,1,110,2|0,0:0|0:0,0:0:0:0:
357,229,44116,2,0,L|234:236,1,110,10|0,0:0|0:0,0:0:0:0:
390,75,44376,2,0,P|394:192|394:192,1,110,2|0,0:0|0:0,0:0:0:0:
249,303,44637,2,0,L|243:177,1,110,10|0,0:0|0:0,0:0:0:0:
456,169,44898,6,0,L|219:176,1,220,2|8,0:0|0:0,0:0:0:0:
371,282,45290,2,0,L|259:283,2,110,2|0|0,0:0|0:0|0:0,0:0:0:0:
152,239,45681,2,0,P|88:217|163:131,1,220,10|0,0:0|0:0,0:0:0:0:
242,131,46072,5,0,0:0:0:0:
401,292,46203,2,0,P|406:177|406:177,1,110,8|0,0:0|0:0,0:0:0:0:
263,92,46463,2,0,B|398:99,1,110,2|0,0:0|0:0,0:0:0:0:
129,245,46724,1,8,0:0:0:0:
335,192,46855,1,8,0:0:0:0:
118,109,46985,6,0,P|347:108|347:108,1,220,6|8,0:0|0:0,0:0:0:0:
426,106,47376,1,0,0:0:0:0:
282,304,47507,2,0,L|162:298,1,110,0|0,0:0|0:0,0:0:0:0:
316,216,47768,2,0,P|436:222|436:222,1,110,8|0,0:0|0:0,0:0:0:0:
184,165,48029,6,0,P|209:103|355:81,1,220,2|8,0:0|0:0,0:0:0:0:
212,286,48420,2,0,L|321:293,2,110,2|0|0,0:0|0:0|0:0,0:0:0:0:
354,226,48811,2,0,L|364:95,1,110,10|0,0:0|0:0,0:0:0:0:
148,53,49072,6,0,P|130:116|270:151,1,220,2|8,0:0|0:0,0:0:0:0:
334,160,49463,1,0,0:0:0:0:
191,302,49594,2,0,L|63:295,1,110,0|0,0:0|0:0,0:0:0:0:
224,227,49855,2,0,L|333:234,1,110,10|0,0:0|0:0,0:0:0:0:
112,68,50116,5,6,0:0:0:0:
221,69,50246,1,10,0:0:0:0:
330,69,50376,1,10,0:0:0:0:
440,69,50507,1,2,0:0:0:0:
294,308,50637,1,2,0:0:0:0:
227,219,50768,1,2,0:0:0:0:
304,141,50898,1,10,0:0:0:0:
414,153,51029,1,10,0:0:0:0:
168,83,51159,1,2,0:0:0:0:
269,308,51420,6,0,P|140:297|140:297,1,110,0|0,0:0|0:0,0:0:0:0:
370,141,51681,2,0,L|433:141,1,55,8|8,0:0|0:0,0:0:0:0:
198,61,51811,2,0,L|134:60,1,55,8|8,0:0|0:0,0:0:0:0:
405,40,51942,2,0,B|473:41,1,55,8|8,0:0|0:0,0:0:0:0:
153,157,52072,2,0,L|72:156,1,55,8|8,0:0|0:0,0:0:0:0:
444,335,52203,6,0,P|435:263|301:219,1,220,6|8,0:0|0:0,0:0:0:0:
51,141,52594,2,0,P|80:81|220:57,1,220,2|0,0:0|0:0,0:0:0:0:
460,203,52985,2,0,L|228:185,1,220,10|0,0:0|0:0,0:0:0:0:
128,178,53376,1,0,0:0:0:0:
387,318,53507,6,0,P|393:198|393:198,1,110,10|0,0:0|0:0,0:0:0:0:
252,158,53768,2,0,L|133:150,1,110,2|0,0:0|0:0,0:0:0:0:
374,71,54029,2,0,L|264:65,1,110,10|0,0:0|0:0,0:0:0:0:
38,306,54290,6,0,P|40:226|163:198,1,220,2|8,0:0|0:0,0:0:0:0:
384,277,54681,2,0,P|469:248|465:122,1,220,2|0,0:0|0:0,0:0:0:0:
204,55,55072,2,0,P|431:46|431:46,1,220,10|0,0:0|0:0,0:0:0:0:
337,47,55463,5,0,0:0:0:0:
102,264,55594,1,8,0:0:0:0:
314,222,55724,1,8,0:0:0:0:
99,129,55855,2,0,L|232:120|232:120,1,110,2|0,0:0|0:0,0:0:0:0:
445,82,56116,2,0,L|320:90,1,110,10|8,0:0|0:0,0:0:0:0:
96,299,56376,6,0,P|114:233|239:164,1,220,6|8,0:0|0:0,0:0:0:0:
477,194,56768,2,0,P|486:130|346:77,1,220,2|0,0:0|0:0,0:0:0:0:
136,272,57159,2,0,P|370:288|370:288,1,220,10|0,0:0|0:0,0:0:0:0:
468,297,57550,5,0,0:0:0:0:
226,79,57681,2,0,L|95:74,1,110,10|0,0:0|0:0,0:0:0:0:
260,228,57942,2,0,L|369:232,1,110,2|0,0:0|0:0,0:0:0:0:
128,131,58203,2,0,L|237:137,1,110,10|0,0:0|0:0,0:0:0:0:
465,280,58463,6,0,P|481:215|391:93,1,220,2|8,0:0|0:0,0:0:0:0:
175,279,58855,2,0,P|102:231|169:133,1,220,2|0,0:0|0:0,0:0:0:0:
438,51,59246,2,0,P|198:36|198:36,1,220,10|0,0:0|0:0,0:0:0:0:
130,35,59637,5,0,0:0:0:0:
347,268,59768,1,8,0:0:0:0:
147,202,59898,1,8,0:0:0:0:
379,183,60029,2,0,P|387:60|387:60,1,110,2|0,0:0|0:0,0:0:0:0:
139,304,60290,2,0,L|84:304,1,55,8|8,0:0|0:0,0:0:0:0:
328,216,60420,2,0,L|384:216,1,55,8|8,0:0|0:0,0:0:0:0:
91,198,60550,6,0,P|61:144|181:56,1,220,6|8,0:0|0:0,0:0:0:0:
253,49,60942,1,0,0:0:0:0:
477,292,61072,2,0,P|350:285|350:285,1,110,2|0,0:0|0:0,0:0:0:0:
134,174,61333,2,0,L|250:178,1,110,8|0,0:0|0:0,0:0:0:0:
479,103,61594,6,0,L|358:100,1,110,0|0,0:0|0:0,0:0:0:0:
135,335,61855,2,0,P|135:209|135:209,1,110,8|0,0:0|0:0,0:0:0:0:
279,241,62116,2,0,P|409:238|409:238,1,110,2|0,0:0|0:0,0:0:0:0:
166,46,62376,2,0,L|170:157,1,110,10|0,0:0|0:0,0:0:0:0:
416,210,62637,6,0,P|451:152|327:94,1,220,6|8,0:0|0:0,0:0:0:0:
259,81,63029,1,0,0:0:0:0:
33,278,63159,2,0,P|166:283|166:283,1,110,2|0,0:0|0:0,0:0:0:0:
355,302,63420,2,0,P|482:308|482:308,1,110,8|0,0:0|0:0,0:0:0:0:
242,175,63681,6,0,P|367:180|367:180,1,110,0|0,0:0|0:0,0:0:0:0:
119,60,63942,2,0,P|249:67|249:67,1,110,8|0,0:0|0:0,0:0:0:0:
461,317,64203,2,0,P|469:198|469:198,1,110,0|0,0:0|0:0,0:0:0:0:
334,134,64463,2,0,P|448:129|448:129,1,110,8|0,0:0|0:0,0:0:0:0:
186,255,64724,6,0,P|300:262|300:262,2,110,6|0|8,0:0|0:0|0:0,0:0:0:0:
427,214,65116,2,0,P|475:174|373:99,1,220,2|0,0:0|0:0,0:0:0:0:
245,117,65507,2,0,P|117:109|117:109,1,110,10|0,0:0|0:0,0:0:0:0:
366,319,65768,6,0,P|329:261|166:234,1,220,2|8,0:0|0:0,0:0:0:0:
420,126,66159,1,2,0:0:0:0:
191,181,66290,2,0,P|227:122|367:89,1,220,2|10,0:0|0:0,0:0:0:0:
142,47,66681,1,2,0:0:0:0:
378,299,66811,6,0,P|492:292|492:292,1,110,6|0,0:0|0:0,0:0:0:0:
260,216,67072,2,0,P|387:206|387:206,1,110,8|0,0:0|0:0,0:0:0:0:
144,141,67333,2,0,L|26:147,1,110,0|0,0:0|0:0,0:0:0:0:
251,41,67594,2,0,L|124:47,1,110,8|0,0:0|0:0,0:0:0:0:
354,312,67855,6,0,P|409:276|309:225,1,220,2|0,0:0|0:0,0:0:0:0:
63,149,68246,2,0,P|96:105|267:72,1,220,2|0,0:0|0:0,0:0:0:0:
491,268,68637,2,0,P|375:258|375:258,1,110,2|0,0:0|0:0,0:0:0:0:
147,212,68898,6,0,P|13:203|13:203,1,121.000003692627,12|0,0:0|0:0,0:0:0:0:
260,101,69159,2,0,P|124:92|124:92,1,121.000003692627,8|0,0:0|0:0,0:0:0:0:
377,327,69420,2,0,P|233:317|233:317,1,121.000003692627,8|0,0:0|0:0,0:0:0:0:
495,210,69681,2,0,P|366:202|366:202,1,121.000003692627,8|0,0:0|0:0,0:0:0:0:
147,191,69942,2,0,L|17:181,1,121.000003692627,8|0,0:0|0:0,0:0:0:0:
335,88,70203,6,0,L|468:97,1,121.000003692627,8|0,0:0|0:0,0:0:0:0:
219,293,70463,2,0,L|356:303,1,121.000003692627,8|0,0:0|0:0,0:0:0:0:
118,185,70724,2,0,L|260:193,1,121.000003692627,8|0,0:0|0:0,0:0:0:0:
26,83,70985,2,0,P|168:88|168:88,1,121.000003692627,8|0,0:0|0:0,0:0:0:0:
495,304,71246,6,0,P|353:297|353:297,1,121.000003692627,8|0,0:0|0:0,0:0:0:0:
149,260,71507,2,0,L|13:252,1,121.000003692627,8|0,0:0|0:0,0:0:0:0:
281,180,71768,2,0,P|419:187|419:187,1,121.000003692627,8|0,0:0|0:0,0:0:0:0:
164,75,72029,2,0,L|25:70,1,121.000003692627,8|0,0:0|0:0,0:0:0:0:
302,325,72290,6,0,B|306:192|306:192,1,121.000003692627,10|0,0:0|0:0,0:0:0:0:
53,239,72550,2,0,P|58:96|58:96,1,121.000003692627,10|0,0:0|0:0,0:0:0:0:
330,43,72811,2,0,L|396:74,1,60.5000018463135,8|8,0:0|0:0,0:0:0:0:
128,328,72942,2,0,L|64:304,1,60.5000018463135,8|8,0:0|0:0,0:0:0:0:
373,248,73072,6,0,L|505:251,1,121.000003692627,12|0,0:0|0:0,0:0:0:0:
251,125,73333,2,0,B|396:128,1,121.000003692627,8|0,0:0|0:0,0:0:0:0:
148,259,73594,2,0,P|18:255|18:255,1,121.000003692627,8|0,0:0|0:0,0:0:0:0:
227,169,73855,2,0,P|77:163|77:163,1,121.000003692627,8|0,0:0|0:0,0:0:0:0:
331,103,74116,6,0,P|463:108|463:108,1,121.000003692627,8|0,0:0|0:0,0:0:0:0:
229,281,74376,2,0,P|366:288|366:288,1,121.000003692627,8|0,0:0|0:0,0:0:0:0:
103,125,74637,2,0,L|93:254,1,121.000003692627,8|0,0:0|0:0,0:0:0:0:
361,200,74898,2,0,P|368:61|368:61,1,121.000003692627,10|0,0:0|0:0,0:0:0:0:
114,320,75159,6,0,P|251:315|251:315,1,121.000003692627,10|0,0:0|0:0,0:0:0:0:
482,233,75420,2,0,P|335:235|335:235,1,121.000003692627,8|0,0:0|0:0,0:0:0:0:
112,139,75681,2,0,L|242:137,1,121.000003692627,8|0,0:0|0:0,0:0:0:0:
479,67,75942,2,0,P|336:69|336:69,1,121.000003692627,8|0,0:0|0:0,0:0:0:0:
303,68,76137,1,0,0:0:0:0:
97,270,76203,6,0,L|271:276,2,146.666666666667,10|2|2,0:0|0:0|0:0,0:0:0:0:
346,140,76724,2,0,L|170:133,2,146.666666666667,2|2|2,0:0|0:0|0:0,0:0:0:0:
88,331,77246,6,0,P|83:203|83:203,1,110,4|0,0:0|0:0,0:0:0:0:
215,207,77507,2,0,L|222:335,1,110,10|0,0:0|0:0,0:0:0:0:
21,103,77768,2,0,P|146:100|146:100,2,110,0|0|10,0:0|0:0|0:0,0:0:0:0:
21,103,78159,1,0,0:0:0:0:
251,179,78290,6,0,B|372:167,1,110,0|2,0:0|0:0,0:0:0:0:
110,172,78550,1,8,0:0:0:0:
355,295,78681,2,0,P|225:290|225:290,2,110,2|0|2,0:0|0:0|0:0,0:0:0:0:
111,277,79072,2,0,L|99:143,1,110,8|0,0:0|0:0,0:0:0:0:
340,92,79333,6,0,B|347:206,1,110,0|0,0:0|0:0,0:0:0:0:
206,314,79594,2,0,L|326:303,1,110,10|0,0:0|0:0,0:0:0:0:
195,137,79855,2,0,L|214:269,1,110
352,200,80116,2,0,B|352:207|339:90,1,110,10|0,0:0|0:0,0:0:0:0:
79,341,80376,6,0,L|201:333,1,110,2|0,0:0|0:0,0:0:0:0:
433,215,80637,1,10,0:0:0:0:
188,138,80768,1,10,0:0:0:0:
462,90,80898,2,0,B|340:97,1,110,0|0,0:0|0:0,0:0:0:0:
96,237,81159,1,10,0:0:0:0:
349,310,81290,1,10,0:0:0:0:
67,165,81420,6,0,P|63:44|63:44,1,110,4|0,0:0|0:0,0:0:0:0:
327,197,81681,2,0,P|218:202|218:202,1,110,10|0,0:0|0:0,0:0:0:0:
448,83,81942,1,2,0:0:0:0:
210,308,82072,2,0,P|329:301|329:301,2,110,2|8|0,0:0|0:0|0:0,0:0:0:0:
453,161,82463,6,0,B|335:165,1,110,2|0,0:0|0:0,0:0:0:0:
102,108,82724,2,0,L|111:228,1,110,10|0,0:0|0:0,0:0:0:0:
359,255,82985,1,2,0:0:0:0:
109,287,83116,2,0,L|226:279,2,110,2|8|0,0:0|0:0|0:0,0:0:0:0:
352,66,83507,6,0,P|359:201|359:201,1,110,0|0,0:0|0:0,0:0:0:0:
232,249,83768,2,0,L|363:244,1,110,10|0,0:0|0:0,0:0:0:0:
112,172,84029,2,0,L|0:178,1,110,2|0,0:0|0:0,0:0:0:0:
134,44,84290,2,0,L|142:169,1,110,10|0,0:0|0:0,0:0:0:0:
410,231,84550,6,0,P|283:240|283:240,2,110,2|0|10,0:0|0:0|0:0,0:0:0:0:
142,107,84942,2,0,P|269:116|269:116,2,110,2|0|2,0:0|0:0|0:0,0:0:0:0:
410,318,85333,2,0,P|417:194|417:194,1,110,2|2,0:0|0:0,0:0:0:0:
245,236,85855,6,0,P|243:111|243:111,1,110,0|0,0:0|0:0,0:0:0:0:
374,114,86246,1,0,0:0:0:0:
225,337,86507,2,0,P|150:320|242:76,1,440,4|0,0:0|0:0,0:0:0:0:
