osu file format v14

[General]
AudioFilename: Kuusou_Mesorogiwi.mp3
AudioLeadIn: 0
PreviewTime: 51716
Countdown: 0
SampleSet: Soft
StackLeniency: 0.7
Mode: 2
LetterboxInBreaks: 0
WidescreenStoryboard: 1

[Editor]
DistanceSpacing: 1
BeatDivisor: 4
GridSize: 32
TimelineZoom: 1.2

[Metadata]
Title:Kuusou Mesorogiwi
TitleUnicode:Kuusou Mesorogiwi
Artist:NateWantsToBattle feat. Amanda Lee
ArtistUnicode:NateWantsToBattle feat. Amanda Lee
Creator:Du5t
Version:Rain
Source:未来日記
Tags:Future Diary english cover metal german Yousei Teikoku Mirai Nikki mbomb - Magic Bomb - idust idu5t dust
BeatmapID:1874087
BeatmapSetID:897035

[Difficulty]
HPDrainRate:5
CircleSize:3.5
OverallDifficulty:9
ApproachRate:9
SliderMultiplier:1.75
SliderTickRate:2

[Events]
//Background and Video events
0,0,"bg.jpg",0,0
//Break Periods
//Storyboard Layer 0 (Background)
//Storyboard Layer 1 (Fail)
//Storyboard Layer 2 (Pass)
//Storyboard Layer 3 (Foreground)
//Storyboard Sound Samples

[TimingPoints]
30,521.739130434783,4,2,22,40,1,0
8377,260.869565217391,4,3,22,80,1,0
16724,-100,4,3,22,70,0,0
25072,-100,4,3,22,55,0,0
25855,-100,4,3,22,50,0,0
26116,-100,4,3,22,60,0,0
28203,-100,4,3,22,70,0,0
30290,-100,4,3,22,60,0,0
32116,-100,4,3,22,50,0,0
32376,-100,4,3,22,70,0,0
34463,-100,4,3,22,80,0,0
38376,-100,4,3,22,50,0,0
38637,-100,4,3,22,60,0,0
42811,-100,4,3,22,70,0,0
51420,-100,4,3,22,40,0,0
51681,-100,4,3,22,50,0,0
52203,-100,4,3,22,80,0,1
60290,-100,4,3,22,50,0,0
60550,-100,4,3,22,80,0,1
67855,-100,4,3,22,70,0,0
68898,-83.3333333333333,4,3,22,90,0,1
72811,-100,4,3,22,50,0,0
73072,-83.3333333333333,4,3,22,90,0,1
76203,-100,4,3,22,70,0,0
77246,-100,4,3,22,80,0,1
85594,-100,4,2,22,40,0,0

[Colours]
Combo1 : 255,40,40
Combo2 : 150,0,0
Combo3 : 255,40,80

[HitObjects]
276,300,30,5,2,0:0:0:0:
319,272,160,1,0,0:0:0:0:
319,228,290,1,0,0:0:0:0:
274,193,421,1,0,0:0:0:0:
227,188,551,1,2,0:0:0:0:
182,147,682,1,0,0:0:0:0:
183,103,812,1,0,0:0:0:0:
229,64,943,1,0,0:0:0:0:
395,340,1073,5,2,0:0:0:0:
438,310,1203,1,0,0:0:0:0:
473,272,1334,1,0,0:0:0:0:
496,225,1464,1,0,0:0:0:0:
497,172,1595,1,0,0:0:0:0:
475,124,1725,1,0,0:0:0:0:
439,85,1856,1,0,0:0:0:0:
393,59,1986,1,0,0:0:0:0:
228,314,2116,5,2,0:0:0:0:
267,294,2247,1,0,0:0:0:0:
296,261,2377,1,0,0:0:0:0:
313,220,2508,1,0,0:0:0:0:
315,176,2638,1,0,0:0:0:0:
303,133,2769,1,0,0:0:0:0:
265,111,2899,1,0,0:0:0:0:
215,114,3030,1,0,0:0:0:0:
48,209,3160,5,2,0:0:0:0:
44,165,3290,1,0,0:0:0:0:
73,132,3421,1,0,0:0:0:0:
115,121,3551,1,0,0:0:0:0:
281,87,3682,1,2,0:0:0:0:
324,85,3812,1,2,0:0:0:0:
155,316,3943,1,2,0:0:0:0:
112,314,4073,1,2,0:0:0:0:
319,233,4203,5,4,0:0:0:0:
256,192,4334,12,0,5769,0:0:0:0:
206,277,6290,5,2,0:0:0:0:
369,236,6812,2,0,P|366:127|366:127,1,87.5,2|0,0:0|0:0,0:0:0:0:
268,137,7334,1,2,0:0:0:0:
373,57,7595,1,2,0:0:0:0:
146,315,7856,1,8,0:0:0:0:
196,286,7986,1,8,0:0:0:0:
133,279,8116,1,8,0:0:0:0:
94,247,8247,1,8,0:0:0:0:
327,253,8377,6,0,P|332:155|332:155,1,87.5,6|0,0:0|0:0,0:0:0:0:
184,185,8637,2,0,P|128:160|191:89,1,175,10|0,0:0|0:0,0:0:0:0:
324,133,9029,2,0,L|330:31,1,87.5,2|8,0:0|0:0,0:0:0:0:
116,298,9290,6,0,L|122:202,1,87.5,2|0,0:0|0:0,0:0:0:0:
269,196,9550,2,0,P|266:308|266:308,1,87.5,2|8,0:0|0:0,0:0:0:0:
115,184,9811,2,0,P|54:146|113:87,1,175,2|2,0:0|0:0,0:0:0:0:
326,320,10203,6,0,P|314:265|206:223,1,175,10|0,0:0|0:0,0:0:0:0:
440,161,10724,2,0,P|502:107|437:61,1,175,10|0,0:0|0:0,0:0:0:0:
297,248,11116,2,0,L|294:137,1,87.5,2|8,0:0|0:0,0:0:0:0:
441,265,11376,2,0,P|446:325|446:325,1,43.75,2|0,0:0|0:0,0:0:0:0:
262,331,11507,6,0,P|197:317|237:230,1,175,2|8,0:0|0:0,0:0:0:0:
373,189,11898,2,0,P|416:152|337:112,1,175,2|0,0:0|0:0,0:0:0:0:
199,99,12290,2,0,P|298:107|298:107,1,87.5,10|0,0:0|0:0,0:0:0:0:
66,305,12550,6,0,L|63:209,1,87.5,6|0,0:0|0:0,0:0:0:0:
214,224,12811,2,0,P|274:225|313:112,1,175,10|0,0:0|0:0,0:0:0:0:
171,103,13203,2,0,P|72:97|72:97,1,87.5,2|8,0:0|0:0,0:0:0:0:
298,299,13463,6,0,P|390:305|390:305,1,87.5,2|0,0:0|0:0,0:0:0:0:
236,203,13724,2,0,P|143:194|143:194,1,87.5,2|8,0:0|0:0,0:0:0:0:
298,156,13985,2,0,P|368:141|383:48,1,175,2|2,0:0|0:0,0:0:0:0:
169,292,14376,2,0,P|348:304|348:304,1,175,10|0,0:0|0:0,0:0:0:0:
98,202,14898,6,0,P|40:173|114:123,1,175,10|0,0:0|0:0,0:0:0:0:
251,94,15290,2,0,P|352:91|352:91,1,87.5,2|8,0:0|0:0,0:0:0:0:
190,278,15550,2,0,P|186:224|186:224,1,43.75,2|0,0:0|0:0,0:0:0:0:
372,232,15681,6,0,P|416:206|351:135,1,175,2|8,0:0|0:0,0:0:0:0:
204,155,16072,2,0,P|150:140|126:26,1,175,2|0,0:0|0:0,0:0:0:0:
271,35,16463,2,0,L|176:28,1,87.5,10|0,0:0|0:0,0:0:0:0:
391,255,16724,6,0,L|395:153,1,87.5,4|0,0:0|0:0,0:0:0:0:
301,262,16985,2,0,L|296:365,1,87.5,10|8,0:0|0:0,0:0:0:0:
444,56,17246,2,0,P|441:165|441:165,1,87.5,0|0,0:0|0:0,0:0:0:0:
289,61,17507,2,0,P|185:57|185:57,1,87.5,10|0,0:0|0:0,0:0:0:0:
409,276,17768,6,0,L|501:280,2,87.5,2|2|8,0:0|0:0|0:0,0:0:0:0:
259,140,18159,2,0,P|447:143|447:143,1,175,10|0,0:0|0:0,0:0:0:0:
349,250,18550,2,0,L|440:257,1,87.5,10|0,0:0|0:0,0:0:0:0:
221,310,18811,6,0,P|116:300|116:300,1,87.5,2|0,0:0|0:0,0:0:0:0:
235,224,19072,2,0,B|336:231|336:231|335:231,1,87.5,10|8,0:0|0:0,0:0:0:0:
171,67,19333,2,0,P|165:167|165:167,1,87.5,2|0,0:0|0:0,0:0:0:0:
315,131,19594,2,0,P|320:32|320:32,1,87.5,10|0,0:0|0:0,0:0:0:0:
107,248,19855,6,0,P|102:352|102:352,1,87.5,2|2,0:0|0:0,0:0:0:0:
218,186,20116,1,8,0:0:0:0:
102,112,20246,1,8,0:0:0:0:
317,341,20376,2,0,L|314:232,1,87.5,2|2,0:0|0:0,0:0:0:0:
199,194,20637,1,8,0:0:0:0:
312,127,20768,1,8,0:0:0:0:
105,315,20898,6,0,P|102:222|102:222,1,87.5,6|0,0:0|0:0,0:0:0:0:
205,147,21159,2,0,P|108:151|108:151,1,87.5,10|8,0:0|0:0,0:0:0:0:
267,281,21420,2,0,B|373:274|373:274|370:274,1,87.5,2|0,0:0|0:0,0:0:0:0:
204,260,21681,2,0,L|199:172,1,87.5,10|0,0:0|0:0,0:0:0:0:
416,93,21942,6,0,L|511:87,2,87.5,2|2|8,0:0|0:0|0:0,0:0:0:0:
265,192,22333,2,0,P|204:183|142:86,1,175,10|0,0:0|0:0,0:0:0:0:
293,50,22724,2,0,L|304:156,1,87.5,10|0,0:0|0:0,0:0:0:0:
93,325,22985,6,0,L|91:223,1,87.5,2|0,0:0|0:0,0:0:0:0:
194,209,23246,2,0,P|288:206|288:206,1,87.5,10|8,0:0|0:0,0:0:0:0:
132,55,23507,2,0,P|133:151|133:151,1,87.5,2|0,0:0|0:0,0:0:0:0:
276,22,23768,2,0,P|183:23|183:23,1,87.5,10|0,0:0|0:0,0:0:0:0:
389,301,24029,6,0,L|478:298,1,87.5,2|2,0:0|0:0,0:0:0:0:
362,205,24290,1,8,0:0:0:0:
474,192,24420,1,8,0:0:0:0:
276,119,24550,2,0,P|169:113|169:113,1,87.5,2|2,0:0|0:0,0:0:0:0:
301,36,24811,1,8,0:0:0:0:
183,29,24942,1,8,0:0:0:0:
455,261,25072,6,0,P|460:362|460:362,1,87.5,0|0,0:0|0:0,0:0:0:0:
360,254,25333,2,0,B|356:154,1,87.5,8|0,0:0|0:0,0:0:0:0:
256,93,25594,2,0,P|263:206|263:206,1,87.5,0|0,0:0|0:0,0:0:0:0:
165,116,25855,2,0,L|115:117,1,43.75,8|8,0:0|0:0,0:0:0:0:
121,73,25985,2,0,L|175:72,1,43.75,8|8,0:0|0:0,0:0:0:0:
337,312,26116,5,4,0:0:0:0:
428,243,26246,1,0,0:0:0:0:
423,129,26376,1,0,0:0:0:0:
324,72,26507,1,0,0:0:0:0:
176,285,26637,1,8,0:0:0:0:
86,215,26768,1,0,0:0:0:0:
83,101,26898,1,0,0:0:0:0:
177,35,27029,1,0,0:0:0:0:
391,288,27159,6,0,P|394:185|394:185,1,87.5,2|0,0:0|0:0,0:0:0:0:
306,202,27420,2,0,P|203:199|203:199,1,87.5,2|0,0:0|0:0,0:0:0:0:
373,64,27681,2,0,P|372:162|372:162,1,87.5,10|0,0:0|0:0,0:0:0:0:
221,46,27942,2,0,P|309:47|309:47,1,87.5,2|0,0:0|0:0,0:0:0:0:
94,219,28203,6,0,P|90:326|90:326,1,87.5,2|0,0:0|0:0,0:0:0:0:
190,202,28463,2,0,L|283:202,1,87.5,10|0,0:0|0:0,0:0:0:0:
127,111,28724,2,0,P|36:107|36:107,1,87.5,2|0,0:0|0:0,0:0:0:0:
257,41,28985,6,0,P|318:47|380:141,1,175,10|0,0:0|0:0,0:0:0:0:
292,140,29376,1,0,0:0:0:0:
388,212,29507,2,0,L|391:313,1,87.5,8|0,0:0|0:0,0:0:0:0:
283,226,29768,2,0,P|180:225|180:225,1,87.5,0|0,0:0|0:0,0:0:0:0:
335,73,30029,1,8,0:0:0:0:
195,50,30159,1,8,0:0:0:0:
425,323,30290,5,4,0:0:0:0:
337,323,30420,1,0,0:0:0:0:
249,320,30550,1,0,0:0:0:0:
337,323,30681,1,0,0:0:0:0:
195,218,30811,1,8,0:0:0:0:
107,217,30942,1,0,0:0:0:0:
19,212,31072,1,0,0:0:0:0:
107,217,31203,1,0,0:0:0:0:
318,130,31333,6,0,L|319:238,1,87.5,2|0,0:0|0:0,0:0:0:0:
228,74,31594,2,0,P|126:74|126:74,1,87.5,2|0,0:0|0:0,0:0:0:0:
292,269,31855,2,0,B|398:268|398:268|397:268,1,87.5,10|0,0:0|0:0,0:0:0:0:
165,190,32116,2,0,P|103:188|103:188,1,43.75,10|8,0:0|0:0,0:0:0:0:
121,144,32246,2,0,P|171:144|171:144,1,43.75,8|8,0:0|0:0,0:0:0:0:
332,137,32376,6,0,P|437:140|437:140,1,87.5,2|0,0:0|0:0,0:0:0:0:
270,277,32637,2,0,P|171:273|171:273,1,87.5,10|0,0:0|0:0,0:0:0:0:
287,165,32898,2,0,L|280:267,1,87.5,2|0,0:0|0:0,0:0:0:0:
71,152,33159,6,0,P|36:115|122:62,1,175,10|0,0:0|0:0,0:0:0:0:
199,52,33550,1,0,0:0:0:0:
111,260,33681,2,0,P|16:256|16:256,1,87.5,8|0,0:0|0:0,0:0:0:0:
113,175,33942,2,0,P|206:181|206:181,1,87.5,0|0,0:0|0:0,0:0:0:0:
55,49,34203,2,0,P|48:148|48:148,1,87.5,8|0,0:0|0:0,0:0:0:0:
280,279,34463,6,0,L|391:285,1,87.5,12|0,0:0|0:0,0:0:0:0:
227,159,34724,2,0,P|218:259|218:259,1,87.5,8|0,0:0|0:0,0:0:0:0:
372,82,34985,2,0,L|267:76,2,87.5,8|0|8,0:0|0:0|0:0,0:0:0:0:
175,284,35376,6,0,L|62:274,2,87.5,2|2|2,0:0|0:0|0:0,0:0:0:0:
422,186,35768,2,0,P|235:173|235:173,2,175,10|2|10,0:0|0:0|0:0,0:0:0:0:
334,178,36420,1,0,0:0:0:0:
122,297,36550,6,0,P|18:294|18:294,2,87.5,12|0|8,0:0|0:0|0:0,0:0:0:0:
208,261,36942,2,0,L|303:266,1,87.5,0|8,0:0|0:0,0:0:0:0:
140,87,37203,2,0,L|133:180,1,87.5,0|8,0:0|0:0,0:0:0:0:
352,64,37463,6,0,L|346:175,1,87.5,2|2,0:0|0:0,0:0:0:0:
135,282,37724,2,0,P|38:280|38:280,2,87.5,2|10|0,0:0|0:0|0:0,0:0:0:0:
352,215,38116,2,0,P|444:218|444:218,1,87.5,2|0,0:0|0:0,0:0:0:0:
216,132,38376,2,0,P|146:132|146:132,1,43.75,8|8,0:0|0:0,0:0:0:0:
128,130,38507,2,0,P|121:81|121:81,1,43.75,8|8,0:0|0:0,0:0:0:0:
299,318,38637,5,6,0:0:0:0:
386,319,38768,2,0,L|390:221,1,87.5,0|8,0:0|0:0,0:0:0:0:
297,208,39029,2,0,P|197:204|197:204,1,87.5,2|0,0:0|0:0,0:0:0:0:
360,39,39290,2,0,P|453:42|453:42,1,87.5,2|0,0:0|0:0,0:0:0:0:
298,125,39550,2,0,P|196:121|196:121,1,87.5,2|0,0:0|0:0,0:0:0:0:
427,318,39811,6,0,P|470:298|406:217,1,175,10|0,0:0|0:0,0:0:0:0:
269,163,40203,2,0,P|373:158|373:158,1,87.5,2|8,0:0|0:0,0:0:0:0:
207,263,40463,2,0,P|96:270|96:270,1,87.5,2|0,0:0|0:0,0:0:0:0:
335,63,40724,6,0,P|224:71|224:71,2,87.5,6|0|10,0:0|0:0|0:0,0:0:0:0:
236,182,41116,2,0,P|236:290|236:290,1,87.5,2|0,0:0|0:0,0:0:0:0:
382,140,41376,2,0,P|379:45|379:45,1,87.5,0|2,0:0|0:0,0:0:0:0:
230,53,41637,2,0,P|116:56|116:56,1,87.5,2|0,0:0|0:0,0:0:0:0:
358,314,41898,6,0,P|424:274|359:217,1,175,10|0,0:0|0:0,0:0:0:0:
162,163,42290,2,0,P|340:151|340:151,1,175,2|8,0:0|0:0,0:0:0:0:
424,146,42681,1,8,0:0:0:0:
212,316,42811,6,0,P|207:218|207:218,1,87.5,6|0,0:0|0:0,0:0:0:0:
357,102,43072,2,0,P|263:106|263:106,1,87.5,10|2,0:0|0:0,0:0:0:0:
418,238,43333,2,0,P|421:338|421:338,1,87.5,0|0,0:0|0:0,0:0:0:0:
269,180,43594,2,0,L|376:180,1,87.5,10|0,0:0|0:0,0:0:0:0:
141,138,43855,6,0,L|139:43,1,87.5,2|0,0:0|0:0,0:0:0:0:
228,44,44116,2,0,P|321:43|321:43,1,87.5,10|0,0:0|0:0,0:0:0:0:
167,224,44376,2,0,L|163:329,1,87.5,2|0,0:0|0:0,0:0:0:0:
313,213,44637,2,0,L|317:103,1,87.5,10|0,0:0|0:0,0:0:0:0:
103,133,44898,6,0,P|73:89|166:33,1,175,2|8,0:0|0:0,0:0:0:0:
301,319,45290,2,0,P|365:311|397:204,1,175,2|0,0:0|0:0,0:0:0:0:
188,233,45681,2,0,P|134:221|191:157,1,175,10|0,0:0|0:0,0:0:0:0:
273,158,46072,1,0,0:0:0:0:
182,44,46203,6,0,P|176:138|176:138,1,87.5,8|0,0:0|0:0,0:0:0:0:
324,303,46463,2,0,P|331:192|331:192,1,87.5,2|0,0:0|0:0,0:0:0:0:
194,162,46724,1,8,0:0:0:0:
328,104,46855,1,8,0:0:0:0:
115,309,46985,6,0,P|106:251|204:200,1,175,6|8,0:0|0:0,0:0:0:0:
282,203,47376,1,0,0:0:0:0:
378,118,47507,2,0,P|289:110|289:110,1,87.5,0|0,0:0|0:0,0:0:0:0:
381,317,47768,2,0,L|388:229,1,87.5,8|0,0:0|0:0,0:0:0:0:
173,222,48029,6,0,P|144:178|226:102,1,175,2|8,0:0|0:0,0:0:0:0:
364,44,48420,2,0,P|437:59|441:167,1,175,2|0,0:0|0:0,0:0:0:0:
306,210,48811,2,0,B|397:215,1,87.5,10|0,0:0|0:0,0:0:0:0:
179,113,49072,6,0,P|124:145|194:207,1,175,2|8,0:0|0:0,0:0:0:0:
268,214,49463,1,0,0:0:0:0:
168,312,49594,2,0,L|176:206,1,87.5,0|0,0:0|0:0,0:0:0:0:
318,162,49855,2,0,P|413:166|413:166,1,87.5,10|0,0:0|0:0,0:0:0:0:
192,213,50116,5,6,0:0:0:0:
117,167,50246,1,10,0:0:0:0:
117,79,50376,1,10,0:0:0:0:
198,46,50507,1,2,0:0:0:0:
341,288,50637,1,2,0:0:0:0:
254,272,50768,1,2,0:0:0:0:
193,209,50898,1,10,0:0:0:0:
181,121,51029,1,10,0:0:0:0:
400,100,51159,1,2,0:0:0:0:
335,173,51420,6,0,P|440:165|440:165,1,87.5,0|0,0:0|0:0,0:0:0:0:
210,295,51681,2,0,P|148:294|148:294,1,43.75,8|8,0:0|0:0,0:0:0:0:
210,295,51811,2,0,P|274:294|274:294,1,43.75,8|8,0:0|0:0,0:0:0:0:
430,229,51942,2,0,P|440:179|440:179,1,43.75,8|8,0:0|0:0,0:0:0:0:
396,164,52072,2,0,P|348:159|348:159,1,43.75,8|8,0:0|0:0,0:0:0:0:
170,190,52203,6,0,P|120:162|190:105,1,175,6|8,0:0|0:0,0:0:0:0:
335,319,52594,2,0,P|384:316|424:197,1,175,2|0,0:0|0:0,0:0:0:0:
284,225,52985,2,0,P|227:218|176:112,1,175,10|0,0:0|0:0,0:0:0:0:
261,116,53376,1,0,0:0:0:0:
48,298,53507,6,0,P|47:188|47:188,1,87.5,10|0,0:0|0:0,0:0:0:0:
201,183,53768,2,0,L|304:180,1,87.5,2|0,0:0|0:0,0:0:0:0:
139,85,54029,2,0,L|41:90,1,87.5,10|0,0:0|0:0,0:0:0:0:
277,298,54290,6,0,P|340:263|273:216,1,175,2|8,0:0|0:0,0:0:0:0:
130,198,54681,2,0,P|98:157|192:102,1,175,2|0,0:0|0:0,0:0:0:0:
388,321,55072,2,0,P|192:300|192:300,1,175,10|0,0:0|0:0,0:0:0:0:
301,300,55463,1,0,0:0:0:0:
90,199,55594,6,0,P|199:192|199:192,1,87.5,8|8,0:0|0:0,0:0:0:0:
326,80,55855,2,0,P|333:176|333:176,1,87.5,2|0,0:0|0:0,0:0:0:0:
183,61,56116,2,0,P|87:66|87:66,1,87.5,10|8,0:0|0:0,0:0:0:0:
310,316,56376,6,0,P|307:267|199:225,1,175,6|8,0:0|0:0,0:0:0:0:
63,164,56768,2,0,P|73:108|181:73,1,175,2|0,0:0|0:0,0:0:0:0:
316,254,57159,2,0,P|123:243|123:243,1,175,10|0,0:0|0:0,0:0:0:0:
228,249,57550,1,0,0:0:0:0:
441,186,57681,6,0,P|446:76|446:76,1,87.5,10|0,0:0|0:0,0:0:0:0:
296,79,57942,2,0,P|286:180|286:180,1,87.5,2|0,0:0|0:0,0:0:0:0:
437,344,58203,2,0,P|443:247|443:247,1,87.5,10|0,0:0|0:0,0:0:0:0:
231,243,58463,6,0,P|182:212|251:152,1,175,2|8,0:0|0:0,0:0:0:0:
396,98,58855,2,0,P|392:155|287:159,1,175,2|0,0:0|0:0,0:0:0:0:
81,322,59246,2,0,P|109:281|235:281,1,175,10|0,0:0|0:0,0:0:0:0:
312,277,59637,1,0,0:0:0:0:
99,111,59768,6,0,P|92:206|92:206,1,87.5,8|8,0:0|0:0,0:0:0:0:
244,101,60029,2,0,P|349:107|349:107,1,87.5,2|0,0:0|0:0,0:0:0:0:
116,312,60290,2,0,P|62:311|62:311,1,43.75,8|8,0:0|0:0,0:0:0:0:
116,312,60420,2,0,L|183:311,1,43.75,8|8,0:0|0:0,0:0:0:0:
346,269,60550,6,0,P|396:258|336:192,1,175,6|8,0:0|0:0,0:0:0:0:
258,187,60942,1,0,0:0:0:0:
48,81,61072,2,0,P|45:177|45:177,1,87.5,2|0,0:0|0:0,0:0:0:0:
194,58,61333,2,0,P|296:60|296:60,1,87.5,8|0,0:0|0:0,0:0:0:0:
131,278,61594,6,0,L|17:273,1,87.5,0|0,0:0|0:0,0:0:0:0:
192,184,61855,2,0,P|293:187|293:187,1,87.5,8|0,0:0|0:0,0:0:0:0:
124,50,62116,2,0,P|117:164|117:164,1,87.5,2|0,0:0|0:0,0:0:0:0:
271,126,62376,2,0,P|281:22|281:22,1,87.5,10|0,0:0|0:0,0:0:0:0:
67,323,62637,6,0,P|74:266|190:213,1,175,6|8,0:0|0:0,0:0:0:0:
270,212,63029,1,0,0:0:0:0:
406,171,63159,2,0,P|411:72|411:72,1,87.5,2|0,0:0|0:0,0:0:0:0:
258,49,63420,2,0,P|251:140|251:140,1,87.5,8|0,0:0|0:0,0:0:0:0:
403,335,63681,6,0,P|411:234|411:234,1,87.5,0|0,0:0|0:0,0:0:0:0:
259,234,63942,2,0,P|156:230|156:230,1,87.5,8|0,0:0|0:0,0:0:0:0:
325,147,64203,2,0,P|424:152|424:152,1,87.5,0|0,0:0|0:0,0:0:0:0:
271,56,64463,2,0,P|159:51|159:51,1,87.5,8|0,0:0|0:0,0:0:0:0:
400,308,64724,6,0,P|307:302|307:302,2,87.5,6|0|8,0:0|0:0|0:0,0:0:0:0:
246,226,65116,2,0,P|193:214|246:140,1,175,2|0,0:0|0:0,0:0:0:0:
388,156,65507,2,0,P|393:64|393:64,1,87.5,10|0,0:0|0:0,0:0:0:0:
177,290,65768,6,0,P|107:264|176:228,1,175,2|8,0:0|0:0,0:0:0:0:
311,248,66159,2,0,P|368:246|369:134,1,175,2|0,0:0|0:0,0:0:0:0:
234,118,66550,2,0,P|134:108|134:108,1,87.5,10|2,0:0|0:0,0:0:0:0:
365,246,66811,6,0,P|355:339|355:339,1,87.5,6|0,0:0|0:0,0:0:0:0:
206,186,67072,2,0,P|196:287|196:287,1,87.5,8|0,0:0|0:0,0:0:0:0:
348,69,67333,2,0,P|338:173|338:173,1,87.5,0|0,0:0|0:0,0:0:0:0:
190,62,67594,2,0,P|84:55|84:55,1,87.5,8|0,0:0|0:0,0:0:0:0:
318,296,67855,6,0,P|389:288|440:186,1,175,2|0,0:0|0:0,0:0:0:0:
201,214,68246,2,0,P|149:208|99:106,1,175,2|0,0:0|0:0,0:0:0:0:
347,106,68637,2,0,P|446:103|446:103,1,87.5,2|0,0:0|0:0,0:0:0:0:
225,300,68898,6,0,L|105:302,1,104.999996795654,12|0,0:0|0:0,0:0:0:0:
268,208,69159,2,0,P|392:203|392:203,1,104.999996795654,8|0,0:0|0:0,0:0:0:0:
225,123,69420,2,0,L|100:127,1,104.999996795654,8|0,0:0|0:0,0:0:0:0:
269,53,69681,2,0,L|271:158,1,104.999996795654,8|0,0:0|0:0,0:0:0:0:
56,296,69942,6,0,P|166:292|166:292,1,104.999996795654,8|0,0:0|0:0,0:0:0:0:
373,174,70203,2,0,P|258:178|258:178,1,104.999996795654,8|0,0:0|0:0,0:0:0:0:
136,89,70463,2,0,P|138:199|138:199,1,104.999996795654,8|0,0:0|0:0,0:0:0:0:
286,67,70724,2,0,P|408:63|408:63,1,104.999996795654,8|0,0:0|0:0,0:0:0:0:
182,297,70985,6,0,P|178:187|178:187,1,104.999996795654,8|0,0:0|0:0,0:0:0:0:
389,139,71246,2,0,L|282:143,1,104.999996795654,8|0,0:0|0:0,0:0:0:0:
146,82,71507,2,0,L|149:200,1,104.999996795654,8|0,0:0|0:0,0:0:0:0:
298,275,71768,2,0,P|409:270|409:270,1,104.999996795654,8|0,0:0|0:0,0:0:0:0:
183,177,72029,6,0,P|185:294|185:294,1,104.999996795654,8|0,0:0|0:0,0:0:0:0:
332,187,72290,2,0,P|331:67|331:67,1,104.999996795654,10|0,0:0|0:0,0:0:0:0:
187,73,72550,2,0,P|66:75|66:75,1,104.999996795654,10|0,0:0|0:0,0:0:0:0:
304,302,72811,2,0,P|362:302|362:302,1,43.75,8|8,0:0|0:0,0:0:0:0:
392,302,72942,2,0,P|345:301|345:301,1,43.75,8|8,0:0|0:0,0:0:0:0:
143,124,73072,6,0,P|27:119|27:119,1,104.999996795654,12|0,0:0|0:0,0:0:0:0:
261,62,73333,2,0,P|386:69|386:69,1,104.999996795654,8|0,0:0|0:0,0:0:0:0:
208,231,73594,2,0,P|76:225|76:225,1,104.999996795654,8|0,0:0|0:0,0:0:0:0:
251,152,73855,2,0,P|372:159|372:159,1,104.999996795654,8|0,0:0|0:0,0:0:0:0:
147,49,74116,6,0,P|141:157|141:157,1,104.999996795654,8|0,0:0|0:0,0:0:0:0:
351,294,74376,2,0,P|463:299|463:299,1,104.999996795654,8|0,0:0|0:0,0:0:0:0:
324,198,74637,2,0,P|206:191|206:191,1,104.999996795654,8|0,0:0|0:0,0:0:0:0:
362,113,74898,2,0,P|470:119|470:119,1,104.999996795654,10|0,0:0|0:0,0:0:0:0:
237,296,75159,6,0,L|99:290,1,104.999996795654,10|0,0:0|0:0,0:0:0:0:
280,207,75420,2,0,P|398:212|398:212,1,104.999996795654,8|0,0:0|0:0,0:0:0:0:
237,80,75681,2,0,P|230:195|230:195,1,104.999996795654,8|0,0:0|0:0,0:0:0:0:
380,71,75942,2,0,P|491:76|491:76,1,104.999996795654,8|0,0:0|0:0,0:0:0:0:
432,70,76137,1,0,0:0:0:0:
280,296,76203,6,0,B|142:293,2,116.666666666667,10|2|2,0:0|0:0|0:0,0:0:0:0:
428,200,76724,2,0,P|277:196|277:196,2,116.666666666667,2|2|2,0:0|0:0|0:0,0:0:0:0:
187,98,77246,6,0,L|184:199,1,87.5,4|0,0:0|0:0,0:0:0:0:
339,284,77507,2,0,P|446:285|446:285,1,87.5,10|0,0:0|0:0,0:0:0:0:
283,208,77768,2,0,P|174:203|174:203,2,87.5,0|0|10,0:0|0:0|0:0,0:0:0:0:
87,198,78159,6,0,L|82:285,1,87.5,0|0,0:0|0:0,0:0:0:0:
232,119,78420,2,0,P|135:115|135:115,1,87.5,2|8,0:0|0:0,0:0:0:0:
360,270,78681,2,0,P|364:175|364:175,1,87.5,2|0,0:0|0:0,0:0:0:0:
215,191,78942,2,0,P|113:187|113:187,2,87.5,2|8|0,0:0|0:0|0:0,0:0:0:0:
427,166,79333,6,0,P|432:69|432:69,1,87.5,0|0,0:0|0:0,0:0:0:0:
281,73,79594,2,0,L|278:191,1,87.5,10|0,0:0|0:0,0:0:0:0:
429,298,79855,2,0,P|326:297|326:297,1,87.5,0|0,0:0|0:0,0:0:0:0:
192,222,80116,2,0,P|93:224|93:224,1,87.5,10|0,0:0|0:0,0:0:0:0:
322,122,80376,6,0,P|324:238|324:238,1,87.5,2|0,0:0|0:0,0:0:0:0:
201,78,80637,1,10,0:0:0:0:
326,32,80768,1,10,0:0:0:0:
124,310,80898,2,0,L|123:212,1,87.5,0|0,0:0|0:0,0:0:0:0:
244,154,81159,1,10,0:0:0:0:
121,113,81290,1,10,0:0:0:0:
343,220,81420,6,0,L|344:317,1,87.5,4|0,0:0|0:0,0:0:0:0:
192,190,81681,2,0,P|92:193|92:193,2,87.5,10|0|2,0:0|0:0|0:0,0:0:0:0:
345,116,82072,2,0,B|439:111|440:111|440:111,2,87.5,2|8|0,0:0|0:0|0:0,0:0:0:0:
129,245,82463,6,0,P|132:347|132:347,1,87.5,2|0,0:0|0:0,0:0:0:0:
281,177,82724,2,0,L|182:179,1,87.5,10|0,0:0|0:0,0:0:0:0:
344,257,82985,2,0,P|346:358|346:358,1,87.5,2|2,0:0|0:0,0:0:0:0:
196,307,83246,2,0,P|195:206|195:206,1,87.5,8|0,0:0|0:0,0:0:0:0:
408,106,83507,6,0,P|410:212|410:212,1,87.5,0|0,0:0|0:0,0:0:0:0:
261,65,83768,2,0,P|355:64|355:64,1,87.5,10|0,0:0|0:0,0:0:0:0:
199,213,84029,2,0,P|97:215|97:215,1,87.5,2|0,0:0|0:0,0:0:0:0:
263,140,84290,2,0,P|364:139|364:139,1,87.5,10|0,0:0|0:0,0:0:0:0:
137,308,84550,6,0,L|34:310,2,87.5,2|0|10,0:0|0:0|0:0,0:0:0:0:
356,212,84942,2,0,P|256:213|256:213,2,87.5,2|0|2,0:0|0:0|0:0,0:0:0:0:
141,185,85333,2,0,P|138:77|138:77,1,87.5,2|2,0:0|0:0,0:0:0:0:
316,303,85855,6,0,P|320:208|320:208,1,87.5,0|0,0:0|0:0,0:0:0:0:
182,190,86246,1,0,0:0:0:0:
319,41,86507,2,0,P|390:52|292:199,1,350,4|0,0:0|0:0,0:0:0:0:
