osu file format v14

[General]
AudioFilename: Kuusou_Mesorogiwi.mp3
AudioLeadIn: 0
PreviewTime: 51716
Countdown: 0
SampleSet: None
StackLeniency: 0.7
Mode: 2
LetterboxInBreaks: 0
WidescreenStoryboard: 1

[Editor]
DistanceSpacing: 1
BeatDivisor: 4
GridSize: 16
TimelineZoom: 1.6

[Metadata]
Title:Kuusou Mesorogiwi
TitleUnicode:Kuusou Mesorogiwi
Artist:NateWantsToBattle feat. Amanda Lee
ArtistUnicode:NateWantsToBattle feat. Amanda Lee
Creator:Du5t
Version:Platter
Source:未来日記
Tags:Future Diary english cover metal german Yousei Teikoku Mirai Nikki mbomb - Magic Bomb - idust idu5t dust
BeatmapID:1874086
BeatmapSetID:897035

[Difficulty]
HPDrainRate:4
CircleSize:3
OverallDifficulty:8
ApproachRate:8
SliderMultiplier:1.5
SliderTickRate:1

[Events]
//Background and Video events
0,0,"bg.jpg",0,0
//Break Periods
//Storyboard Layer 0 (Background)
//Storyboard Layer 1 (Fail)
//Storyboard Layer 2 (Pass)
//Storyboard Layer 3 (Foreground)
//Storyboard Sound Samples

[TimingPoints]
30,521.739130434783,4,2,22,40,1,0
8377,260.869565217391,4,3,22,80,1,0
16724,-100,4,3,22,70,0,0
25072,-100,4,3,22,55,0,0
25855,-100,4,3,22,50,0,0
26116,-100,4,3,22,60,0,0
28203,-100,4,3,22,70,0,0
30290,-100,4,3,22,60,0,0
32116,-100,4,3,22,50,0,0
32376,-100,4,3,22,70,0,0
34463,-100,4,3,22,80,0,0
38376,-100,4,3,22,50,0,0
38637,-100,4,3,22,60,0,0
42811,-100,4,3,22,70,0,0
51420,-100,4,3,22,40,0,0
51681,-100,4,3,22,50,0,0
52203,-100,4,3,22,80,0,1
60290,-100,4,3,22,50,0,0
60550,-100,4,3,22,80,0,1
67855,-100,4,3,22,70,0,0
68898,-100,4,3,22,90,0,1
72811,-100,4,3,22,50,0,0
73072,-100,4,3,22,90,0,1
76203,-100,4,3,22,70,0,0
77246,-100,4,3,22,80,0,1
85594,-100,4,2,22,40,0,0

[Colours]
Combo1 : 255,40,40
Combo2 : 150,0,0
Combo3 : 255,40,80

[HitObjects]
296,317,30,5,2,0:0:0:0:
335,288,160,1,0,0:0:0:0:
297,251,290,1,0,0:0:0:0:
203,180,551,1,2,0:0:0:0:
204,127,682,1,0,0:0:0:0:
243,92,812,1,0,0:0:0:0:
339,326,1073,5,2,0:0:0:0:
301,301,1203,1,0,0:0:0:0:
277,262,1334,1,0,0:0:0:0:
277,217,1464,1,0,0:0:0:0:
301,179,1595,1,0,0:0:0:0:
332,147,1725,1,0,0:0:0:0:
368,120,1856,1,0,0:0:0:0:
264,321,2116,5,2,0:0:0:0:
226,295,2247,1,0,0:0:0:0:
225,250,2377,1,0,0:0:0:0:
262,225,2508,1,0,0:0:0:0:
300,201,2638,1,0,0:0:0:0:
301,155,2769,1,0,0:0:0:0:
264,128,2899,1,0,0:0:0:0:
158,311,3160,5,2,0:0:0:0:
120,286,3290,1,0,0:0:0:0:
121,240,3421,1,0,0:0:0:0:
271,148,3682,1,2,0:0:0:0:
226,146,3812,1,2,0:0:0:0:
180,144,3943,1,2,0:0:0:0:
419,155,4203,5,4,0:0:0:0:
256,192,4334,12,0,5769,0:0:0:0:
316,304,6290,6,0,P|318:136|318:136,1,150,2|2,0:0|0:0,0:0:0:0:
228,169,7073,1,0,0:0:0:0:
319,127,7334,2,0,L|399:128,1,75,2|2,0:0|0:0,0:0:0:0:
145,294,7856,1,8,0:0:0:0:
90,270,7986,1,8,0:0:0:0:
62,209,8116,1,8,0:0:0:0:
81,155,8247,1,8,0:0:0:0:
290,244,8377,5,6,0:0:0:0:
436,256,8637,2,0,P|361:215|277:213,1,150,10|0,0:0|0:0,0:0:0:0:
375,76,9029,2,0,P|387:177|387:177,1,75,2|8,0:0|0:0,0:0:0:0:
242,296,9290,6,0,P|247:212|247:212,1,75,2|0,0:0|0:0,0:0:0:0:
333,182,9550,2,0,P|414:179|414:179,1,75,2|8,0:0|0:0,0:0:0:0:
322,90,9811,2,0,P|239:93|239:93,2,75,2|0|2,0:0|0:0|0:0,0:0:0:0:
171,308,10203,2,0,L|157:139,1,150,10|0,0:0|0:0,0:0:0:0:
311,211,10724,6,0,P|314:126|314:126,1,75,10|0,0:0|0:0,0:0:0:0:
160,139,11116,2,0,P|163:42|163:42,1,75,2|8,0:0|0:0,0:0:0:0:
433,326,11507,6,0,P|462:291|413:203,1,150,2|8,0:0|0:0,0:0:0:0:
330,207,11898,2,0,P|273:176|325:116,1,150,2|0,0:0|0:0,0:0:0:0:
399,113,12290,2,0,P|321:107|321:107,1,75,10|0,0:0|0:0,0:0:0:0:
111,308,12550,5,6,0:0:0:0:
216,273,12811,2,0,P|219:108|219:108,1,150,10|0,0:0|0:0,0:0:0:0:
136,77,13203,2,0,P|229:78|229:78,1,75,2|8,0:0|0:0,0:0:0:0:
56,193,13463,6,0,P|53:281|53:281,1,75,2|0,0:0|0:0,0:0:0:0:
136,189,13724,2,0,P|225:190|225:190,1,75,2|8,0:0|0:0,0:0:0:0:
133,95,13985,2,0,P|38:93|38:93,2,75,2|0|2,0:0|0:0|0:0,0:0:0:0:
286,328,14376,2,0,P|293:167|293:167,1,150,10|0,0:0|0:0,0:0:0:0:
119,166,14898,6,0,P|110:246|110:246,1,75,10|0,0:0|0:0,0:0:0:0:
261,76,15290,2,0,L|354:81,1,75,2|8,0:0|0:0,0:0:0:0:
68,309,15681,6,0,P|46:298|33:177,1,150,2|8,0:0|0:0,0:0:0:0:
103,219,16072,2,0,P|170:177|112:145,1,150,2|0,0:0|0:0,0:0:0:0:
55,139,16463,2,0,P|134:138|134:138,1,75,10|0,0:0|0:0,0:0:0:0:
347,316,16724,6,0,P|355:155|355:155,1,150,4|10,0:0|0:0,0:0:0:0:
205,84,17246,2,0,P|383:89|383:89,1,150,0|10,0:0|0:0,0:0:0:0:
86,291,17768,6,0,P|6:290|6:290,2,75,2|2|8,0:0|0:0|0:0,0:0:0:0:
168,294,18159,2,0,P|225:275|184:207,1,150,10|0,0:0|0:0,0:0:0:0:
113,206,18550,1,10,0:0:0:0:
263,265,18811,6,0,P|321:226|269:176,1,150,2|10,0:0|0:0,0:0:0:0:
126,186,19333,2,0,P|86:148|158:102,1,150,2|10,0:0|0:0,0:0:0:0:
414,309,19855,6,0,P|494:312|494:312,2,75,2|2|8,0:0|0:0|0:0,0:0:0:0:
266,185,20376,2,0,P|347:186|347:186,2,75,2|2|8,0:0|0:0|0:0,0:0:0:0:
409,114,20898,6,0,P|401:277|401:277,1,150,6|10,0:0|0:0,0:0:0:0:
263,141,21420,2,0,P|92:135|92:135,1,150,2|10,0:0|0:0,0:0:0:0:
384,298,21942,6,0,L|462:299,2,75,2|2|8,0:0|0:0|0:0,0:0:0:0:
309,294,22333,2,0,P|235:273|208:181,1,150,10|0,0:0|0:0,0:0:0:0:
278,207,22724,1,10,0:0:0:0:
121,197,22985,6,0,P|118:39|118:39,1,150,2|10,0:0|0:0,0:0:0:0:
283,64,23507,2,0,L|417:152,1,150,2|10,0:0|0:0,0:0:0:0:
137,284,24029,6,0,L|153:185,1,75,2|2,0:0|0:0,0:0:0:0:
239,198,24290,1,8,0:0:0:0:
390,160,24550,2,0,P|389:69|389:69,1,75,2|2,0:0|0:0,0:0:0:0:
306,86,24811,1,8,0:0:0:0:
155,273,25072,5,0,0:0:0:0:
305,276,25333,1,8,0:0:0:0:
456,286,25594,1,0,0:0:0:0:
322,160,25855,2,0,P|411:147|411:147,1,75,8|8,0:0|0:0,0:0:0:0:
180,287,26116,5,4,0:0:0:0:
112,240,26246,1,0,0:0:0:0:
113,157,26376,1,0,0:0:0:0:
289,237,26637,1,8,0:0:0:0:
325,170,26768,1,0,0:0:0:0:
269,115,26898,1,0,0:0:0:0:
195,94,27029,1,0,0:0:0:0:
340,340,27159,6,0,P|500:328|500:328,1,150,2|2,0:0|0:0,0:0:0:0:
334,96,27681,2,0,P|308:257|308:257,1,150,10|2,0:0|0:0,0:0:0:0:
27,311,28203,6,0,P|23:221|23:221,1,75,2|0,0:0|0:0,0:0:0:0:
98,236,28463,2,0,P|188:234|188:234,2,75,10|0|2,0:0|0:0|0:0,0:0:0:0:
362,278,28985,6,0,P|399:242|340:157,1,150,10|0,0:0|0:0,0:0:0:0:
216,189,29507,2,0,P|158:184|126:89,1,150,8|0,0:0|0:0,0:0:0:0:
265,66,30029,2,0,P|177:61|177:61,1,75,8|8,0:0|0:0,0:0:0:0:
404,331,30290,5,4,0:0:0:0:
478,294,30420,1,0,0:0:0:0:
477,211,30550,1,0,0:0:0:0:
323,170,30811,1,8,0:0:0:0:
246,210,30942,1,0,0:0:0:0:
247,291,31072,1,0,0:0:0:0:
321,329,31203,1,0,0:0:0:0:
168,84,31333,6,0,P|90:232|90:232,1,150,2|2,0:0|0:0,0:0:0:0:
246,210,31855,2,0,P|416:217|416:217,1,150,10|10,0:0|0:0,0:0:0:0:
320,209,32246,1,8,0:0:0:0:
125,209,32376,6,0,P|65:156|114:105,1,150,2|10,0:0|0:0,0:0:0:0:
173,111,32768,2,0,P|88:102|88:102,1,75,0|2,0:0|0:0,0:0:0:0:
369,320,33159,5,10,0:0:0:0:
294,315,33290,2,0,P|178:291|192:190,1,225,0|8,0:0|0:0,0:0:0:0:
308,197,33942,1,0,0:0:0:0:
156,280,34203,2,0,P|154:193|154:193,1,75,8|0,0:0|0:0,0:0:0:0:
368,221,34463,6,0,L|373:135,1,75,12|0,0:0|0:0,0:0:0:0:
290,137,34724,2,0,L|192:131,1,75,8|0,0:0|0:0,0:0:0:0:
303,60,34985,2,0,L|387:63,2,75,8|0|8,0:0|0:0|0:0,0:0:0:0:
458,342,35376,6,0,P|483:298|427:211,1,150,2|2,0:0|0:0,0:0:0:0:
361,220,35768,1,10,0:0:0:0:
210,224,36029,1,2,0:0:0:0:
361,220,36290,2,0,P|361:308|361:308,1,75,10|0,0:0|0:0,0:0:0:0:
165,118,36550,6,0,L|82:111,2,75,12|0|8,0:0|0:0|0:0,0:0:0:0:
245,153,36942,2,0,P|238:235|238:235,1,75,0|8,0:0|0:0,0:0:0:0:
147,328,37203,2,0,P|55:324|55:324,1,75,0|8,0:0|0:0,0:0:0:0:
223,271,37463,6,0,P|298:263|357:187,1,150,2|2,0:0|0:0,0:0:0:0:
272,193,37855,1,10,0:0:0:0:
32,71,38116,2,0,P|194:63|194:63,1,150,2|8,0:0|0:0,0:0:0:0:
99,67,38507,1,8,0:0:0:0:
300,275,38637,6,0,B|400:281,2,75,6|0|8,0:0|0:0|0:0,0:0:0:0:
227,268,39029,1,2,0:0:0:0:
387,188,39290,2,0,P|390:98|390:98,1,75,2|0,0:0|0:0,0:0:0:0:
305,104,39550,2,0,P|215:98|215:98,1,75,2|0,0:0|0:0,0:0:0:0:
396,326,39811,6,0,P|439:302|388:245,1,150,10|0,0:0|0:0,0:0:0:0:
308,174,40203,2,0,P|224:168|224:168,1,75,2|8,0:0|0:0,0:0:0:0:
314,89,40463,2,0,P|400:93|400:93,1,75,2|0,0:0|0:0,0:0:0:0:
189,301,40724,6,0,P|151:269|222:224,1,150,6|10,0:0|0:0,0:0:0:0:
288,162,41116,2,0,P|205:156|205:156,1,75,2|0,0:0|0:0,0:0:0:0:
354,280,41507,2,0,P|271:276|271:276,2,75,2|2|0,0:0|0:0|0:0,0:0:0:0:
199,196,41898,6,0,P|152:161|222:114,1,150,10|0,0:0|0:0,0:0:0:0:
362,199,42290,2,0,P|435:179|425:108,1,150,2|8,0:0|0:0,0:0:0:0:
356,113,42681,1,8,0:0:0:0:
130,308,42811,5,6,0:0:0:0:
260,191,43072,1,10,0:0:0:0:
184,192,43203,1,2,0:0:0:0:
109,192,43333,1,0,0:0:0:0:
231,94,43594,2,0,P|315:92|315:92,1,75,10|0,0:0|0:0,0:0:0:0:
139,326,43855,6,0,P|106:270|178:202,1,150,2|10,0:0|0:0,0:0:0:0:
301,127,44376,2,0,B|130:113|131:113|131:113,1,150,2|10,0:0|0:0,0:0:0:0:
227,113,44768,1,0,0:0:0:0:
423,311,44898,6,0,P|473:294|462:196,1,150,2|8,0:0|0:0,0:0:0:0:
395,181,45290,2,0,P|294:176|294:176,2,75,2|0|0,0:0|0:0|0:0,0:0:0:0:
230,325,45681,6,0,P|186:307|251:179,1,225,10|0,0:0|0:0,0:0:0:0:
310,202,46203,1,8,0:0:0:0:
463,182,46463,2,0,P|478:125|402:63,1,150,2|8,0:0|0:0,0:0:0:0:
343,64,46855,1,8,0:0:0:0:
146,313,46985,6,0,P|95:277|149:225,1,150,6|8,0:0|0:0,0:0:0:0:
303,232,47507,2,0,P|344:229|328:140,1,150,0|8,0:0|0:0,0:0:0:0:
54,197,48029,6,0,P|47:149|135:99,1,150,2|8,0:0|0:0,0:0:0:0:
196,88,48420,2,0,P|198:157|123:190,1,150,2|0,0:0|0:0,0:0:0:0:
54,197,48811,1,10,0:0:0:0:
335,317,49072,6,0,P|390:287|335:228,1,150,2|8,0:0|0:0,0:0:0:0:
276,227,49463,2,0,P|217:195|274:142,1,150,0|0,0:0|0:0,0:0:0:0:
328,125,49855,2,0,L|416:117,1,75,10|0,0:0|0:0,0:0:0:0:
181,312,50116,5,6,0:0:0:0:
102,269,50246,1,10,0:0:0:0:
105,179,50376,1,10,0:0:0:0:
183,134,50507,1,2,0:0:0:0:
331,249,50637,1,2,0:0:0:0:
419,230,50768,1,2,0:0:0:0:
479,164,50898,1,10,0:0:0:0:
487,73,51029,1,10,0:0:0:0:
262,179,51159,1,2,0:0:0:0:
158,174,51420,5,0,0:0:0:0:
413,214,51681,2,0,P|425:313|425:313,1,75,8|8,0:0|0:0,0:0:0:0:
345,142,51942,2,0,P|441:136|441:136,1,75,8|8,0:0|0:0,0:0:0:0:
189,285,52203,6,0,P|141:264|111:170,1,150,6|8,0:0|0:0,0:0:0:0:
277,193,52594,2,0,P|324:196|367:112,1,150,2|0,0:0|0:0,0:0:0:0:
198,324,52985,2,0,P|177:274|263:222,1,150,10|0,0:0|0:0,0:0:0:0:
394,211,53507,6,0,B|405:121|405:121|405:120,1,75,10|0,0:0|0:0,0:0:0:0:
321,78,53768,2,0,P|229:74|229:74,1,75,2|0,0:0|0:0,0:0:0:0:
323,295,54029,2,0,P|423:299|423:299,1,75,10|0,0:0|0:0,0:0:0:0:
189,231,54290,6,0,P|127:215|118:123,1,150,2|8,0:0|0:0,0:0:0:0:
269,157,54681,2,0,P|310:136|250:74,1,150,2|0,0:0|0:0,0:0:0:0:
102,308,55072,2,0,L|258:248,1,150,10|0,0:0|0:0,0:0:0:0:
99,174,55594,6,0,P|181:171|181:171,1,75,8|8,0:0|0:0,0:0:0:0:
342,185,55855,2,0,P|340:99|340:99,1,75,2|0,0:0|0:0,0:0:0:0:
258,71,56116,2,0,P|156:73|156:73,1,75,10|8,0:0|0:0,0:0:0:0:
391,322,56376,6,0,P|440:306|404:221,1,150,6|8,0:0|0:0,0:0:0:0:
260,237,56768,2,0,P|226:215|280:153,1,150,2|0,0:0|0:0,0:0:0:0:
442,120,57159,2,0,P|417:73|317:56,1,150,10|0,0:0|0:0,0:0:0:0:
182,297,57681,6,0,P|181:214|181:214,1,75,10|0,0:0|0:0,0:0:0:0:
266,221,57942,2,0,L|265:141,1,75,2|0,0:0|0:0,0:0:0:0:
185,127,58203,2,0,P|99:128|99:128,1,75,10|0,0:0|0:0,0:0:0:0:
323,308,58463,6,0,P|349:237|281:223,1,150,2|8,0:0|0:0,0:0:0:0:
128,232,58855,2,0,P|113:192|187:122,1,150,2|0,0:0|0:0,0:0:0:0:
342,60,59246,2,0,P|185:53|185:53,1,150,10|0,0:0|0:0,0:0:0:0:
347,254,59768,6,0,P|263:246|263:246,1,75,8|8,0:0|0:0,0:0:0:0:
356,153,60029,2,0,P|349:243|349:243,1,75,2|0,0:0|0:0,0:0:0:0:
275,72,60290,2,0,P|362:79|362:79,1,75,8|8,0:0|0:0,0:0:0:0:
139,309,60550,6,0,P|95:286|156:220,1,150,6|8,0:0|0:0,0:0:0:0:
299,195,61072,2,0,P|358:169|301:110,1,150,2|8,0:0|0:0,0:0:0:0:
159,152,61594,6,0,P|133:113|218:73,1,150,0|8,0:0|0:0,0:0:0:0:
468,316,62116,2,0,P|470:229|470:229,1,75,2|0,0:0|0:0,0:0:0:0:
391,158,62376,2,0,P|479:160|479:160,1,75,10|0,0:0|0:0,0:0:0:0:
246,291,62637,6,0,P|187:261|231:184,1,150,6|8,0:0|0:0,0:0:0:0:
366,191,63159,2,0,P|371:140|290:95,1,150,2|8,0:0|0:0,0:0:0:0:
138,210,63681,2,0,P|104:173|171:132,1,150,0|8,0:0|0:0,0:0:0:0:
317,289,64203,2,0,P|385:281|426:192,1,150,0|8,0:0|0:0,0:0:0:0:
351,208,64594,1,0,0:0:0:0:
137,132,64724,6,0,P|52:127|52:127,2,75,6|0|8,0:0|0:0|0:0,0:0:0:0:
212,135,65116,2,0,P|256:154|222:241,1,150,2|0,0:0|0:0,0:0:0:0:
160,227,65507,1,10,0:0:0:0:
429,231,65768,6,0,P|435:77|435:77,1,150,2|8,0:0|0:0,0:0:0:0:
359,74,66159,2,0,P|447:77|447:77,1,75,2|2,0:0|0:0,0:0:0:0:
285,247,66550,2,0,P|189:241|189:241,1,75,10|2,0:0|0:0,0:0:0:0:
421,315,66811,6,0,P|467:293|413:237,1,150,6|8,0:0|0:0,0:0:0:0:
268,161,67333,2,0,L|417:106,1,150,0|8,0:0|0:0,0:0:0:0:
104,288,67855,5,2,0:0:0:0:
283,287,68246,1,2,0:0:0:0:
104,288,68637,1,2,0:0:0:0:
450,245,68898,6,0,P|454:162|454:162,1,75,12|0,0:0|0:0,0:0:0:0:
374,136,69159,2,0,P|280:134|280:134,1,75,8|0,0:0|0:0,0:0:0:0:
381,63,69420,2,0,P|471:65|471:65,1,75,8|0,0:0|0:0,0:0:0:0:
365,259,69681,2,0,P|272:258|272:258,2,75,8|0|8,0:0|0:0|0:0,0:0:0:0:
97,204,70203,6,0,P|97:118|97:118,1,75,8|0,0:0|0:0,0:0:0:0:
177,132,70463,2,0,P|176:39|176:39,1,75,8|0,0:0|0:0,0:0:0:0:
96,301,70724,2,0,B|184:298,2,75,8|0|8,0:0|0:0|0:0,0:0:0:0:
366,239,71246,6,0,L|367:150,1,75,8|0,0:0|0:0,0:0:0:0:
290,122,71507,2,0,P|289:219|289:219,1,75,8|0,0:0|0:0,0:0:0:0:
370,80,71768,2,0,L|460:81,2,75,8|0|8,0:0|0:0|0:0,0:0:0:0:
203,280,72290,6,0,L|200:192,1,75,10|0,0:0|0:0,0:0:0:0:
276,138,72550,2,0,L|189:136,1,75,10|0,0:0|0:0,0:0:0:0:
126,116,72811,2,0,P|40:119|40:119,1,75,8|8,0:0|0:0,0:0:0:0:
273,239,73072,6,0,L|275:331,1,75,12|0,0:0|0:0,0:0:0:0:
198,179,73333,2,0,L|93:181,1,75,8|0,0:0|0:0,0:0:0:0:
189,78,73594,2,0,P|192:159|192:159,1,75,8|0,0:0|0:0,0:0:0:0:
109,45,73855,2,0,P|20:53|20:53,2,75,8|0|8,0:0|0:0|0:0,0:0:0:0:
380,282,74376,6,0,P|383:187|383:187,1,75,8|0,0:0|0:0,0:0:0:0:
303,141,74637,2,0,P|212:139|212:139,1,75,8|0,0:0|0:0,0:0:0:0:
313,59,74898,2,0,P|397:61|397:61,1,75,10|0,0:0|0:0,0:0:0:0:
172,286,75159,6,0,P|171:195|171:195,1,75,10|0,0:0|0:0,0:0:0:0:
253,173,75420,2,0,P|169:170|169:170,1,75,8|0,0:0|0:0,0:0:0:0:
97,87,75681,2,0,L|13:83,2,75,8|0|8,0:0|0:0|0:0,0:0:0:0:
368,296,76203,6,0,L|486:303,2,100,10|2|2,0:0|0:0|0:0,0:0:0:0:
268,210,76724,2,0,L|161:260,2,112.5,2|2|2,0:0|0:0|0:0,0:0:0:0:
26,200,77246,5,4,0:0:0:0:
157,300,77507,2,0,P|167:219|167:219,1,75,10|0,0:0|0:0,0:0:0:0:
90,140,77768,2,0,P|176:136|176:136,2,75,0|0|10,0:0|0:0|0:0,0:0:0:0:
246,226,78159,6,0,P|312:201|268:131,1,150,0|2,0:0|0:0,0:0:0:0:
214,144,78550,1,8,0:0:0:0:
366,317,78681,2,0,P|439:315|465:238,1,150,2|2,0:0|0:0,0:0:0:0:
391,253,79072,1,8,0:0:0:0:
120,195,79333,6,0,P|116:104|116:104,1,75,0|0,0:0|0:0,0:0:0:0:
200,68,79594,2,0,P|291:64|291:64,1,75,10|0,0:0|0:0,0:0:0:0:
196,282,79855,2,0,L|276:277,2,75,0|0|10,0:0|0:0|0:0,0:0:0:0:
467,257,80376,6,0,L|470:168,1,75,2|0,0:0|0:0,0:0:0:0:
394,116,80637,2,0,P|478:116|478:116,1,75,10|10,0:0|0:0,0:0:0:0:
316,207,80898,2,0,P|313:291|313:291,1,75
390,137,81159,2,0,L|307:133,1,75,10|10,0:0|0:0,0:0:0:0:
96,270,81420,6,0,L|10:269,1,75
96,270,81681,2,0,L|180:269,1,75,10|0,0:0|0:0,0:0:0:0:
245,269,81942,1,0,0:0:0:0:
170,269,82072,2,0,L|258:268,1,75,2|8,0:0|0:0,0:0:0:0:
21,325,82463,6,0,P|33:243|33:243,1,75,2|0,0:0|0:0,0:0:0:0:
127,188,82724,2,0,P|42:185|42:185,1,75,10|0,0:0|0:0,0:0:0:0:
216,306,82985,2,0,P|274:295|296:202,1,150,2|8,0:0|0:0,0:0:0:0:
29,145,83507,6,0,P|30:60|30:60,1,75,0|0,0:0|0:0,0:0:0:0:
116,62,83768,2,0,P|206:59|206:59,1,75,10|0,0:0|0:0,0:0:0:0:
31,210,84029,2,0,P|37:269|136:273,1,150,2|10,0:0|0:0,0:0:0:0:
190,284,84420,1,0,0:0:0:0:
402,182,84550,6,0,L|489:184,2,75,2|0|10,0:0|0:0|0:0,0:0:0:0:
170,118,84942,2,0,P|69:115|69:115,2,75,2|0|2,0:0|0:0|0:0,0:0:0:0:
323,108,85333,2,0,P|331:193|331:193,1,75,2|2,0:0|0:0,0:0:0:0:
149,300,85855,6,0,P|147:202|147:202,1,75,0|0,0:0|0:0,0:0:0:0:
275,199,86246,1,0,0:0:0:0:
147,254,86507,2,0,P|89:227|187:83,1,300,4|0,0:0|0:0,0:0:0:0:
