osu file format v14

[General]
AudioFilename: Kuusou_Mesorogiwi.mp3
AudioLeadIn: 0
PreviewTime: 51716
Countdown: 0
SampleSet: None
StackLeniency: 0.7
Mode: 2
LetterboxInBreaks: 0
WidescreenStoryboard: 1

[Editor]
DistanceSpacing: 1
BeatDivisor: 4
GridSize: 16
TimelineZoom: 1.6

[Metadata]
Title:Kuusou Mesorogiwi
TitleUnicode:Kuusou Mesorogiwi
Artist:NateWantsToBattle feat. Amanda Lee
ArtistUnicode:NateWantsToBattle feat. Amanda Lee
Creator:Du5t
Version:Overdose
Source:未来日記
Tags:Future Diary english cover metal german Yousei Teikoku Mirai Nikki mbomb - Magic Bomb - idust idu5t dust
BeatmapID:1874085
BeatmapSetID:897035

[Difficulty]
HPDrainRate:6
CircleSize:3.8
OverallDifficulty:9.4
ApproachRate:9.4
SliderMultiplier:2
SliderTickRate:2

[Events]
//Background and Video events
0,0,"bg.jpg",0,0
//Break Periods
//Storyboard Layer 0 (Background)
//Storyboard Layer 1 (Fail)
//Storyboard Layer 2 (Pass)
//Storyboard Layer 3 (Foreground)
//Storyboard Sound Samples

[TimingPoints]
30,521.739130434783,4,2,22,40,1,0
8377,260.869565217391,4,3,22,80,1,0
16724,-100,4,3,22,70,0,0
25072,-100,4,3,22,55,0,0
25855,-100,4,3,22,50,0,0
26116,-100,4,3,22,60,0,0
28203,-100,4,3,22,70,0,0
30290,-100,4,3,22,60,0,0
32116,-100,4,3,22,50,0,0
32376,-100,4,3,22,70,0,0
34463,-100,4,3,22,80,0,0
38376,-100,4,3,22,50,0,0
38637,-100,4,3,22,60,0,0
42811,-100,4,3,22,70,0,0
51420,-100,4,3,22,40,0,0
51681,-80,4,3,22,50,0,0
52203,-100,4,3,22,80,0,1
60290,-100,4,3,22,50,0,0
60550,-100,4,3,22,80,0,1
67855,-100,4,3,22,70,0,0
68898,-83.3333333333333,4,3,22,90,0,1
72811,-83.3333333333333,4,3,22,50,0,0
73072,-83.3333333333333,4,3,22,90,0,1
76203,-100,4,3,22,70,0,0
77246,-100,4,3,22,80,0,1
85594,-100,4,2,22,40,0,0

[Colours]
Combo1 : 255,40,40
Combo2 : 150,0,0
Combo3 : 255,40,80

[HitObjects]
334,273,30,5,2,0:0:0:0:
383,253,160,1,0,0:0:0:0:
414,211,290,1,0,0:0:0:0:
405,159,421,1,0,0:0:0:0:
254,168,551,1,2,0:0:0:0:
304,157,682,1,0,0:0:0:0:
354,149,812,1,0,0:0:0:0:
290,159,943,1,0,0:0:0:0:
132,304,1073,5,2,0:0:0:0:
90,276,1203,1,0,0:0:0:0:
74,228,1334,1,0,0:0:0:0:
79,178,1464,1,0,0:0:0:0:
97,131,1595,1,0,0:0:0:0:
133,96,1725,1,0,0:0:0:0:
175,69,1856,1,0,0:0:0:0:
224,66,1986,1,0,0:0:0:0:
369,312,2116,5,2,0:0:0:0:
418,300,2247,1,0,0:0:0:0:
459,272,2377,1,0,0:0:0:0:
481,227,2508,1,0,0:0:0:0:
483,177,2638,1,0,0:0:0:0:
464,130,2769,1,0,0:0:0:0:
423,101,2899,1,0,0:0:0:0:
374,88,3030,1,0,0:0:0:0:
223,300,3160,5,2,0:0:0:0:
181,271,3290,1,0,0:0:0:0:
165,223,3421,1,0,0:0:0:0:
165,173,3551,1,0,0:0:0:0:
318,145,3682,1,2,0:0:0:0:
332,97,3812,1,2,0:0:0:0:
175,105,3943,1,2,0:0:0:0:
161,57,4073,1,2,0:0:0:0:
374,290,4203,5,4,0:0:0:0:
256,192,4334,12,0,5769,0:0:0:0:
374,290,6290,5,2,0:0:0:0:
202,213,6812,2,0,L|195:105,1,100,2|0,0:0|0:0,0:0:0:0:
403,80,7334,2,0,L|282:86,1,100,2|2,0:0|0:0,0:0:0:0:
99,283,7856,1,8,0:0:0:0:
170,289,7986,1,8,0:0:0:0:
80,224,8116,1,8,0:0:0:0:
41,156,8247,1,8,0:0:0:0:
404,287,8377,6,0,L|415:177,1,100,6|0,0:0|0:0,0:0:0:0:
274,180,8637,2,0,L|147:172,2,100,10|0|0,0:0|0:0|0:0,0:0:0:0:
493,105,9029,2,0,L|486:211,1,100,2|8,0:0|0:0,0:0:0:0:
255,258,9290,6,0,L|133:253,1,100,2|0,0:0|0:0,0:0:0:0:
368,180,9550,2,0,L|481:184,1,100,2|8,0:0|0:0,0:0:0:0:
231,80,9811,2,0,L|347:83,2,100,2|0|2,0:0|0:0|0:0,0:0:0:0:
458,313,10203,2,0,P|465:208|465:208,1,100,10|0,0:0|0:0,0:0:0:0:
254,257,10463,6,0,P|136:252|136:252,1,100,0|0,0:0|0:0,0:0:0:0:
296,157,10724,2,0,L|407:160,2,100,10|0|0,0:0|0:0|0:0,0:0:0:0:
80,48,11116,2,0,L|75:162,1,100,2|8,0:0|0:0,0:0:0:0:
316,189,11376,2,0,L|322:134,1,50,2|0,0:0|0:0,0:0:0:0:
151,267,11507,6,0,P|35:263|35:263,2,100,2|0|8,0:0|0:0|0:0,0:0:0:0:
291,270,11898,2,0,L|402:274,2,100,2|0|0,0:0|0:0|0:0,0:0:0:0:
147,68,12290,2,0,L|142:184,1,100,10|0,0:0|0:0,0:0:0:0:
380,184,12550,6,0,L|385:69,1,100,6|0,0:0|0:0,0:0:0:0:
244,216,12811,2,0,L|131:210,2,100,10|0|0,0:0|0:0|0:0,0:0:0:0:
458,119,13203,2,0,P|337:113|337:113,1,100,2|8,0:0|0:0,0:0:0:0:
132,304,13463,6,0,L|254:309,1,100,2|0,0:0|0:0,0:0:0:0:
455,202,13724,2,0,P|336:194|336:194,1,100,2|8,0:0|0:0,0:0:0:0:
133,91,13985,2,0,L|243:95,2,100,2|0|2,0:0|0:0|0:0,0:0:0:0:
366,322,14376,2,0,P|373:211|373:211,1,100,10|0,0:0|0:0,0:0:0:0:
143,213,14637,6,0,P|23:206|23:206,1,100,0|0,0:0|0:0,0:0:0:0:
188,146,14898,2,0,P|195:35|195:35,1,100,10|0,0:0|0:0,0:0:0:0:
90,58,15159,1,0,0:0:0:0:
309,296,15290,2,0,L|412:300,1,100,2|8,0:0|0:0,0:0:0:0:
196,214,15550,2,0,B|183:271,1,50,2|0,0:0|0:0,0:0:0:0:
352,170,15681,6,0,L|460:174,2,100,2|0|8,0:0|0:0|0:0,0:0:0:0:
209,93,16072,2,0,L|320:89,2,100,2|0|0,0:0|0:0|0:0,0:0:0:0:
420,307,16463,2,0,B|417:192,1,100,10|0,0:0|0:0,0:0:0:0:
199,288,16724,1,4,0:0:0:0:
94,285,16855,2,0,L|113:175,1,100,0|10,0:0|0:0,0:0:0:0:
220,189,17116,1,8,0:0:0:0:
366,173,17246,2,0,L|471:169,1,100
323,56,17507,2,0,L|218:60,1,100,10|0,0:0|0:0,0:0:0:0:
438,310,17768,6,0,P|323:304|323:304,2,100,2|2|8,0:0|0:0|0:0,0:0:0:0:
294,218,18159,2,0,L|494:230,1,200,10|0,0:0|0:0,0:0:0:0:
345,115,18550,2,0,L|245:110,1,100,10|0,0:0|0:0,0:0:0:0:
463,323,18811,2,0,L|478:217,1,100,2|0,0:0|0:0,0:0:0:0:
328,159,19072,2,0,L|441:154,1,100,10|8,0:0|0:0,0:0:0:0:
181,187,19333,2,0,L|195:83,1,100,2|0,0:0|0:0,0:0:0:0:
332,119,19594,2,0,P|343:9|343:9,1,100,10|0,0:0|0:0,0:0:0:0:
110,313,19855,6,0,P|106:207|106:207,1,100,2|2,0:0|0:0,0:0:0:0:
247,213,20116,1,8,0:0:0:0:
107,132,20246,1,8,0:0:0:0:
321,157,20376,2,0,B|327:263,1,100,2|2,0:0|0:0,0:0:0:0:
184,127,20637,1,8,0:0:0:0:
325,56,20767,1,8,0:0:0:0:
110,313,20898,6,0,L|104:201,1,100,6|0,0:0|0:0,0:0:0:0:
253,164,21159,2,0,L|139:153,1,100,10|8,0:0|0:0,0:0:0:0:
397,65,21420,2,0,P|287:54|287:54,1,100,2|0,0:0|0:0,0:0:0:0:
156,126,21681,2,0,L|260:138,1,100,10|0,0:0|0:0,0:0:0:0:
472,317,21942,6,0,L|347:304,2,100,2|2|8,0:0|0:0|0:0,0:0:0:0:
237,220,22333,2,0,P|138:209|167:105,1,200,10|0,0:0|0:0,0:0:0:0:
274,135,22724,2,0,L|389:144,1,100,10|0,0:0|0:0,0:0:0:0:
155,363,22985,2,0,L|37:358,1,100,2|0,0:0|0:0,0:0:0:0:
205,258,23246,2,0,L|84:255,1,100,10|8,0:0|0:0,0:0:0:0:
311,168,23507,2,0,P|330:43|330:43,1,100,2|0,0:0|0:0,0:0:0:0:
183,47,23768,2,0,B|164:172,1,100,10|0,0:0|0:0,0:0:0:0:
388,214,24029,6,0,L|375:313,1,100,2|2,0:0|0:0,0:0:0:0:
240,298,24290,1,8,0:0:0:0:
110,299,24420,1,8,0:0:0:0:
322,80,24550,2,0,L|311:179,1,100,2|2,0:0|0:0,0:0:0:0:
179,81,24811,1,8,0:0:0:0:
47,83,24942,1,8,0:0:0:0:
280,330,25072,6,0,P|383:325|383:325,1,100,0|0,0:0|0:0,0:0:0:0:
236,246,25333,2,0,P|238:135|238:135,1,100,8|0,0:0|0:0,0:0:0:0:
358,58,25594,2,0,L|357:180,1,100,0|0,0:0|0:0,0:0:0:0:
114,291,25855,2,0,P|180:291|180:291,1,50,8|8,0:0|0:0,0:0:0:0:
366,297,25985,2,0,B|437:297|437:297,1,50,8|8,0:0|0:0,0:0:0:0:
179,207,26116,5,4,0:0:0:0:
93,155,26246,1,0,0:0:0:0:
117,58,26376,1,0,0:0:0:0:
215,40,26507,1,0,0:0:0:0:
374,219,26637,1,8,0:0:0:0:
464,173,26768,1,0,0:0:0:0:
480,74,26898,1,0,0:0:0:0:
389,29,27029,1,0,0:0:0:0:
177,364,27159,6,0,L|174:253,1,100,2|0,0:0|0:0,0:0:0:0:
315,247,27420,2,0,L|415:241,1,100,2|0,0:0|0:0,0:0:0:0:
262,179,27681,2,0,P|258:65|258:65,1,100,10|0,0:0|0:0,0:0:0:0:
393,58,27942,2,0,L|492:50,1,100,2|0,0:0|0:0,0:0:0:0:
255,305,28203,6,0,L|139:311,1,100,2|0,0:0|0:0,0:0:0:0:
298,223,28463,2,0,L|401:218,1,100,10|0,0:0|0:0,0:0:0:0:
256,135,28724,2,0,L|250:22,1,100,2|0,0:0|0:0,0:0:0:0:
463,318,28985,6,0,P|486:267|378:170,1,200,10|0,0:0|0:0,0:0:0:0:
303,170,29376,1,0,0:0:0:0:
160,292,29507,2,0,P|159:175|159:175,1,100,8|0,0:0|0:0,0:0:0:0:
300,303,29768,2,0,L|298:193,1,100,0|0,0:0|0:0,0:0:0:0:
157,114,30029,1,8,0:0:0:0:
300,82,30159,1,8,0:0:0:0:
88,299,30290,5,4,0:0:0:0:
52,206,30420,1,0,0:0:0:0:
100,119,30550,1,0,0:0:0:0:
196,90,30681,1,0,0:0:0:0:
355,315,30811,1,8,0:0:0:0:
435,254,30942,1,0,0:0:0:0:
457,156,31072,1,0,0:0:0:0:
397,74,31203,1,0,0:0:0:0:
167,307,31333,6,0,L|43:301,1,100,2|0,0:0|0:0,0:0:0:0:
206,228,31594,2,0,P|213:116|213:116,1,100,2|0,0:0|0:0,0:0:0:0:
358,89,31855,2,0,L|459:95,1,100,10|0,0:0|0:0,0:0:0:0:
251,304,32116,2,0,L|201:304,1,50,10|8,0:0|0:0,0:0:0:0:
434,228,32246,2,0,B|487:228,1,50,8|8,0:0|0:0,0:0:0:0:
263,224,32376,6,0,L|266:112,1,100,2|0,0:0|0:0,0:0:0:0:
406,75,32637,2,0,L|404:195,1,100,10|0,0:0|0:0,0:0:0:0:
263,324,32898,2,0,L|142:320,1,100,2|0,0:0|0:0,0:0:0:0:
377,244,33159,2,0,L|161:231,1,200,10|0,0:0|0:0,0:0:0:0:
278,235,33550,1,0,0:0:0:0:
420,158,33681,6,0,P|426:45|426:45,1,100,8|0,0:0|0:0,0:0:0:0:
279,51,33942,2,0,L|273:160|273:160,1,100,0|0,0:0|0:0,0:0:0:0:
417,331,34203,2,0,L|425:207,1,100,8|0,0:0|0:0,0:0:0:0:
192,216,34463,6,0,P|75:212|75:212,1,100,12|0,0:0|0:0,0:0:0:0:
314,144,34724,2,0,P|439:148|439:148,1,100,8|0,0:0|0:0,0:0:0:0:
192,91,34985,2,0,P|71:86|71:86,2,100,8|0|8,0:0|0:0|0:0,0:0:0:0:
405,292,35376,6,0,P|293:288|293:288,2,100,2|2|2,0:0|0:0|0:0,0:0:0:0:
177,161,35768,2,0,L|387:169,2,200,10|2|10,0:0|0:0|0:0,0:0:0:0:
76,157,36420,1,0,0:0:0:0:
302,287,36550,6,0,P|331:182|331:182,1,100,12|0,0:0|0:0,0:0:0:0:
110,56,36811,2,0,B|112:47|83:152,1,100,8|0,0:0|0:0,0:0:0:0:
302,140,37072,2,0,L|425:142,2,100,8|0|8,0:0|0:0|0:0,0:0:0:0:
98,295,37463,6,0,L|117:178,1,100,2|2,0:0|0:0,0:0:0:0:
342,178,37724,2,0,L|224:165,2,100,2|10|0,0:0|0:0|0:0,0:0:0:0:
121,69,38116,2,0,L|102:171,1,100,2|0,0:0|0:0,0:0:0:0:
308,289,38376,2,0,L|380:289,1,50,8|8,0:0|0:0,0:0:0:0:
152,244,38507,2,0,L|96:243,1,50,8|8,0:0|0:0,0:0:0:0:
358,166,38637,6,0,L|474:160,1,100,6|0,0:0|0:0,0:0:0:0:
403,153,38898,1,8,0:0:0:0:
249,237,39029,2,0,L|352:227,1,100,2|0,0:0|0:0,0:0:0:0:
494,291,39290,2,0,P|483:175|483:175,1,100,2|0,0:0|0:0,0:0:0:0:
340,107,39550,2,0,P|457:102|457:102,1,100,2|0,0:0|0:0,0:0:0:0:
211,232,39811,6,0,L|434:218,1,200,10|0,0:0|0:0,0:0:0:0:
262,145,40203,2,0,P|154:152|154:152,1,100,2|8,0:0|0:0,0:0:0:0:
304,64,40463,2,0,L|419:57,1,100,2|0,0:0|0:0,0:0:0:0:
188,289,40724,6,0,L|307:284,2,100,6|0|10,0:0|0:0|0:0,0:0:0:0:
331,201,41116,2,0,L|321:99,1,100,2|0,0:0|0:0,0:0:0:0:
182,62,41376,2,0,P|69:69|69:69,1,100,0|2,0:0|0:0,0:0:0:0:
302,274,41637,2,0,L|406:266,1,100,2|0,0:0|0:0,0:0:0:0:
178,255,41898,6,0,P|113:236|118:107,1,200,10|0,0:0|0:0,0:0:0:0:
320,175,42290,2,0,P|350:126|244:70,1,200,2|8,0:0|0:0,0:0:0:0:
150,62,42681,1,8,0:0:0:0:
369,319,42811,6,0,P|372:212|372:212,1,100,6|0,0:0|0:0,0:0:0:0:
231,204,43072,2,0,L|120:199,1,100,10|2,0:0|0:0,0:0:0:0:
272,108,43333,2,0,L|371:112,1,100,0|0,0:0|0:0,0:0:0:0:
229,267,43594,2,0,L|225:373,1,100,10|0,0:0|0:0,0:0:0:0:
439,244,43855,6,0,L|444:133,1,100,2|0,0:0|0:0,0:0:0:0:
301,179,44116,2,0,L|305:65,1,100,10|0,0:0|0:0,0:0:0:0:
85,319,44376,2,0,L|91:195,1,100,2|0,0:0|0:0,0:0:0:0:
303,323,44637,2,0,L|308:209,1,100,10|0,0:0|0:0,0:0:0:0:
86,213,44898,6,0,P|38:160|136:114,1,200,2|8,0:0|0:0,0:0:0:0:
270,207,45290,2,0,P|359:189|383:62,1,200,2|0,0:0|0:0,0:0:0:0:
181,316,45681,2,0,P|117:276|206:214,1,200,10|0,0:0|0:0,0:0:0:0:
283,210,46072,1,0,0:0:0:0:
429,191,46203,6,0,P|433:80|433:80,1,100,8|0,0:0|0:0,0:0:0:0:
286,265,46463,2,0,L|282:369,1,100,2|0,0:0|0:0,0:0:0:0:
494,239,46724,1,8,0:0:0:0:
281,135,46855,1,8,0:0:0:0:
490,324,46985,6,0,P|488:256|388:173,1,200,6|8,0:0|0:0,0:0:0:0:
299,190,47376,1,0,0:0:0:0:
159,117,47507,2,0,P|155:228|155:228,1,100,0|0,0:0|0:0,0:0:0:0:
303,360,47768,2,0,P|309:251|309:251,1,100,8|0,0:0|0:0,0:0:0:0:
88,311,48029,6,0,P|64:253|171:210,1,200,2|8,0:0|0:0,0:0:0:0:
306,120,48420,2,0,L|86:106,1,200,2|0,0:0|0:0,0:0:0:0:
243,214,48811,2,0,L|363:221,1,100,10|0,0:0|0:0,0:0:0:0:
112,228,49072,6,0,P|73:164|176:105,1,200,2|8,0:0|0:0,0:0:0:0:
257,109,49463,1,0,0:0:0:0:
120,333,49594,2,0,P|126:209|126:209,1,100,0|0,0:0|0:0,0:0:0:0:
268,164,49855,2,0,L|367:167,1,100,10|0,0:0|0:0,0:0:0:0:
145,237,50116,5,6,0:0:0:0:
46,189,50246,1,10,0:0:0:0:
74,83,50376,1,10,0:0:0:0:
184,76,50507,1,2,0:0:0:0:
325,213,50637,1,2,0:0:0:0:
215,198,50768,1,2,0:0:0:0:
119,144,50898,1,10,0:0:0:0:
84,39,51029,1,10,0:0:0:0:
364,313,51159,1,2,0:0:0:0:
194,311,51420,6,0,L|215:203,1,100,0|0,0:0|0:0,0:0:0:0:
486,74,51681,2,0,L|406:72,1,62.5,8|8,0:0|0:0,0:0:0:0:
283,66,51811,2,0,L|211:64,1,62.5,8|8,0:0|0:0,0:0:0:0:
20,225,51942,2,0,P|96:227|96:227,1,62.5,8|8,0:0|0:0,0:0:0:0:
247,237,52072,2,0,L|320:239,1,62.5,8|8,0:0|0:0,0:0:0:0:
99,155,52203,6,0,P|39:103|130:65,1,200,6|8,0:0|0:0,0:0:0:0:
338,327,52594,2,0,P|410:307|467:183,1,200,2|0,0:0|0:0,0:0:0:0:
246,197,52985,2,0,P|260:129|375:97,1,200,10|0,0:0|0:0,0:0:0:0:
470,111,53376,1,0,0:0:0:0:
243,334,53507,6,0,L|129:328,1,100,10|0,0:0|0:0,0:0:0:0:
284,240,53768,2,0,P|404:246|404:246,1,100,2|0,0:0|0:0,0:0:0:0:
147,127,54029,2,0,P|35:121|35:121,1,100,10|0,0:0|0:0,0:0:0:0:
274,164,54290,6,0,P|360:138|413:26,1,200,2|8,0:0|0:0,0:0:0:0:
187,313,54681,2,0,P|124:283|205:239,1,200,2|0,0:0|0:0,0:0:0:0:
413,170,55072,2,0,P|387:112|249:73,1,200,10|0,0:0|0:0,0:0:0:0:
141,72,55463,1,0,0:0:0:0:
285,278,55594,5,8,0:0:0:0:
146,215,55724,1,8,0:0:0:0:
385,165,55855,2,0,L|393:268,1,100,2|0,0:0|0:0,0:0:0:0:
176,159,56116,2,0,L|164:48,1,100,10|8,0:0|0:0,0:0:0:0:
414,328,56376,6,0,P|429:280|317:208,1,200,6|8,0:0|0:0,0:0:0:0:
84,198,56768,2,0,P|59:139|165:74,1,200,2|0,0:0|0:0,0:0:0:0:
370,224,57159,2,0,P|435:203|451:81,1,200,10|0,0:0|0:0,0:0:0:0:
353,93,57550,1,0,0:0:0:0:
136,234,57681,6,0,L|128:337,1,100,10|0,0:0|0:0,0:0:0:0:
268,233,57942,2,0,P|278:110|278:110,1,100,2|0,0:0|0:0,0:0:0:0:
67,53,58203,2,0,P|56:173|56:173,1,100,10|0,0:0|0:0,0:0:0:0:
273,306,58463,6,0,P|327:278|389:141,1,200,2|8,0:0|0:0,0:0:0:0:
176,207,58855,2,0,P|136:159|233:117,1,200,2|0,0:0|0:0,0:0:0:0:
441,316,59246,2,0,P|395:255|268:199,1,200,10|0,0:0|0:0,0:0:0:0:
183,199,59637,1,0,0:0:0:0:
318,116,59768,5,8,0:0:0:0:
183,57,59898,1,8,0:0:0:0:
392,301,60029,2,0,L|396:191,1,100,2|0,0:0|0:0,0:0:0:0:
167,125,60290,2,0,L|233:125,1,50,8|8,0:0|0:0,0:0:0:0:
444,56,60420,2,0,L|394:56,1,50,8|8,0:0|0:0,0:0:0:0:
153,341,60550,6,0,P|67:298|50:185,1,200,6|8,0:0|0:0,0:0:0:0:
147,205,60942,1,0,0:0:0:0:
356,188,61072,2,0,P|362:64|362:64,1,100,2|0,0:0|0:0,0:0:0:0:
216,59,61333,2,0,L|210:161,1,100,8|0,0:0|0:0,0:0:0:0:
426,334,61594,6,0,L|434:221,1,100,0|0,0:0|0:0,0:0:0:0:
293,223,61855,2,0,P|176:214|176:214,1,100,8|0,0:0|0:0,0:0:0:0:
413,50,62116,2,0,L|405:151,1,100,2|0,0:0|0:0,0:0:0:0:
183,50,62376,2,0,L|293:54,1,100,10|0,0:0|0:0,0:0:0:0:
33,314,62637,6,0,P|16:250|95:136,1,200,6|8,0:0|0:0,0:0:0:0:
194,139,63029,1,0,0:0:0:0:
401,295,63159,2,0,L|502:301,1,100,2|0,0:0|0:0,0:0:0:0:
359,197,63420,2,0,L|250:189,1,100,8|0,0:0|0:0,0:0:0:0:
475,68,63681,6,0,L|472:171,1,100,0|0,0:0|0:0,0:0:0:0:
327,298,63942,2,0,L|205:287,1,100,8|0,0:0|0:0,0:0:0:0:
368,201,64203,2,0,L|374:83,1,100,0|0,0:0|0:0,0:0:0:0:
235,88,64463,2,0,P|230:210|230:210,1,100,8|0,0:0|0:0,0:0:0:0:
448,297,64724,6,0,L|331:288,2,100,6|0|8,0:0|0:0|0:0,0:0:0:0:
220,269,65116,2,0,P|151:232|140:90,1,200,2|0,0:0|0:0,0:0:0:0:
266,125,65507,2,0,P|388:132|388:132,1,100,10|0,0:0|0:0,0:0:0:0:
153,328,65768,6,0,P|76:300|145:230,1,200,2|8,0:0|0:0,0:0:0:0:
228,226,66159,1,2,0:0:0:0:
435,230,66290,2,0,P|468:178|367:117,1,200,2|10,0:0|0:0,0:0:0:0:
274,115,66681,1,2,0:0:0:0:
56,279,66811,6,0,L|51:166,1,100,6|0,0:0|0:0,0:0:0:0:
195,256,67072,2,0,L|185:129,1,100,8|0,0:0|0:0,0:0:0:0:
328,217,67333,2,0,L|318:100,1,100,0|0,0:0|0:0,0:0:0:0:
460,176,67594,2,0,L|451:56,1,100,8|0,0:0|0:0,0:0:0:0:
154,322,67855,6,0,P|95:304|56:170,1,200,2|0,0:0|0:0,0:0:0:0:
312,210,68246,2,0,P|398:183|436:70,1,200,2|0,0:0|0:0,0:0:0:0:
149,79,68637,2,0,L|26:70,1,100,2|0,0:0|0:0,0:0:0:0:
364,299,68898,6,0,L|485:289,1,119.999996337891,12|0,0:0|0:0,0:0:0:0:
172,192,69159,2,0,L|191:319,1,119.999996337891,8|0,0:0|0:0,0:0:0:0:
441,79,69420,2,0,P|457:223|457:223,1,119.999996337891,8|0,0:0|0:0,0:0:0:0:
192,291,69681,2,0,P|61:307|61:307,1,119.999996337891,8|0,0:0|0:0,0:0:0:0:
347,79,69942,6,0,L|484:63,1,119.999996337891,8|0,0:0|0:0,0:0:0:0:
228,203,70203,2,0,L|365:188,1,119.999996337891,8|0,0:0|0:0,0:0:0:0:
140,317,70463,2,0,B|128:195,1,119.999996337891,8|0,0:0|0:0,0:0:0:0:
376,70,70724,2,0,L|386:198,1,119.999996337891,8|0,0:0|0:0,0:0:0:0:
136,245,70985,6,0,B|3:256,1,119.999996337891,8|0,0:0|0:0,0:0:0:0:
266,146,71246,2,0,P|129:155|129:155,1,119.999996337891,8|0,0:0|0:0,0:0:0:0:
377,297,71507,2,0,P|505:288|505:288,1,119.999996337891,8|0,0:0|0:0,0:0:0:0:
245,207,71768,2,0,B|106:218,1,119.999996337891,8|0,0:0|0:0,0:0:0:0:
375,110,72029,6,0,L|252:117,1,119.999996337891,8|0,0:0|0:0,0:0:0:0:
470,218,72290,2,0,L|458:337,1,119.999996337891,10|0,0:0|0:0,0:0:0:0:
218,256,72550,2,0,P|234:123|234:123,1,119.999996337891,10|0,0:0|0:0,0:0:0:0:
439,134,72811,2,0,P|503:78|503:78,1,59.9999981689454,8|0,0:0|0:0,0:0:0:0:
484,42,72942,2,0,L|427:92,1,59.9999981689454,8|0,0:0|0:0,0:0:0:0:
117,309,73072,6,0,L|236:318,1,119.999996337891,12|0,0:0|0:0,0:0:0:0:
472,233,73333,2,0,P|321:220|321:220,1,119.999996337891,8|0,0:0|0:0,0:0:0:0:
108,106,73594,2,0,L|126:231,1,119.999996337891,8|0,0:0|0:0,0:0:0:0:
362,39,73855,2,0,P|381:168|381:168,1,119.999996337891,8|0,0:0|0:0,0:0:0:0:
138,320,74116,6,0,L|3:305,1,119.999996337891,8|0,0:0|0:0,0:0:0:0:
261,245,74376,2,0,L|397:256,1,119.999996337891,8|0,0:0|0:0,0:0:0:0:
133,217,74637,2,0,L|144:91,1,119.999996337891,8|0,0:0|0:0,0:0:0:0:
389,54,74898,2,0,L|261:47,1,119.999996337891,10|0,0:0|0:0,0:0:0:0:
496,323,75159,6,0,P|345:315|345:315,1,119.999996337891,10|0,0:0|0:0,0:0:0:0:
141,188,75420,2,0,L|21:181,1,119.999996337891,8|0,0:0|0:0,0:0:0:0:
269,140,75681,2,0,L|388:147,1,119.999996337891,8|0,0:0|0:0,0:0:0:0:
141,62,75942,2,0,L|21:57,1,119.999996337891,8|0,0:0|0:0,0:0:0:0:
80,62,76137,1,0,0:0:0:0:
268,315,76203,6,0,L|108:309,2,133.333333333333,10|2|2,0:0|0:0|0:0,0:0:0:0:
104,192,76724,2,0,L|237:199,2,133.333333333333,2|2|2,0:0|0:0|0:0,0:0:0:0:
381,295,77246,6,0,L|500:302,1,100,4|0,0:0|0:0,0:0:0:0:
325,205,77507,2,0,L|441:211,1,100,10|0,0:0|0:0,0:0:0:0:
168,88,77768,2,0,L|285:96,2,100,0|0|10,0:0|0:0|0:0,0:0:0:0:
387,315,78159,6,0,P|401:194|401:194,1,100,0|0,0:0|0:0,0:0:0:0:
256,207,78420,2,0,L|240:333,1,100,2|8,0:0|0:0,0:0:0:0:
457,123,78681,2,0,L|337:110,1,100,2|0,0:0|0:0,0:0:0:0:
137,268,78942,2,0,L|245:281,2,100,2|8|0,0:0|0:0|0:0,0:0:0:0:
355,271,79333,6,0,P|371:157|371:157,1,100,0|0,0:0|0:0,0:0:0:0:
162,113,79594,2,0,L|146:224,1,100,10|0,0:0|0:0,0:0:0:0:
279,77,79855,2,0,L|408:91,1,100
135,310,80116,2,0,B|134:322|151:209,1,100,10|0,0:0|0:0,0:0:0:0:
428,173,80376,6,0,L|439:56,1,100,2|0,0:0|0:0,0:0:0:0:
208,166,80637,1,10,0:0:0:0:
440,308,80768,1,10,0:0:0:0:
208,222,80898,2,0,L|193:332,1,100,0|0,0:0|0:0,0:0:0:0:
427,156,81159,1,10,0:0:0:0:
199,59,81290,1,10,0:0:0:0:
416,329,81420,6,0,P|425:222|425:222,1,100,4|0,0:0|0:0,0:0:0:0:
210,191,81681,2,0,L|89:182,1,100,10|0,0:0|0:0,0:0:0:0:
330,117,81942,1,2,0:0:0:0:
119,284,82072,2,0,L|3:277,2,100,2|8|0,0:0|0:0|0:0,0:0:0:0:
328,261,82463,6,0,P|439:267|439:267,1,100,2|0,0:0|0:0,0:0:0:0:
226,134,82724,2,0,L|351:137,1,100,10|0,0:0|0:0,0:0:0:0:
115,246,82985,1,2,0:0:0:0:
325,319,83116,2,0,L|428:326,2,100,2|8|0,0:0|0:0|0:0,0:0:0:0:
123,187,83507,6,0,L|119:75,1,100,0|0,0:0|0:0,0:0:0:0:
329,57,83768,2,0,P|216:61|216:61,1,100,10|0,0:0|0:0,0:0:0:0:
439,308,84029,2,0,P|431:192|431:192,1,100,2|0,0:0|0:0,0:0:0:0:
301,177,84290,2,0,B|196:186,1,100,10|0,0:0|0:0,0:0:0:0:
425,87,84550,6,0,L|313:93,2,100,2|0|10,0:0|0:0|0:0,0:0:0:0:
193,237,84942,2,0,L|293:231,2,100,2|0|2,0:0|0:0|0:0,0:0:0:0:
429,200,85333,2,0,L|421:97,1,100,2|2,0:0|0:0,0:0:0:0:
196,246,85855,6,0,L|188:127,1,100,0|0,0:0|0:0,0:0:0:0:
382,159,86246,1,0,0:0:0:0:
207,322,86507,2,0,P|115:290|266:161,1,400,4|0,0:0|0:0,0:0:0:0:
