osu file format v14

[General]
AudioFilename: Kuusou_Mesorogiwi.mp3
AudioLeadIn: 0
PreviewTime: 51716
Countdown: 0
SampleSet: Soft
StackLeniency: 0.7
Mode: 2
LetterboxInBreaks: 0
WidescreenStoryboard: 1

[Editor]
DistanceSpacing: 1.1
BeatDivisor: 4
GridSize: 8
TimelineZoom: 1.1

[Metadata]
Title:Kuusou Mesorogiwi
TitleUnicode:Kuusou Mesorogiwi
Artist:NateWantsToBattle feat. Amanda Lee
ArtistUnicode:NateWantsToBattle feat. Amanda Lee
Creator:Du5t
Version:MBomb's Overdose
Source:未来日記
Tags:Future Diary english cover metal german Yousei Teikoku Mirai Nikki mbomb - Magic Bomb - idust idu5t dust
BeatmapID:2105491
BeatmapSetID:897035

[Difficulty]
HPDrainRate:7
CircleSize:4
OverallDifficulty:9.5
ApproachRate:9.5
SliderMultiplier:2
SliderTickRate:2

[Events]
//Background and Video events
0,0,"bg.jpg",0,0
//Break Periods
//Storyboard Layer 0 (Background)
//Storyboard Layer 1 (Fail)
//Storyboard Layer 2 (Pass)
//Storyboard Layer 3 (Foreground)
//Storyboard Sound Samples

[TimingPoints]
30,521.739130434783,4,2,22,40,1,0
8377,260.869565217391,4,3,22,80,1,0
16724,-100,4,3,22,70,0,0
25072,-100,4,3,22,55,0,0
25855,-100,4,3,22,50,0,0
26116,-100,4,3,22,60,0,0
28203,-100,4,3,22,70,0,0
30290,-100,4,3,22,60,0,0
32116,-100,4,3,22,50,0,0
32376,-100,4,3,22,70,0,0
34463,-100,4,3,22,80,0,0
38376,-100,4,3,22,50,0,0
38637,-100,4,3,22,60,0,0
42811,-100,4,3,22,70,0,0
51420,-100,4,3,22,40,0,0
51681,-100,4,3,22,50,0,0
52203,-100,4,3,22,80,0,1
60290,-100,4,3,22,50,0,0
60550,-100,4,3,22,80,0,1
67855,-100,4,3,22,70,0,0
68898,-100,4,3,22,90,0,1
72811,-100,4,3,22,50,0,0
73072,-100,4,3,22,90,0,1
76203,-100,4,3,22,70,0,0
77246,-100,4,3,22,80,0,1
85594,-100,4,2,22,40,0,0

[Colours]
Combo1 : 255,40,40
Combo2 : 150,0,0
Combo3 : 255,40,80

[HitObjects]
160,192,30,5,2,0:0:0:0:
136,148,160,1,0,0:0:0:0:
139,99,290,1,0,0:0:0:0:
166,57,421,1,0,0:0:0:0:
312,104,551,1,2,0:0:0:0:
360,128,682,1,0,0:0:0:0:
366,177,812,1,0,0:0:0:0:
320,196,943,1,0,0:0:0:0:
176,188,1073,5,2,0:0:0:0:
128,180,1203,1,0,0:0:0:0:
98,141,1333,1,0,0:0:0:0:
101,92,1464,1,0,0:0:0:0:
134,56,1594,1,0,0:0:0:0:
182,50,1725,1,0,0:0:0:0:
224,76,1855,1,0,0:0:0:0:
239,123,1986,1,0,0:0:0:0:
384,192,2116,5,2,0:0:0:0:
390,143,2246,1,0,0:0:0:0:
371,97,2376,1,0,0:0:0:0:
331,69,2507,1,0,0:0:0:0:
281,65,2637,1,0,0:0:0:0:
237,88,2768,1,0,0:0:0:0:
212,130,2898,1,0,0:0:0:0:
212,180,3029,1,0,0:0:0:0:
352,192,3160,5,2,0:0:0:0:
400,194,3290,1,0,0:0:0:0:
439,164,3420,1,0,0:0:0:0:
448,116,3551,1,0,0:0:0:0:
224,192,3682,1,2,0:0:0:0:
176,194,3812,1,2,0:0:0:0:
137,164,3942,1,2,0:0:0:0:
128,116,4073,1,2,0:0:0:0:
320,192,4203,5,4,0:0:0:0:
256,192,4334,12,0,5769,0:0:0:0:
128,192,6290,5,2,0:0:0:0:
384,192,6812,2,0,L|280:192,1,100,2|0,0:0|0:0,0:0:0:0:
48,192,7334,2,0,L|152:192,1,100,2|2,0:0|0:0,0:0:0:0:
400,192,7856,1,8,0:0:0:0:
336,192,7986,1,8,0:0:0:0:
400,192,8116,1,8,0:0:0:0:
336,192,8247,1,8,0:0:0:0:
96,192,8377,5,6,0:0:0:0:
416,192,8637,1,10,0:0:0:0:
224,192,8898,1,0,0:0:0:0:
336,192,9029,1,2,0:0:0:0:
208,192,9159,1,8,0:0:0:0:
416,192,9290,6,0,L|312:192,1,100,2|0,0:0|0:0,0:0:0:0:
96,192,9550,2,0,L|200:192,1,100,2|8,0:0|0:0,0:0:0:0:
80,192,9811,2,0,P|32:128|40:112,1,100,2|0,0:0|0:0,0:0:0:0:
256,192,10072,1,2,0:0:0:0:
32,192,10203,1,10,0:0:0:0:
160,192,10463,6,0,L|120:160,2,50,0|0|0,0:0|0:0|0:0,0:0:0:0:
384,192,10724,2,0,P|456:136|400:64,1,200,10|0,0:0|0:0,0:0:0:0:
160,192,11116,1,2,0:0:0:0:
64,192,11246,1,8,0:0:0:0:
128,192,11376,1,2,0:0:0:0:
320,192,11507,6,0,P|288:112|264:104,1,100,2|0,0:0|0:0,0:0:0:0:
152,192,11768,1,8,0:0:0:0:
384,192,11898,1,2,0:0:0:0:
304,192,12029,1,0,0:0:0:0:
304,192,12094,1,0,0:0:0:0:
328,192,12159,1,0,0:0:0:0:
368,192,12224,1,0,0:0:0:0:
208,192,12290,1,10,0:0:0:0:
416,192,12550,5,6,0:0:0:0:
288,192,12811,1,10,0:0:0:0:
480,192,13072,1,0,0:0:0:0:
272,192,13203,1,2,0:0:0:0:
400,192,13333,1,8,0:0:0:0:
192,192,13463,6,0,L|280:144,1,100,2|0,0:0|0:0,0:0:0:0:
80,192,13724,2,0,L|152:120,1,100,2|8,0:0|0:0,0:0:0:0:
288,192,13985,2,0,L|208:128,1,100,2|0,0:0|0:0,0:0:0:0:
352,192,14246,1,2,0:0:0:0:
128,192,14376,1,10,0:0:0:0:
256,192,14637,5,0,0:0:0:0:
208,192,14703,1,0,0:0:0:0:
176,192,14768,1,0,0:0:0:0:
384,192,14898,2,0,L|296:144,1,100,10|0,0:0|0:0,0:0:0:0:
208,192,15159,1,0,0:0:0:0:
416,192,15290,2,0,L|512:160,1,100,2|8,0:0|0:0,0:0:0:0:
384,192,15550,1,2,0:0:0:0:
128,192,15681,6,0,P|48:104|88:72,1,200,2|8,0:0|0:0,0:0:0:0:
272,192,16072,1,2,0:0:0:0:
208,192,16203,2,0,L|168:160,2,50,0|0|0,0:0|0:0|0:0,0:0:0:0:
424,192,16463,2,0,L|344:128,1,100,10|0,0:0|0:0,0:0:0:0:
136,192,16724,6,0,P|88:88|120:80,1,200,4|10,0:0|0:0,0:0:0:0:
8,192,17116,1,8,0:0:0:0:
208,192,17246,2,0,L|320:192,1,100,0|0,0:0|0:0,0:0:0:0:
80,192,17507,1,10,0:0:0:0:
480,192,17768,6,0,L|400:128,1,100,2|2,0:0|0:0,0:0:0:0:
488,192,18029,1,8,0:0:0:0:
256,192,18159,2,0,P|120:152|96:104,1,200,10|0,0:0|0:0,0:0:0:0:
320,192,18550,1,10,0:0:0:0:
176,192,18811,6,0,P|240:112|320:144,1,200,2|10,0:0|0:0,0:0:0:0:
192,192,19203,1,8,0:0:0:0:
400,192,19333,2,0,L|504:192,1,100,2|0,0:0|0:0,0:0:0:0:
112,192,19594,1,10,0:0:0:0:
480,192,19855,6,0,L|480:88,1,100,2|2,0:0|0:0,0:0:0:0:
256,192,20116,1,8,0:0:0:0:
256,192,20246,1,8,0:0:0:0:
32,192,20376,2,0,L|32:88,1,100,2|2,0:0|0:0,0:0:0:0:
368,192,20637,1,8,0:0:0:0:
144,192,20768,1,8,0:0:0:0:
240,192,20898,6,0,P|304:120|240:64,1,200,6|10,0:0|0:0,0:0:0:0:
352,192,21290,1,8,0:0:0:0:
144,192,21420,2,0,L|232:144,1,100,2|0,0:0|0:0,0:0:0:0:
456,192,21681,1,10,0:0:0:0:
56,192,21942,5,2,0:0:0:0:
256,192,22072,1,2,0:0:0:0:
336,192,22203,1,8,0:0:0:0:
128,192,22333,2,0,P|112:112|208:88,1,200,10|0,0:0|0:0,0:0:0:0:
8,192,22724,1,10,0:0:0:0:
176,192,22985,6,0,P|312:152|360:104,1,200,2|10,0:0|0:0,0:0:0:0:
352,184,23376,1,8,0:0:0:0:
128,192,23507,2,0,L|24:192,1,100,2|0,0:0|0:0,0:0:0:0:
384,192,23768,2,0,L|488:192,1,100,10|0,0:0|0:0,0:0:0:0:
280,192,24029,5,2,0:0:0:0:
80,192,24159,1,2,0:0:0:0:
208,192,24290,1,8,0:0:0:0:
136,192,24420,1,8,0:0:0:0:
352,192,24550,1,2,0:0:0:0:
152,192,24680,1,2,0:0:0:0:
384,192,24811,2,0,L|488:192,1,100,8|8,0:0|0:0,0:0:0:0:
376,192,25072,6,0,L|464:144,1,100,0|0,0:0|0:0,0:0:0:0:
256,192,25333,2,0,L|344:144,1,100,8|0,0:0|0:0,0:0:0:0:
256,192,25594,2,0,L|168:144,1,100,0|0,0:0|0:0,0:0:0:0:
400,192,25855,1,8,0:0:0:0:
448,180,25920,1,8,0:0:0:0:
483,146,25985,1,8,0:0:0:0:
495,98,26050,1,8,0:0:0:0:
256,192,26116,6,0,P|152:80|232:48,1,300,4|0,0:0|0:0,0:0:0:0:
432,192,26637,2,0,L|344:144,1,100,8|0,0:0|0:0,0:0:0:0:
208,192,26898,2,0,L|296:144,1,100,0|0,0:0|0:0,0:0:0:0:
224,192,27159,6,0,P|176:120|256:64,1,200,2|2,0:0|0:0,0:0:0:0:
176,192,27550,1,0,0:0:0:0:
384,192,27681,2,0,P|408:136|304:72,1,200,10|2,0:0|0:0,0:0:0:0:
224,192,28072,1,0,0:0:0:0:
16,192,28203,6,0,L|104:144,1,100,2|0,0:0|0:0,0:0:0:0:
336,192,28463,2,0,L|264:120,1,100,10|0,0:0|0:0,0:0:0:0:
208,192,28724,2,0,L|120:144,1,100,2|0,0:0|0:0,0:0:0:0:
336,192,28985,2,0,L|432:160,1,100,10|0,0:0|0:0,0:0:0:0:
320,192,29246,6,0,L|416:160,1,100,0|0,0:0|0:0,0:0:0:0:
176,192,29507,2,0,L|72:192,1,100,8|0,0:0|0:0,0:0:0:0:
208,192,29768,2,0,L|320:192,1,100,0|0,0:0|0:0,0:0:0:0:
496,192,30029,1,8,0:0:0:0:
280,192,30159,1,8,0:0:0:0:
80,192,30290,6,0,P|24:112|168:32,1,300,4|0,0:0|0:0,0:0:0:0:
384,192,30811,2,0,L|488:192,1,100,8|0,0:0|0:0,0:0:0:0:
400,192,31072,2,0,L|472:120,1,100,0|0,0:0|0:0,0:0:0:0:
368,192,31333,6,0,P|272:128|288:56,1,200,2|2,0:0|0:0,0:0:0:0:
368,192,31724,1,0,0:0:0:0:
128,192,31855,2,0,L|16:192,1,100,10|0,0:0|0:0,0:0:0:0:
240,192,32116,2,0,L|296:192,1,50,10|8,0:0|0:0,0:0:0:0:
432,192,32246,2,0,L|488:192,1,50,8|8,0:0|0:0,0:0:0:0:
320,192,32376,6,0,L|216:192,1,100,2|0,0:0|0:0,0:0:0:0:
16,192,32637,2,0,L|104:144,1,100,10|0,0:0|0:0,0:0:0:0:
496,192,32898,2,0,L|408:144,1,100,2|0,0:0|0:0,0:0:0:0:
176,192,33159,2,0,L|72:192,1,100,10|0,0:0|0:0,0:0:0:0:
208,192,33420,6,0,L|312:192,1,100,0|0,0:0|0:0,0:0:0:0:
104,192,33681,2,0,L|192:144,1,100,8|0,0:0|0:0,0:0:0:0:
320,192,33942,2,0,L|232:144,1,100,0|0,0:0|0:0,0:0:0:0:
448,192,34203,2,0,L|360:144,1,100,8|0,0:0|0:0,0:0:0:0:
152,192,34463,6,0,L|64:144,1,100,12|0,0:0|0:0,0:0:0:0:
360,192,34724,2,0,L|464:192,1,100,8|0,0:0|0:0,0:0:0:0:
152,192,34985,2,0,L|48:192,1,100,8|0,0:0|0:0,0:0:0:0:
360,192,35246,2,0,L|464:192,1,100,8|2,0:0|0:0,0:0:0:0:
392,192,35507,5,2,0:0:0:0:
200,192,35637,1,2,0:0:0:0:
8,192,35768,2,0,L|88:128,1,100,10|0,0:0|0:0,0:0:0:0:
200,192,36029,2,0,L|96:192,1,100,2|0,0:0|0:0,0:0:0:0:
384,192,36290,2,0,L|384:80,1,100,10|0,0:0|0:0,0:0:0:0:
176,192,36550,6,0,L|88:144,1,100,12|0,0:0|0:0,0:0:0:0:
384,192,36811,2,0,L|488:192,1,100,8|0,0:0|0:0,0:0:0:0:
176,192,37072,2,0,L|72:192,1,100,8|0,0:0|0:0,0:0:0:0:
384,192,37333,2,0,L|488:192,1,100,8|2,0:0|0:0,0:0:0:0:
416,192,37594,6,0,P|312:192|312:192,1,100,2|2,0:0|0:0,0:0:0:0:
112,192,37855,2,0,L|8:192,1,100,10|0,0:0|0:0,0:0:0:0:
416,192,38116,1,2,0:0:0:0:
40,192,38376,2,0,L|80:160,1,50,8|8,0:0|0:0,0:0:0:0:
240,192,38507,2,0,L|296:192,1,50,8|8,0:0|0:0,0:0:0:0:
140,192,38637,6,0,L|28:192,1,100,6|0,0:0|0:0,0:0:0:0:
256,192,38898,1,8,0:0:0:0:
352,192,39029,2,0,L|248:192,1,100,2|0,0:0|0:0,0:0:0:0:
464,192,39290,2,0,L|376:144,1,100,2|0,0:0|0:0,0:0:0:0:
240,192,39550,2,0,L|328:144,1,100,2|0,0:0|0:0,0:0:0:0:
112,192,39811,6,0,P|48:128|120:104,1,200,10|0,0:0|0:0,0:0:0:0:
224,192,40203,1,2,0:0:0:0:
416,192,40333,1,8,0:0:0:0:
496,192,40463,2,0,L|408:144,1,100,2|0,0:0|0:0,0:0:0:0:
208,192,40724,6,0,L|296:144,1,100,6|0,0:0|0:0,0:0:0:0:
96,192,40985,1,10,0:0:0:0:
32,192,41116,2,0,L|128:160,1,100,2|0,0:0|0:0,0:0:0:0:
240,192,41376,1,0,0:0:0:0:
32,192,41507,1,2,0:0:0:0:
256,192,41637,2,0,L|368:192,1,100,2|0,0:0|0:0,0:0:0:0:
152,192,41898,6,0,L|48:192,2,100,10|0|0,0:0|0:0|0:0,0:0:0:0:
356,192,42290,2,0,L|260:152,1,100,2|0,0:0|0:0,0:0:0:0:
480,192,42550,1,8,0:0:0:0:
256,192,42681,1,8,0:0:0:0:
32,192,42811,5,6,0:0:0:0:
384,192,43072,1,10,0:0:0:0:
472,192,43202,1,2,0:0:0:0:
472,192,43333,1,0,0:0:0:0:
384,192,43463,1,0,0:0:0:0:
184,192,43594,6,0,L|376:128,1,200,10|2,0:0|0:0,0:0:0:0:
296,192,43985,1,0,0:0:0:0:
496,192,44116,2,0,L|408:144,1,100,10|0,0:0|0:0,0:0:0:0:
208,192,44376,2,0,L|104:192,1,100,2|0,0:0|0:0,0:0:0:0:
480,192,44637,2,0,L|392:144,1,100,10|0,0:0|0:0,0:0:0:0:
160,192,44898,6,0,L|248:144,1,100,2|0,0:0|0:0,0:0:0:0:
48,192,45159,1,8,0:0:0:0:
128,192,45290,2,0,P|184:96|128:48,1,200,2|0,0:0|0:0,0:0:0:0:
416,192,45681,1,10,0:0:0:0:
304,192,45942,6,0,L|408:192,1,100,0|0,0:0|0:0,0:0:0:0:
208,192,46203,2,0,L|104:192,1,100,8|0,0:0|0:0,0:0:0:0:
336,192,46463,2,0,L|260:128,1,100,2|0,0:0|0:0,0:0:0:0:
448,192,46724,1,8,0:0:0:0:
256,192,46855,1,8,0:0:0:0:
64,192,46985,6,0,L|160:160,1,100,6|0,0:0|0:0,0:0:0:0:
352,192,47246,1,8,0:0:0:0:
144,192,47376,2,0,P|72:96|112:56,1,200,0|0,0:0|0:0,0:0:0:0:
432,192,47768,1,8,0:0:0:0:
32,192,48029,6,0,L|120:144,1,100,2|0,0:0|0:0,0:0:0:0:
336,192,48290,1,8,0:0:0:0:
440,192,48420,2,0,P|488:96|408:48,1,200,2|0,0:0|0:0,0:0:0:0:
208,192,48811,2,0,L|304:160,1,100,10|0,0:0|0:0,0:0:0:0:
96,192,49072,6,0,L|0:160,1,100,2|0,0:0|0:0,0:0:0:0:
256,192,49333,1,8,0:0:0:0:
352,192,49463,2,0,P|392:120|296:72,1,200,0|0,0:0|0:0,0:0:0:0:
504,192,49855,2,0,L|416:144,1,100,10|0,0:0|0:0,0:0:0:0:
312,192,50116,5,6,0:0:0:0:
56,192,50246,1,10,0:0:0:0:
312,192,50376,1,10,0:0:0:0:
224,192,50507,2,0,L|320:152,1,100,2|2,0:0|0:0,0:0:0:0:
192,192,50768,1,2,0:0:0:0:
384,192,50898,1,10,0:0:0:0:
128,192,51029,1,10,0:0:0:0:
200,192,51159,1,2,0:0:0:0:
496,192,51681,5,8,0:0:0:0:
368,192,51746,1,8,0:0:0:0:
240,192,51811,1,8,0:0:0:0:
112,192,51876,1,8,0:0:0:0:
16,192,51942,1,8,0:0:0:0:
20,142,52007,1,8,0:0:0:0:
50,103,52072,1,8,0:0:0:0:
97,87,52137,1,8,0:0:0:0:
320,192,52203,6,0,P|456:160|488:104,1,200,6|8,0:0|0:0,0:0:0:0:
192,192,52594,2,0,P|56:160|24:104,1,200,2|0,0:0|0:0,0:0:0:0:
80,192,52920,1,0,0:0:0:0:
320,192,52985,2,0,P|456:160|488:104,1,200,10|0,0:0|0:0,0:0:0:0:
416,192,53376,5,0,0:0:0:0:
176,192,53507,2,0,L|368:128,1,200,10|2,0:0|0:0,0:0:0:0:
288,192,53898,1,0,0:0:0:0:
496,192,54029,2,0,P|408:136|408:136,1,100,10|0,0:0|0:0,0:0:0:0:
32,192,54290,6,0,P|96:112|192:104,1,200,2|8,0:0|0:0,0:0:0:0:
480,192,54681,2,0,P|416:112|320:104,1,200,2|0,0:0|0:0,0:0:0:0:
32,192,55072,2,0,L|224:136,1,200,10|0,0:0|0:0,0:0:0:0:
304,192,55463,5,0,0:0:0:0:
64,192,55594,1,8,0:0:0:0:
304,192,55724,1,8,0:0:0:0:
496,192,55855,2,0,L|408:144,1,100,2|0,0:0|0:0,0:0:0:0:
200,192,56116,1,10,0:0:0:0:
408,192,56246,1,8,0:0:0:0:
104,192,56376,6,0,P|32:136|104:96,1,200,6|8,0:0|0:0,0:0:0:0:
408,192,56768,2,0,P|480:136|408:96,1,200,2|0,0:0|0:0,0:0:0:0:
368,192,57094,1,0,0:0:0:0:
104,192,57159,2,0,P|32:136|104:96,1,200,10|0,0:0|0:0,0:0:0:0:
176,192,57550,5,0,0:0:0:0:
376,192,57681,2,0,L|288:144,1,100,10|0,0:0|0:0,0:0:0:0:
408,192,57942,2,0,L|496:144,1,100,2|0,0:0|0:0,0:0:0:0:
176,192,58203,2,0,L|72:192,1,100,10|0,0:0|0:0,0:0:0:0:
288,208,58463,6,0,P|288:120|288:8,1,200,2|8,0:0|0:0,0:0:0:0:
64,192,58855,2,0,P|16:112|64:24,1,200,2|0,0:0|0:0,0:0:0:0:
448,192,59246,2,0,P|496:112|448:24,1,200,10|0,0:0|0:0,0:0:0:0:
360,192,59637,5,0,0:0:0:0:
144,192,59768,1,8,0:0:0:0:
360,192,59898,1,8,0:0:0:0:
144,192,60029,2,0,L|40:192,1,100,2|0,0:0|0:0,0:0:0:0:
240,192,60290,2,0,L|289:192,1,50,8|8,0:0|0:0,0:0:0:0:
456,192,60420,2,0,L|505:193,1,50,8|8,0:0|0:0,0:0:0:0:
224,192,60550,6,0,L|120:192,1,100,6|0,0:0|0:0,0:0:0:0:
32,192,60811,2,0,L|136:192,1,100,8|0,0:0|0:0,0:0:0:0:
352,192,61072,2,0,L|264:144,1,100,2|0,0:0|0:0,0:0:0:0:
464,192,61333,2,0,L|376:144,2,100,8|0|0,0:0|0:0|0:0,0:0:0:0:
384,192,61724,5,0,0:0:0:0:
128,192,61855,2,0,L|24:192,1,100,8|0,0:0|0:0,0:0:0:0:
240,192,62116,2,0,L|152:144,1,100,2|0,0:0|0:0,0:0:0:0:
352,192,62376,2,0,L|456:192,1,100,10|0,0:0|0:0,0:0:0:0:
256,192,62637,6,0,L|152:192,1,100,6|0,0:0|0:0,0:0:0:0:
376,192,62898,2,0,L|288:144,1,100,8|0,0:0|0:0,0:0:0:0:
176,192,63159,2,0,L|264:144,1,100,2|0,0:0|0:0,0:0:0:0:
32,192,63420,1,8,0:0:0:0:
240,192,63550,1,0,0:0:0:0:
320,192,63681,5,0,0:0:0:0:
208,192,63811,1,0,0:0:0:0:
408,192,63942,2,0,L|512:192,1,100,8|0,0:0|0:0,0:0:0:0:
392,192,64203,1,0,0:0:0:0:
280,192,64333,1,0,0:0:0:0:
472,192,64463,1,8,0:0:0:0:
280,192,64594,1,0,0:0:0:0:
48,192,64724,6,0,L|136:144,1,100,6|0,0:0|0:0,0:0:0:0:
336,192,64985,1,8,0:0:0:0:
128,192,65116,2,0,P|40:128|80:80,1,200,2|0,0:0|0:0,0:0:0:0:
288,192,65507,2,0,L|200:144,1,100,10|0,0:0|0:0,0:0:0:0:
400,192,65768,6,0,L|504:192,1,100,2|0,0:0|0:0,0:0:0:0:
280,192,66029,1,8,0:0:0:0:
80,192,66159,2,0,L|168:144,2,100,2|2|0,0:0|0:0|0:0,0:0:0:0:
280,192,66550,2,0,L|192:144,1,100,10|2,0:0|0:0,0:0:0:0:
400,192,66811,6,0,L|312:144,1,100,6|0,0:0|0:0,0:0:0:0:
504,192,67072,2,0,L|416:144,1,100,8|0,0:0|0:0,0:0:0:0:
288,192,67333,2,0,L|376:144,1,100,0|0,0:0|0:0,0:0:0:0:
160,192,67594,2,0,L|248:144,1,100,8|0,0:0|0:0,0:0:0:0:
16,192,67855,5,2,0:0:0:0:
464,192,68246,1,2,0:0:0:0:
16,192,68637,1,2,0:0:0:0:
400,192,68898,6,0,L|312:144,1,100,12|0,0:0|0:0,0:0:0:0:
112,192,69159,2,0,L|200:144,1,100,8|0,0:0|0:0,0:0:0:0:
416,192,69420,2,0,L|328:144,1,100,8|0,0:0|0:0,0:0:0:0:
96,192,69681,2,0,L|184:144,1,100,8|0,0:0|0:0,0:0:0:0:
408,192,69942,6,0,L|512:192,1,100,8|0,0:0|0:0,0:0:0:0:
104,192,70203,2,0,L|0:192,1,100,8|0,0:0|0:0,0:0:0:0:
384,192,70463,2,0,L|488:192,1,100,8|0,0:0|0:0,0:0:0:0:
128,192,70724,2,0,L|24:192,1,100,8|0,0:0|0:0,0:0:0:0:
352,192,70985,6,0,L|456:192,1,100,8|0,0:0|0:0,0:0:0:0:
256,184,71246,2,0,L|340:128,1,100,8|0,0:0|0:0,0:0:0:0:
144,192,71507,2,0,L|228:136,1,100,8|0,0:0|0:0,0:0:0:0:
32,192,71768,2,0,L|116:136,1,100,8|0,0:0|0:0,0:0:0:0:
320,192,72029,6,0,L|236:136,1,100,8|0,0:0|0:0,0:0:0:0:
440,192,72290,2,0,L|356:136,1,100,10|0,0:0|0:0,0:0:0:0:
160,192,72550,2,0,L|56:192,1,100,10|0,0:0|0:0,0:0:0:0:
176,192,72811,2,0,L|280:192,1,100,8|8,0:0|0:0,0:0:0:0:
264,192,73007,1,8,0:0:0:0:
80,192,73072,6,0,L|160:128,1,100,12|0,0:0|0:0,0:0:0:0:
472,192,73333,2,0,L|392:128,1,100,8|0,0:0|0:0,0:0:0:0:
176,192,73594,2,0,L|64:192,1,100,8|0,0:0|0:0,0:0:0:0:
304,192,73855,2,0,L|216:144,1,100,8|0,0:0|0:0,0:0:0:0:
408,192,74116,6,0,L|512:192,1,100,8|0,0:0|0:0,0:0:0:0:
104,192,74376,2,0,L|0:192,1,100,8|0,0:0|0:0,0:0:0:0:
408,192,74637,2,0,L|320:144,1,100,8|0,0:0|0:0,0:0:0:0:
104,192,74898,2,0,L|192:144,1,100,10|0,0:0|0:0,0:0:0:0:
480,192,75159,6,0,L|480:80,1,100,10|0,0:0|0:0,0:0:0:0:
32,192,75420,2,0,L|32:80,1,100,8|0,0:0|0:0,0:0:0:0:
480,192,75681,2,0,L|400:128,1,100,8|0,0:0|0:0,0:0:0:0:
32,192,75942,2,0,L|112:128,1,100,8|0,0:0|0:0,0:0:0:0:
152,192,76137,1,0,0:0:0:0:
336,192,76203,5,10,0:0:0:0:
432,192,76376,1,2,0:0:0:0:
312,192,76550,1,2,0:0:0:0:
120,192,76724,1,2,0:0:0:0:
224,192,76898,1,2,0:0:0:0:
88,192,77072,1,2,0:0:0:0:
440,192,77246,6,0,L|352:144,1,100,4|0,0:0|0:0,0:0:0:0:
72,192,77507,2,0,L|160:144,1,100,10|0,0:0|0:0,0:0:0:0:
384,192,77768,1,0,0:0:0:0:
192,192,77898,1,0,0:0:0:0:
384,192,78029,1,10,0:0:0:0:
112,192,78159,6,0,P|40:112|88:56,1,200,0|2,0:0|0:0,0:0:0:0:
280,192,78550,1,8,0:0:0:0:
480,192,78681,2,0,L|392:144,1,100,2|0,0:0|0:0,0:0:0:0:
32,192,78942,1,2,0:0:0:0:
256,192,79072,2,0,L|368:192,1,100,8|0,0:0|0:0,0:0:0:0:
240,192,79333,5,0,0:0:0:0:
368,192,79463,1,0,0:0:0:0:
160,192,79594,2,0,L|56:192,1,100,10|0,0:0|0:0,0:0:0:0:
184,192,79855,2,0,L|88:160,1,100,0|0,0:0|0:0,0:0:0:0:
328,192,80116,2,0,L|432:192,1,100,10|0,0:0|0:0,0:0:0:0:
160,192,80376,6,0,L|256:152,1,100,2|0,0:0|0:0,0:0:0:0:
48,192,80637,1,10,0:0:0:0:
256,192,80768,2,0,L|168:144,1,100,10|0,0:0|0:0,0:0:0:0:
480,192,81029,1,0,0:0:0:0:
256,192,81159,1,10,0:0:0:0:
32,192,81290,1,10,0:0:0:0:
80,192,81420,5,4,0:0:0:0:
288,192,81550,1,0,0:0:0:0:
80,192,81681,1,10,0:0:0:0:
288,192,81811,1,0,0:0:0:0:
32,192,81942,2,0,L|120:144,1,100,2|2,0:0|0:0,0:0:0:0:
368,192,82203,2,0,L|472:192,1,100,8|0,0:0|0:0,0:0:0:0:
272,192,82463,6,0,L|360:144,1,100,2|0,0:0|0:0,0:0:0:0:
160,192,82724,2,0,L|248:144,1,100,10|0,0:0|0:0,0:0:0:0:
40,192,82985,1,2,0:0:0:0:
256,192,83116,1,2,0:0:0:0:
40,192,83246,2,0,L|40:88,1,100,8|0,0:0|0:0,0:0:0:0:
152,192,83507,6,0,L|64:144,1,100,0|0,0:0|0:0,0:0:0:0:
296,192,83768,2,0,L|408:192,1,100,10|0,0:0|0:0,0:0:0:0:
192,192,84029,2,0,L|88:192,1,100,2|0,0:0|0:0,0:0:0:0:
272,192,84224,1,0,0:0:0:0:
472,192,84290,2,0,L|392:128,1,100,10|0,0:0|0:0,0:0:0:0:
192,192,84550,5,2,0:0:0:0:
384,192,84681,1,0,0:0:0:0:
128,184,84811,1,10,0:0:0:0:
448,192,84942,2,0,L|360:144,1,100,2|0,0:0|0:0,0:0:0:0:
112,192,85203,2,0,L|200:144,2,100,2|2|2,0:0|0:0|0:0,0:0:0:0:
368,192,85855,6,0,L|456:144,1,100,0|0,0:0|0:0,0:0:0:0:
64,192,86246,1,0,0:0:0:0:
208,192,86507,2,0,P|320:152|160:88,1,400,4|0,0:0|0:0,0:0:0:0:
