osu file format v14

[General]
AudioFilename: Kuusou_Mesorogiwi.mp3
AudioLeadIn: 0
PreviewTime: 51716
Countdown: 0
SampleSet: Soft
StackLeniency: 0.7
Mode: 2
LetterboxInBreaks: 0
WidescreenStoryboard: 1

[Editor]
DistanceSpacing: 1.1
BeatDivisor: 4
GridSize: 8
TimelineZoom: 1

[Metadata]
Title:Kuusou Mesorogiwi
TitleUnicode:Kuusou Mesorogiwi
Artist:NateWantsToBattle feat. Amanda Lee
ArtistUnicode:NateWantsToBattle feat. Amanda Lee
Creator:Du5t
Version:MBomb's Cup
Source:未来日記
Tags:Future Diary english cover metal german Yousei Teikoku Mirai Nikki mbomb - Magic Bomb - idust idu5t dust
BeatmapID:1874083
BeatmapSetID:897035

[Difficulty]
HPDrainRate:2
CircleSize:2
OverallDifficulty:6
ApproachRate:6
SliderMultiplier:0.999999999999999
SliderTickRate:1

[Events]
//Background and Video events
0,0,"bg.jpg",0,0
//Break Periods
//Storyboard Layer 0 (Background)
//Storyboard Layer 1 (Fail)
//Storyboard Layer 2 (Pass)
//Storyboard Layer 3 (Foreground)
//Storyboard Sound Samples

[TimingPoints]
30,521.739130434783,4,2,22,40,1,0
8377,260.869565217391,4,3,22,80,1,0
16724,-100,4,3,22,70,0,0
25072,-100,4,3,22,55,0,0
25855,-100,4,3,22,50,0,0
26116,-100,4,3,22,60,0,0
28203,-100,4,3,22,70,0,0
30290,-100,4,3,22,60,0,0
32116,-100,4,3,22,50,0,0
32376,-100,4,3,22,70,0,0
34463,-100,4,3,22,80,0,0
38376,-100,4,3,22,50,0,0
38637,-100,4,3,22,60,0,0
42811,-100,4,3,22,70,0,0
51420,-100,4,3,22,40,0,0
51681,-100,4,3,22,50,0,0
52203,-100,4,3,22,80,0,1
60290,-100,4,3,22,50,0,0
60550,-100,4,3,22,80,0,1
67855,-100,4,3,22,70,0,0
68898,-100,4,3,22,90,0,1
72811,-100,4,3,22,50,0,0
73072,-100,4,3,22,90,0,1
76203,-100,4,3,22,70,0,0
77246,-100,4,3,22,80,0,1
85594,-100,4,2,22,40,0,0

[Colours]
Combo1 : 255,40,40
Combo2 : 150,0,0
Combo3 : 255,40,80

[HitObjects]
96,192,30,6,0,L|200:192,1,99.9999999999999,2|2,0:0|0:0,0:0:0:0:
352,192,1073,2,0,P|448:120|416:64,1,200,2|2,0:0|0:0,0:0:0:0:
160,192,3160,1,2,0:0:0:0:
368,192,3682,1,2,0:0:0:0:
256,192,4203,12,2,6290,0:0:0:0:
192,192,7334,6,0,L|128:192,1,50,2|2,0:0|0:0,0:0:0:0:
256,192,7856,2,0,L|320:192,1,50,8|8,0:0|0:0,0:0:0:0:
432,192,8377,5,6,0:0:0:0:
352,192,8637,1,10,0:0:0:0:
224,192,8898,2,0,L|328:192,1,99.9999999999999,0|8,0:0|0:0,0:0:0:0:
240,192,9420,5,0,0:0:0:0:
128,192,9681,1,8,0:0:0:0:
128,192,9811,1,2,0:0:0:0:
256,192,10072,1,2,0:0:0:0:
324,192,10203,1,10,0:0:0:0:
416,192,10463,6,0,B|312:192|312:192,2,99.9999999999999,0|10|0,0:0|0:0|0:0,0:0:0:0:
288,192,11246,1,8,0:0:0:0:
192,192,11507,5,2,0:0:0:0:
112,192,11768,2,0,L|112:136,1,50,8|2,0:0|0:0,0:0:0:0:
272,192,12290,1,10,0:0:0:0:
168,192,12550,5,6,0:0:0:0:
288,192,12811,1,10,0:0:0:0:
192,192,13072,2,0,L|304:192,1,99.9999999999999,0|8,0:0|0:0,0:0:0:0:
168,192,13594,5,0,0:0:0:0:
48,192,13855,2,0,L|112:192,1,50,8|2,0:0|0:0,0:0:0:0:
192,192,14246,1,2,0:0:0:0:
256,192,14376,1,10,0:0:0:0:
360,192,14637,6,0,P|400:136|376:112,1,99.9999999999999,0|10,0:0|0:0,0:0:0:0:
280,192,15159,1,0,0:0:0:0:
160,192,15420,1,8,0:0:0:0:
48,192,15681,6,0,L|160:192,1,99.9999999999999,2|8,0:0|0:0,0:0:0:0:
192,192,16072,1,2,0:0:0:0:
40,192,16463,1,10,0:0:0:0:
168,192,16724,6,0,L|272:192,1,99.9999999999999,4|10,0:0|0:0,0:0:0:0:
160,192,17246,2,0,L|56:192,1,99.9999999999999,0|10,0:0|0:0,0:0:0:0:
200,192,17768,5,2,0:0:0:0:
296,192,18029,2,0,L|296:128,1,50,8|10,0:0|0:0,0:0:0:0:
432,192,18550,1,10,0:0:0:0:
328,192,18811,6,0,L|224:192,1,99.9999999999999,2|10,0:0|0:0,0:0:0:0:
120,192,19333,2,0,L|224:192,1,99.9999999999999,2|10,0:0|0:0,0:0:0:0:
336,192,19855,6,0,L|336:128,1,50,2|2,0:0|0:0,0:0:0:0:
192,192,20376,2,0,L|192:128,1,50,2|2,0:0|0:0,0:0:0:0:
352,192,20898,6,0,L|456:192,2,99.9999999999999,6|10|2,0:0|0:0|0:0,0:0:0:0:
480,192,21681,1,10,0:0:0:0:
384,192,21942,5,2,0:0:0:0:
280,192,22203,2,0,L|224:192,1,50,8|10,0:0|0:0,0:0:0:0:
368,192,22724,1,10,0:0:0:0:
464,192,22985,6,0,L|360:192,1,99.9999999999999,2|10,0:0|0:0,0:0:0:0:
240,192,23507,2,0,L|128:192,1,99.9999999999999,2|10,0:0|0:0,0:0:0:0:
48,192,24029,6,0,L|48:128,1,50,2|2,0:0|0:0,0:0:0:0:
200,192,24550,2,0,L|256:192,1,50,2|2,0:0|0:0,0:0:0:0:
440,192,25333,5,8,0:0:0:0:
280,192,25855,1,8,0:0:0:0:
160,192,26116,6,0,P|79:134|129:73,1,200,4|8,0:0|0:0,0:0:0:0:
312,192,27159,6,0,L|424:192,1,99.9999999999999,2|2,0:0|0:0,0:0:0:0:
304,192,27681,2,0,L|200:192,1,99.9999999999999,10|2,0:0|0:0,0:0:0:0:
80,192,28203,6,0,L|168:144,2,99.9999999999999,2|10|2,0:0|0:0|0:0,0:0:0:0:
256,192,28985,12,4,30290,0:0:0:0:
176,192,31333,5,2,0:0:0:0:
280,192,31594,1,2,0:0:0:0:
400,192,31855,1,10,0:0:0:0:
296,192,32116,1,10,0:0:0:0:
196,192,32376,6,0,L|300:192,1,99.9999999999999,2|10,0:0|0:0,0:0:0:0:
176,192,32898,1,2,0:0:0:0:
256,192,33159,12,8,34203,0:0:0:0:
192,192,34463,5,12,0:0:0:0:
280,192,34724,1,8,0:0:0:0:
368,192,34985,1,8,0:0:0:0:
456,192,35246,1,8,0:0:0:0:
320,192,35768,5,10,0:0:0:0:
160,192,36290,1,10,0:0:0:0:
288,192,36550,5,12,0:0:0:0:
184,192,36811,1,8,0:0:0:0:
288,192,37072,1,8,0:0:0:0:
392,192,37333,1,8,0:0:0:0:
224,192,37855,5,10,0:0:0:0:
392,192,38376,1,8,0:0:0:0:
496,192,38637,5,6,0:0:0:0:
384,192,38898,2,0,L|384:136,1,50,8|2,0:0|0:0,0:0:0:0:
496,192,39290,2,0,L|496:88,1,99.9999999999999,2|2,0:0|0:0,0:0:0:0:
336,192,39811,5,10,0:0:0:0:
200,192,40203,2,0,L|304:192,1,99.9999999999999,2|2,0:0|0:0,0:0:0:0:
160,192,40724,5,6,0:0:0:0:
272,192,40985,2,0,L|272:136,1,50,10|2,0:0|0:0,0:0:0:0:
160,192,41377,1,0,0:0:0:0:
320,192,41898,5,10,0:0:0:0:
456,192,42290,2,0,L|352:192,1,99.9999999999999,2|8,0:0|0:0,0:0:0:0:
240,192,42811,5,6,0:0:0:0:
128,192,43072,2,0,L|64:192,1,50,10|2,0:0|0:0,0:0:0:0:
208,192,43463,2,0,L|272:192,1,50,0|10,0:0|0:0,0:0:0:0:
384,192,43855,5,2,0:0:0:0:
488,192,44116,2,0,L|384:192,2,99.9999999999999,10|2|10,0:0|0:0|0:0,0:0:0:0:
368,192,44898,5,2,0:0:0:0:
208,192,45290,1,2,0:0:0:0:
384,192,45681,2,0,L|176:192,1,200,10|8,0:0|0:0,0:0:0:0:
72,192,46463,2,0,L|192:192,1,99.9999999999999,2|8,0:0|0:0,0:0:0:0:
304,192,46985,6,0,P|424:96|344:56,1,300,6|8,0:0|0:0,0:0:0:0:
232,192,48029,1,2,0:0:0:0:
64,192,48420,1,2,0:0:0:0:
200,192,48811,1,10,0:0:0:0:
328,192,49072,6,0,P|256:112|104:192,1,300,2|10,0:0|0:0,0:0:0:0:
256,192,50116,12,2,51159,0:0:0:0:
144,192,51681,5,8,0:0:0:0:
256,192,51942,1,8,0:0:0:0:
384,192,52203,5,6,0:0:0:0:
216,192,52594,1,2,0:0:0:0:
384,192,52985,1,10,0:0:0:0:
176,192,53507,2,0,L|64:192,2,99.9999999999999,10|2|10,0:0|0:0|0:0,0:0:0:0:
296,192,54290,5,2,0:0:0:0:
456,192,54681,1,2,0:0:0:0:
256,192,55072,1,10,0:0:0:0:
48,192,55855,1,2,0:0:0:0:
144,192,56116,1,10,0:0:0:0:
32,192,56376,5,6,0:0:0:0:
192,192,56768,1,2,0:0:0:0:
32,192,57159,1,10,0:0:0:0:
224,192,57681,2,0,L|328:192,2,99.9999999999999,10|2|10,0:0|0:0|0:0,0:0:0:0:
336,192,58463,5,2,0:0:0:0:
480,192,58855,1,2,0:0:0:0:
304,192,59246,1,10,0:0:0:0:
112,192,59768,2,0,L|224:192,2,99.9999999999999,8|2|8,0:0|0:0|0:0,0:0:0:0:
16,192,60550,5,6,0:0:0:0:
232,192,61072,2,0,P|336:120|216:48,1,300,2|8,0:0|0:0,0:0:0:0:
128,192,62116,2,0,L|232:192,1,99.9999999999999,2|10,0:0|0:0,0:0:0:0:
336,192,62637,5,6,0:0:0:0:
176,192,63029,2,0,P|64:120|256:80,1,450,2|0,0:0|0:0,0:0:0:0:
64,192,64724,5,6,0:0:0:0:
176,192,64985,2,0,L|176:136,1,50,8|2,0:0|0:0,0:0:0:0:
32,192,65507,1,10,0:0:0:0:
216,192,66029,1,8,0:0:0:0:
376,192,66550,1,10,0:0:0:0:
272,192,66811,6,0,L|8:192,1,250,6|0,0:0|0:0,0:0:0:0:
192,192,67855,5,2,0:0:0:0:
344,192,68246,1,2,0:0:0:0:
192,192,68637,1,2,0:0:0:0:
256,192,68898,12,0,71898,0:0:0:0:
192,192,72290,5,10,0:0:0:0:
304,192,72550,2,0,L|192:192,1,99.9999999999999,10|8,0:0|0:0,0:0:0:0:
256,192,73072,12,8,74637,0:0:0:0:
192,192,74898,5,10,0:0:0:0:
320,192,75159,1,10,0:0:0:0:
224,192,75420,1,8,0:0:0:0:
128,192,75681,1,8,0:0:0:0:
224,192,75942,1,8,0:0:0:0:
344,192,76203,5,10,0:0:0:0:
168,192,76724,1,2,0:0:0:0:
320,192,77246,5,4,0:0:0:0:
424,192,77507,1,10,0:0:0:0:
320,192,77768,1,0,0:0:0:0:
220,192,78028,1,10,0:0:0:0:
304,192,78290,5,0,0:0:0:0:
408,192,78550,2,0,L|408:128,1,50,8|2,0:0|0:0,0:0:0:0:
304,192,78942,2,0,L|240:192,1,50,2|8,0:0|0:0,0:0:0:0:
144,192,79333,5,0,0:0:0:0:
40,192,79594,1,10,0:0:0:0:
144,192,79855,2,0,L|208:192,2,50,0|0|10,0:0|0:0|0:0,0:0:0:0:
224,192,80376,5,2,0:0:0:0:
336,192,80637,2,0,L|336:136,1,50,10|10,0:0|0:0,0:0:0:0:
176,192,81159,2,0,L|176:136,1,50,10|10,0:0|0:0,0:0:0:0:
304,192,81681,5,10,0:0:0:0:
216,192,81942,2,0,L|272:192,1,50,2|2,0:0|0:0,0:0:0:0:
320,192,82203,1,8,0:0:0:0:
416,192,82463,6,0,L|312:192,2,99.9999999999999,2|10|2,0:0|0:0|0:0,0:0:0:0:
304,192,83246,1,8,0:0:0:0:
208,192,83507,5,0,0:0:0:0:
104,192,83768,1,10,0:0:0:0:
8,192,84029,1,2,0:0:0:0:
108,192,84289,1,10,0:0:0:0:
200,192,84550,5,2,0:0:0:0:
304,192,84811,1,10,0:0:0:0:
392,192,85072,2,0,L|272:192,1,99.9999999999999,0|2,0:0|0:0,0:0:0:0:
256,192,85855,12,0,87029,0:0:0:0:
