osu file format v14

[General]
AudioFilename: audio.mp3
AudioLeadIn: 0
PreviewTime: 61945
Countdown: 0
SampleSet: Soft
StackLeniency: 0.3
Mode: 0
LetterboxInBreaks: 0
WidescreenStoryboard: 1

[Editor]
DistanceSpacing: 0.2
BeatDivisor: 4
GridSize: 16
TimelineZoom: 2.3

[Metadata]
Title:THE DAY
TitleUnicode:THE DAY
Artist:NateWantsToBattle
ArtistUnicode:NateWantsToBattle
Creator:Smoke
Version:Sajinn's Insane
Source:僕のヒーローアカデミア
Tags:ポルノグラフィティ Porno Graffitti Cover boku no hero academia my op opening tv english rock anime sajinn
BeatmapID:3007799
BeatmapSetID:1464434

[Difficulty]
HPDrainRate:5
CircleSize:4
OverallDifficulty:8
ApproachRate:9
SliderMultiplier:1.72
SliderTickRate:1

[Events]
//Background and Video events
0,0,"my hero jpeg g.jpg",0,0
Video,-381,"video.mp4"
//Break Periods
//Storyboard Layer 0 (Background)
//Storyboard Layer 1 (Fail)
//Storyboard Layer 2 (Pass)
//Storyboard Layer 3 (Foreground)
//Storyboard Layer 4 (Overlay)
//Storyboard Sound Samples

[TimingPoints]
231,361.01083032491,4,2,1,55,1,0
320,322.234156820623,4,2,1,55,1,0
320,-138.888888888889,4,2,1,55,0,0
2092,-312.500000000001,4,2,1,55,0,0
2575,-454.545454545457,4,2,1,55,0,0
2897,-121.951219512195,4,2,1,60,0,0
3381,-138.888888888889,4,2,1,60,0,0
8053,-121.951219512195,4,2,1,60,0,0
8536,-138.888888888889,4,2,1,60,0,0
12887,-238.095238095239,4,2,1,60,0,0
13209,-238.095238095239,4,2,1,80,0,0
15142,-108.695652173913,4,2,1,80,0,0
15787,-108.695652173913,4,2,1,75,0,0
24648,-192.307692307692,4,2,1,75,0,0
26098,-192.307692307692,4,2,1,65,0,0
36410,-121.951219512195,4,2,1,60,0,0
44143,-121.951219512195,4,2,1,65,0,0
45110,-108.695652173913,4,2,1,65,0,0
46721,-108.695652173913,4,2,1,70,0,0
49299,-98.0392156862745,4,2,1,70,0,0
51877,-108.695652173913,4,2,1,70,0,0
54455,-108.695652173913,4,2,1,65,0,0
57033,-98.0392156862745,4,2,1,75,0,0
62188,-89.2857142857143,4,2,1,80,0,0
81845,-81.9672131147541,4,2,1,80,0,0
82811,-81.9672131147541,4,2,1,85,0,0
85389,-81.9672131147541,4,2,1,75,0,0
85873,-81.9672131147541,4,2,1,77,0,0
86356,-81.9672131147541,4,2,1,79,0,0
86678,-81.9672131147541,4,2,1,81,0,0
87000,-81.9672131147541,4,2,1,83,0,0
87323,-81.9672131147541,4,2,1,85,0,0
88289,-81.9672131147541,4,2,1,82,0,0
88612,-81.9672131147541,4,2,1,79,0,0
88934,-81.9672131147541,4,2,1,76,0,0
89256,-81.9672131147541,4,2,1,73,0,0
89578,-81.9672131147541,4,2,1,70,0,0
89901,-81.9672131147541,4,2,1,67,0,0
90223,-81.9672131147541,4,2,1,64,0,0
90545,-81.9672131147541,4,2,1,55,0,0
90867,-81.9672131147541,4,2,1,51,0,0
91190,-81.9672131147541,4,2,1,47,0,0
91512,-81.9672131147541,4,2,1,42,0,0
91834,-81.9672131147541,4,2,1,37,0,0
92156,-81.9672131147541,4,2,1,32,0,0
92478,-81.9672131147541,4,2,1,23,0,0
92801,-81.9672131147541,4,2,1,15,0,0
93123,-81.9672131147541,4,2,1,5,0,0

[Colours]
Combo1 : 252,221,3
Combo2 : 0,128,0
Combo3 : 225,0,0

[HitObjects]
103,141,231,6,0,P|116:138|128:137,1,21.5,0|0,3:2|3:2,0:0:0:0:
94,152,320,6,0,P|79:190|68:280,1,123.840003023438,14|2,3:2|0:0,0:0:0:0:
189,369,803,1,0,0:0:0:0:
126,329,964,1,2,0:0:0:0:
190,298,1125,2,0,P|235:288|272:283,1,61.9200015117188,2|0,0:0|0:0,0:0:0:0:
389,371,1447,5,2,0:0:0:0:
260,208,1770,1,2,0:0:0:0:
374,352,2092,2,0,P|379:307|386:280,1,68.8,2|0,0:0|0:0,0:0:0:0:
453,248,2575,6,0,P|449:230|445:214,1,28.3800008660889,8|0,3:3|0:0,0:0:0:0:
488,125,2897,6,0,B|413:93|426:180|338:143,1,141.0400021521,6|2,3:2|0:0,0:0:0:0:
247,32,3381,2,0,P|258:71|266:114,1,61.9200015117188,2|0,0:0|0:0,0:0:0:0:
324,218,3703,2,0,P|330:187|339:158,1,61.9200015117188,2|0,0:0|0:0,0:0:0:0:
345,68,4025,1,2,0:0:0:0:
204,159,4186,5,2,0:0:0:0:
246,223,4347,1,2,0:0:0:0:
324,218,4509,1,2,0:0:0:0:
193,283,4670,2,0,P|163:274|133:267,1,61.9200015117188,2|0,0:0|0:0,0:0:0:0:
22,186,4992,2,0,P|80:186|107:133,1,123.840003023438,2|2,0:0|0:0,0:0:0:0:
239,41,5475,6,0,P|217:89|203:176,1,123.840003023438,2|2,0:0|0:0,0:0:0:0:
324,218,5959,2,0,P|353:209|383:202,1,61.9200015117188,2|0,0:0|0:0,0:0:0:0:
470,106,6281,2,0,P|440:97|410:90,1,61.9200015117188,2|0,0:0|0:0,0:0:0:0:
321,124,6603,1,2,0:0:0:0:
424,264,6764,5,2,0:0:0:0:
456,196,6925,1,2,0:0:0:0:
383,202,7086,1,2,0:0:0:0:
497,261,7248,2,0,P|505:290|512:320,1,61.9200015117188,2|0,0:0|0:0,0:0:0:0:
385,371,7570,2,0,P|343:341|260:333,1,123.840003023438,2|2,0:0|0:0,0:0:0:0:
19,236,8053,6,0,B|93:204|87:272|170:243,1,141.0400021521,6|2,3:2|0:0,0:0:0:0:
300,92,8536,1,2,0:0:0:0:
248,145,8698,2,0,P|256:174|263:204,1,61.9200015117188,2|0,0:0|0:0,0:0:0:0:
212,299,9020,1,2,0:0:0:0:
154,247,9181,1,2,0:0:0:0:
24,367,9342,6,0,P|66:337|149:329,1,123.840003023438,2|2,0:0|0:0,0:0:0:0:
194,380,9825,1,2,0:0:0:0:
289,271,9987,1,2,0:0:0:0:
356,311,10148,1,2,0:0:0:0:
275,260,10309,1,2,0:0:0:0:
285,347,10470,1,2,0:0:0:0:
427,230,10631,6,0,P|400:285|396:351,1,123.840003023438,2|2,0:0|0:0,0:0:0:0:
326,204,11114,1,2,0:0:0:0:
275,260,11275,2,0,P|245:251|215:244,1,61.9200015117188,2|0,0:0|0:0,0:0:0:0:
2,183,11598,2,0,P|31:148|76:146,1,92.8800022675782,2|0,0:0|0:0,0:0:0:0:
122,204,11920,6,0,P|102:241|94:309,1,92.8800022675782,2|0,0:0|0:0,0:0:0:0:
144,339,12242,2,0,B|206:310|204:374|268:349,1,123.840003023438,2|0,0:0|0:0,0:0:0:0:
461,256,12806,5,0,3:2:0:0:
473,241,12887,2,0,P|465:207|459:181,1,54.1799983465577,8|0,3:3|0:0,0:0:0:0:
401,129,13209,5,10,0:0:0:0:
271,197,13370,1,0,3:2:0:0:
381,142,13531,1,0,3:2:0:0:
238,117,13692,5,10,0:0:0:0:
274,210,13853,1,0,3:2:0:0:
309,298,14014,1,0,3:2:0:0:
126,167,14176,5,10,0:0:0:0:
251,217,14337,1,0,3:2:0:0:
172,322,14498,1,0,3:2:0:0:
15,298,14659,5,10,0:0:0:0:
148,245,14820,1,0,3:2:0:0:
166,239,14981,1,8,3:3:0:0:
80,384,15142,6,0,P|89:336|96:298,1,79.1199973439942,10|0,0:0|3:2,0:0:0:0:
14,171,15465,2,0,P|6:132|0:93,1,79.1199973439942,10|0,0:0|3:2,0:0:0:0:
225,135,15787,6,0,P|164:143|132:98,1,118.679996015991,6|0,3:2|0:0,0:0:0:0:
191,49,16109,2,0,B|276:23|270:101|360:67,1,158.239994687988,8|0,0:0|3:2,0:0:0:0:
502,184,16592,5,2,0:0:0:0:
441,125,16753,1,10,0:0:0:0:
375,256,16915,1,2,0:0:0:0:
285,231,17076,6,0,P|340:221|402:211,1,118.679996015991,0|0,3:2|0:0,0:0:0:0:
467,260,17398,2,0,P|446:298|440:350,1,79.1199973439942,8|0,0:0|0:0,0:0:0:0:
315,343,17720,2,0,P|284:315|235:321,1,79.1199973439942,0|0,3:2|0:0,0:0:0:0:
54,329,18042,2,0,P|97:335|128:263,1,118.679996015991,10|0,0:0|0:0,0:0:0:0:
66,236,18365,6,0,B|35:156|129:172|94:85,1,158.239994687988,6|8,3:2|0:0,0:0:0:0:
88,82,19009,1,0,3:2:0:0:
234,199,19170,5,2,0:0:0:0:
185,137,19331,1,10,0:0:0:0:
232,77,19492,1,2,0:0:0:0:
249,204,19654,6,0,P|297:172|382:168,1,118.679996015991,0|0,3:2|0:0,0:0:0:0:
417,213,19976,2,0,P|402:250|397:302,1,79.1199973439942,8|0,0:0|0:0,0:0:0:0:
224,350,20298,2,0,B|311:328|311:328|268:322|246:276,1,158.239994687988,0|8,3:2|0:0,0:0:0:0:
252,285,20781,1,0,0:0:0:0:
97,370,20942,6,0,B|115:345|132:324|132:324|104:300|74:275,1,118.679996015991,6|0,3:2|0:0,0:0:0:0:
16,244,21265,2,0,P|63:205|166:183,1,158.239994687988,8|0,0:0|3:2,0:0:0:0:
273,30,21748,5,2,0:0:0:0:
218,123,21909,1,10,0:0:0:0:
307,227,22070,1,2,0:0:0:0:
396,54,22231,6,0,P|373:96|360:184,1,118.679996015991,0|0,3:2|0:0,0:0:0:0:
307,227,22554,2,0,P|273:206|219:201,1,79.1199973439942,8|0,0:0|0:0,0:0:0:0:
155,367,22876,2,0,P|145:312|132:255,1,79.1199973439942,0|0,3:2|0:0,0:0:0:0:
298,366,23198,2,0,P|314:321|389:321,1,118.679996015991,10|0,0:0|0:0,0:0:0:0:
459,332,23520,6,0,B|480:243|397:267|429:182,1,158.239994687988,6|8,3:2|0:0,0:0:0:0:
365,86,24004,2,0,L|328:75,2,39.5599986719971,8|8|8,3:3|3:3|3:3,0:0:0:0:
508,10,24326,5,10,0:0:0:0:
457,65,24487,1,2,3:2:0:0:
288,5,24648,6,0,B|250:32|246:88|246:88|230:18|154:14,1,223.599998635254,14|0,0:0|0:0,0:0:0:0:
300,0,25615,1,8,0:0:0:0:
89,220,26098,5,10,3:2:0:0:
83,228,26259,1,10,3:2:0:0:
170,289,27387,5,10,3:2:0:0:
176,297,27548,1,10,3:2:0:0:
257,232,28676,5,10,3:2:0:0:
263,224,28837,1,8,3:2:0:0:
206,154,29965,5,10,3:2:0:0:
200,146,30126,1,8,3:2:0:0:
120,190,31254,5,10,3:2:0:0:
114,198,31415,1,10,3:2:0:0:
44,134,32543,5,10,3:2:0:0:
38,126,32704,1,10,3:2:0:0:
106,61,33832,5,8,3:2:0:0:
112,53,33993,1,10,3:2:0:0:
205,95,34960,5,0,3:2:0:0:
207,106,35040,1,0,3:2:0:0:
216,103,35121,1,0,3:2:0:0:
308,44,35282,1,0,3:2:0:0:
279,194,35443,1,0,3:2:0:0:
314,17,35604,5,8,0:0:0:0:
512,209,35926,5,2,0:0:0:0:
446,175,36087,5,2,0:0:0:0:
380,139,36249,5,2,0:0:0:0:
303,268,36410,6,0,P|351:254|389:242,1,70.5200010760498,2|2,3:2|0:0,0:0:0:0:
183,151,36732,2,0,P|216:161|250:171,1,70.5200010760498,2|2,3:2|0:0,0:0:0:0:
210,324,37054,2,0,P|199:290|189:256,1,70.5200010760498,0|2,3:2|0:0,0:0:0:0:
10,237,37376,2,0,P|42:257|104:186,1,141.0400021521,0|0,3:2|3:2,0:0:0:0:
178,33,37860,5,2,0:0:0:0:
45,67,38021,2,0,P|78:77|112:87,1,70.5200010760498,0|0,3:2|0:0,0:0:0:0:
250,171,38343,2,0,P|267:91|287:22,1,141.0400021521,0|0,3:2|3:2,0:0:0:0:
455,109,38826,5,8,0:0:0:0:
464,116,38988,1,2,3:2:0:0:
354,200,39149,5,0,0:0:0:0:
452,274,39310,2,0,P|441:240|431:206,1,70.5200010760498,2|2,3:2|0:0,0:0:0:0:
269,262,39632,2,0,P|302:272|336:282,1,70.5200010760498,0|2,3:2|0:0,0:0:0:0:
173,374,39954,2,0,B|196:353|219:334|219:334|190:301|155:260,1,141.0400021521,2|0,3:2|3:2,0:0:0:0:
8,131,40438,5,2,0:0:0:0:
28,214,40599,2,0,P|75:178|172:164,1,141.0400021521,0|0,3:2|3:2,0:0:0:0:
380,207,41082,1,10,0:0:0:0:
304,203,41243,2,0,P|266:184|284:91,1,141.0400021521,0|2,3:2|3:2,0:0:0:0:
466,54,41727,5,2,0:0:0:0:
397,16,41888,2,0,P|387:49|376:83,1,70.5200010760498,2|2,3:2|0:0,0:0:0:0:
487,152,42210,2,0,P|496:185|507:219,1,70.5200010760498,2|2,3:2|0:0,0:0:0:0:
431,311,42532,2,0,B|377:294|377:294|343:307|343:307|296:293,1,141.0400021521,0|0,3:2|3:2,0:0:0:0:
120,337,43016,5,2,0:0:0:0:
192,363,43177,2,0,B|203:327|203:327|173:282,1,70.5200010760498,0|2,3:2|0:0,0:0:0:0:
19,246,43499,2,0,P|52:236|86:225,1,70.5200010760498,0|2,3:2|0:0,0:0:0:0:
99,113,43821,2,0,P|132:123|166:133,1,70.5200010760498,2|2,3:2|0:0,0:0:0:0:
240,117,44063,1,0,0:0:0:0:
250,115,44143,6,0,P|275:144|273:185,1,70.5200010760498,0|2,3:2|0:0,0:0:0:0:
184,299,44466,1,8,0:0:0:0:
163,227,44627,1,2,0:0:0:0:
329,293,44788,2,0,P|295:283|261:272,1,70.5200010760498,0|0,3:2|0:0,0:0:0:0:
418,241,45110,2,0,B|398:225|375:210|375:210|391:180|413:134,1,118.679996015991,8|0,0:0|0:0,0:0:0:0:
411,141,45432,5,10,0:0:0:0:
331,43,45593,2,0,P|306:35|282:28,2,39.5599986719971,0|0|8,3:2|3:2|0:0,0:0:0:0:
406,14,45916,1,2,3:2:0:0:
329,129,46077,1,0,3:2:0:0:
183,56,46238,1,8,0:0:0:0:
166,46,46721,5,10,0:0:0:0:
106,154,46882,1,0,3:2:0:0:
103,160,46963,1,2,0:0:0:0:
100,166,47043,1,0,0:0:0:0:
248,234,47205,2,0,B|219:203|171:215|171:215|148:252|105:249,1,158.239994687988,2|0,3:2|3:2,0:0:0:0:
305,313,47688,5,8,0:0:0:0:
248,234,47849,2,0,P|261:187|274:150,1,79.1199973439942,0|0,3:2|0:0,0:0:0:0:
506,241,48171,2,0,P|462:253|401:170,1,158.239994687988,0|0,3:2|3:2,0:0:0:0:
486,34,48655,5,10,0:0:0:0:
411,79,48816,1,0,3:2:0:0:
299,36,48977,5,8,0:0:0:0:
170,25,49138,1,2,3:2:0:0:
281,130,49299,5,10,0:0:0:0:
209,98,49460,1,2,3:2:0:0:
138,132,49621,1,8,3:3:0:0:
125,206,49782,1,2,3:2:0:0:
292,299,49944,5,8,3:3:0:0:
238,243,50105,1,0,3:2:0:0:
107,371,50266,5,8,0:0:0:0:
215,328,50427,1,0,3:2:0:0:
131,360,50588,1,8,3:3:0:0:
47,304,50749,1,0,3:2:0:0:
182,189,50910,5,8,3:3:0:0:
141,262,51071,1,0,3:2:0:0:
0,104,51232,6,0,P|54:89|114:76,1,87.7200005354004,8|0,0:0|3:2,0:0:0:0:
263,0,51555,2,0,P|305:10|347:22,1,87.7200005354004,8|2,0:0|3:2,0:0:0:0:
490,160,51877,5,10,0:0:0:0:
369,201,52038,2,0,B|351:163|351:163|374:113,1,79.1199973439942,2|0,3:2|0:0,0:0:0:0:
505,280,52360,2,0,B|418:242|434:333|334:294,1,158.239994687988,2|0,3:2|3:2,0:0:0:0:
201,221,52844,1,8,0:0:0:0:
145,355,53005,2,0,P|202:362|242:262,1,158.239994687988,0|0,3:2|3:2,0:0:0:0:
68,210,53488,5,8,0:0:0:0:
127,345,53649,1,0,3:2:0:0:
141,156,53810,5,8,0:0:0:0:
66,291,53971,1,0,3:2:0:0:
1,120,54133,2,0,P|56:106|97:95,1,79.1199973439942,8|2,0:0|3:2,0:0:0:0:
261,106,54455,5,6,3:2:0:0:
180,4,54616,2,0,P|210:50|231:165,1,158.239994687988,0|2,3:2|3:2,0:0:0:0:
293,286,55099,1,8,0:0:0:0:
416,240,55260,2,0,P|377:230|339:220,1,79.1199973439942,2|0,3:2|0:0,0:0:0:0:
256,359,55583,2,0,P|217:369|179:378,1,79.1199973439942,2|0,3:2|3:2,0:0:0:0:
54,217,55905,6,0,B|29:253|29:253|43:312,1,79.1199973439942,8|0,0:0|3:2,0:0:0:0:
118,264,56227,1,2,3:2:0:0:
224,183,56388,2,0,P|214:144|205:106,1,79.1199973439942,8|2,0:0|3:2,0:0:0:0:
43,117,56710,2,0,P|83:120|114:89,1,79.1199973439942,0|0,3:2|3:2,0:0:0:0:
316,2,57033,6,0,P|297:36|294:101,1,87.7200005354004,10|0,0:0|3:2,0:0:0:0:
301,95,57274,1,0,3:2:0:0:
309,100,57355,1,2,3:2:0:0:
510,180,57516,6,0,B|477:187|477:187|464:203|464:203|422:213,1,87.7200005354004,10|0,0:0|3:2,0:0:0:0:
363,376,57838,2,0,B|330:368|330:368|317:352|317:352|284:345,1,87.7200005354004,10|0,0:0|3:2,0:0:0:0:
44,243,58161,6,0,B|77:198|131:208|131:208|148:249|199:255,1,175.440001070801,10|0,0:0|3:2,0:0:0:0:
345,176,58644,5,8,0:0:0:0:
274,264,58805,1,0,3:2:0:0:
333,192,58966,1,0,3:2:0:0:
416,312,59127,5,8,0:0:0:0:
420,317,59208,1,8,0:0:0:0:
423,322,59288,2,0,L|472:313,3,43.8600002677002,8|8|8|8,3:2|3:3|3:3|3:3,0:0:0:0:
433,199,59611,6,0,B|396:109|507:119|458:23,1,175.440001070801,4|0,3:2|0:0,0:0:0:0:
272,107,60094,2,0,B|338:110|370:60|370:60|326:77|290:38,1,175.440001070801,4|0,3:2|0:0,0:0:0:0:
117,42,60577,2,0,B|164:68|182:119|182:119|179:69|218:31,1,175.440001070801,4|0,3:2|0:0,0:0:0:0:
26,193,61061,2,0,B|63:154|111:164|111:164|133:207|183:202,1,175.440001070801,4|0,3:2|0:0,0:0:0:0:
272,107,61544,1,4,3:2:0:0:
286,92,61866,5,8,0:0:0:0:
498,207,62188,6,0,B|383:164|419:269|296:228,1,192.640002351563,4|10,3:1|0:0,0:0:0:0:
97,352,62672,2,0,P|153:331|205:320,1,96.3200011757813,2|0,0:0|3:2,0:0:0:0:
184,152,62994,1,2,0:0:0:0:
124,212,63155,2,0,P|79:194|32:182,1,96.3200011757813,8|0,0:0|0:0,0:0:0:0:
124,61,63477,5,2,3:2:0:0:
201,234,63639,1,2,0:0:0:0:
266,66,63800,1,10,0:0:0:0:
265,180,63961,2,0,P|309:162|356:150,1,96.3200011757813,2|0,0:0|3:2,0:0:0:0:
469,0,64283,2,0,P|431:24|429:81,1,96.3200011757813,2|8,0:0|0:0,0:0:0:0:
502,193,64605,1,2,0:0:0:0:
426,348,64766,6,0,P|446:247|468:148,1,192.640002351563,6|10,3:2|0:0,0:0:0:0:
284,274,65250,2,0,P|276:223|262:174,1,96.3200011757813,2|0,0:0|3:2,0:0:0:0:
81,263,65572,1,2,0:0:0:0:
119,329,65733,2,0,B|155:336|155:336|170:352|170:352|221:362,1,96.3200011757813,8|0,0:0|0:0,0:0:0:0:
264,179,66055,5,2,3:2:0:0:
161,258,66216,1,2,0:0:0:0:
34,189,66378,1,10,0:0:0:0:
193,75,66539,2,0,P|180:121|173:169,1,96.3200011757813,2|0,0:0|3:2,0:0:0:0:
284,274,66861,2,0,P|296:320|303:368,1,96.3200011757813,2|8,0:0|0:0,0:0:0:0:
337,132,67183,1,2,0:0:0:0:
512,193,67344,6,0,B|472:151|422:172|422:172|396:225|336:222,1,192.640002351563,6|10,3:2|0:0,0:0:0:0:
252,85,67828,1,2,0:0:0:0:
117,198,67989,2,0,B|164:215|164:215|213:180,1,96.3200011757813,6|0,3:2|0:0,0:0:0:0:
106,24,68311,1,10,0:0:0:0:
53,91,68472,1,2,0:0:0:0:
201,188,68633,6,0,P|220:241|229:341,1,144.480001763672,6|0,3:2|0:0,0:0:0:0:
225,339,68955,5,10,0:0:0:0:
357,275,69116,1,2,0:0:0:0:
397,364,69278,1,2,3:2:0:0:
252,326,69439,5,2,0:0:0:0:
284,231,69600,1,10,0:0:0:0:
335,114,69761,1,2,0:0:0:0:
487,192,69922,6,0,P|424:176|283:140,1,192.640002351563,6|10,3:2|0:0,0:0:0:0:
131,36,70405,1,2,0:0:0:0:
190,96,70567,5,6,3:2:0:0:
125,221,70728,1,2,0:0:0:0:
105,115,70889,5,10,0:0:0:0:
241,207,71050,1,2,0:0:0:0:
9,308,71211,6,0,B|41:280|43:232|43:232|51:276|86:293,1,144.480001763672,6|0,3:2|0:0,0:0:0:0:
134,322,71533,1,14,0:0:0:0:
319,353,71775,5,8,0:0:0:0:
334,360,71855,1,8,3:3:0:0:
477,221,72017,5,0,3:2:0:0:
351,256,72178,1,8,0:0:0:0:
318,123,72339,1,10,0:0:0:0:
490,47,72500,6,0,B|375:4|411:109|288:68,1,192.640002351563,4|10,3:1|0:0,0:0:0:0:
213,243,72984,2,0,P|201:196|183:151,1,96.3200011757813,2|0,0:0|3:2,0:0:0:0:
42,56,73306,1,2,0:0:0:0:
100,8,73467,2,0,P|146:19|191:37,1,96.3200011757813,8|0,0:0|0:0,0:0:0:0:
281,155,73789,5,2,3:2:0:0:
213,243,73950,2,0,P|169:225|122:213,1,96.3200011757813,2|8,0:0|0:0,0:0:0:0:
304,339,74272,2,0,P|315:292|333:247,1,96.3200011757813,2|0,0:0|3:2,0:0:0:0:
504,151,74594,2,0,B|453:168|453:168|401:135,1,96.3200011757813,2|8,0:0|0:0,0:0:0:0:
345,61,74917,1,2,0:0:0:0:
213,243,75078,6,0,B|180:145|305:164|251:46,1,192.640002351563,6|10,3:2|0:0,0:0:0:0:
44,116,75561,2,0,P|88:97|135:85,1,96.3200011757813,2|0,0:0|3:2,0:0:0:0:
213,243,75884,1,2,0:0:0:0:
144,293,76045,2,0,B|108:286|108:286|93:270|93:270|42:260,1,96.3200011757813,8|0,0:0|0:0,0:0:0:0:
44,116,76367,5,2,3:2:0:0:
132,182,76528,1,2,0:0:0:0:
259,68,76689,1,8,0:0:0:0:
318,207,76850,2,0,P|324:159|337:113,1,96.3200011757813,2|0,0:0|3:2,0:0:0:0:
232,336,77172,2,0,P|225:288|212:242,1,96.3200011757813,2|8,0:0|0:0,0:0:0:0:
362,367,77495,1,2,0:0:0:0:
487,262,77656,6,0,B|447:220|397:241|397:241|371:294|311:291,1,192.640002351563,6|10,3:2|0:0,0:0:0:0:
238,157,78140,1,2,0:0:0:0:
317,39,78300,2,0,P|351:76|337:124,1,96.3200011757813,6|0,3:2|0:0,0:0:0:0:
167,51,78623,1,10,0:0:0:0:
95,17,78784,1,2,0:0:0:0:
0,184,78945,6,0,P|48:152|150:141,1,144.480001763672,6|0,3:2|0:0,0:0:0:0:
146,147,79267,5,10,0:0:0:0:
98,254,79428,1,2,0:0:0:0:
145,318,79590,1,2,3:2:0:0:
238,157,79751,5,2,0:0:0:0:
170,243,79912,1,10,0:0:0:0:
251,140,80073,1,2,0:0:0:0:
377,318,80234,6,0,B|333:299|290:285|290:285|268:218|354:208,1,192.640002351563,6|10,3:2|0:0,0:0:0:0:
442,238,80717,1,2,0:0:0:0:
325,84,80878,2,0,B|358:105|387:125|387:125|403:92|430:44,1,144.480001763672,6|0,3:2|0:0,0:0:0:0:
425,47,81200,1,10,0:0:0:0:
45,331,81523,6,0,P|92:353|121:267,1,144.480001763672,6|0,3:2|0:0,0:0:0:0:
64,245,81845,2,0,B|42:160|140:189|112:92,1,157.379993516144,14|0,3:2|0:0,0:0:0:0:
55,42,82167,5,8,3:2:0:0:
84,14,82248,1,8,0:0:0:0:
127,8,82328,1,8,0:0:0:0:
169,35,82409,1,8,0:0:0:0:
176,43,82489,6,0,P|214:33|236:27,1,52.4599978387147,10|8,3:2|0:0,0:0:0:0:
246,138,82650,2,0,P|271:144|296:151,1,52.4599978387147,8|8,0:0|0:0,0:0:0:0:
487,20,82811,6,0,P|469:70|458:131,1,104.919995677429,14|8,3:2|0:0,0:0:0:0:
388,166,83053,1,8,0:0:0:0:
376,180,83134,2,0,P|394:230|405:291,1,104.919995677429,8|8,3:2|0:0,0:0:0:0:
339,349,83375,1,8,0:0:0:0:
325,360,83456,2,0,P|269:367|245:313,1,104.919995677429,8|8,3:2|0:0,0:0:0:0:
231,242,83698,1,8,0:0:0:0:
217,231,83778,2,0,P|161:224|137:278,1,104.919995677429,8|8,3:2|0:0,0:0:0:0:
133,336,84020,1,8,0:0:0:0:
146,353,84100,5,8,3:2:0:0:
33,225,84261,1,8,0:0:0:0:
21,211,84342,1,8,0:0:0:0:
13,193,84423,1,8,3:2:0:0:
133,128,84584,1,8,0:0:0:0:
145,114,84665,1,8,0:0:0:0:
150,95,84745,6,0,P|202:76|267:76,1,104.919995677429,8|8,3:2|0:0,0:0:0:0:
316,142,84987,1,8,0:0:0:0:
334,150,85067,2,0,P|386:115|379:75,1,104.919995677429,8|8,3:2|0:0,0:0:0:0:
319,27,85309,1,8,0:0:0:0:
307,12,85389,5,10,0:0:0:0:
396,74,85550,1,0,3:2:0:0:
472,127,85712,1,0,3:2:0:0:
436,246,85873,5,10,0:0:0:0:
465,151,86034,1,0,3:2:0:0:
431,272,86195,1,0,3:2:0:0:
381,93,86356,5,10,0:0:0:0:
325,157,86517,1,0,3:2:0:0:
132,88,86678,5,10,0:0:0:0:
216,174,86839,1,0,3:2:0:0:
265,21,87000,5,10,0:0:0:0:
206,196,87162,1,0,3:2:0:0:
69,14,87323,6,0,P|41:81|26:179,1,157.379993516144,10|0,0:0|0:0,0:0:0:0:
33,183,87645,1,6,3:2:0:0:
33,183,87806,1,6,3:2:0:0:
256,192,87967,12,0,93123,0:0:0:0:
