osu file format v14

[General]
AudioFilename: audio.mp3
AudioLeadIn: 0
PreviewTime: 61945
Countdown: 0
SampleSet: Soft
StackLeniency: 0.3
Mode: 0
LetterboxInBreaks: 0
WidescreenStoryboard: 1

[Editor]
DistanceSpacing: 1
BeatDivisor: 4
GridSize: 16
TimelineZoom: 2.3

[Metadata]
Title:THE DAY
TitleUnicode:THE DAY
Artist:NateWantsToBattle
ArtistUnicode:NateWantsToBattle
Creator:Smoke
Version:Normal
Source:僕のヒーローアカデミア
Tags:ポルノグラフィティ Porno Graffitti Cover boku no hero academia my op opening tv english rock anime sajinn
BeatmapID:3007798
BeatmapSetID:1464434

[Difficulty]
HPDrainRate:4
CircleSize:3.2
OverallDifficulty:4.5
ApproachRate:5.5
SliderMultiplier:0.999999999999999
SliderTickRate:1

[Events]
//Background and Video events
0,0,"my hero jpeg g.jpg",0,0
Video,-381,"video.mp4"
//Break Periods
//Storyboard Layer 0 (Background)
//Storyboard Layer 1 (Fail)
//Storyboard Layer 2 (Pass)
//Storyboard Layer 3 (Foreground)
//Storyboard Layer 4 (Overlay)
//Storyboard Sound Samples

[TimingPoints]
231,361.01083032491,4,2,1,55,1,0
320,322.234156820623,4,2,1,55,1,0
320,-100,4,2,1,55,0,0
2897,-100,4,2,1,60,0,0
13209,-90.9090909090909,4,2,1,80,0,0
15787,-90.9090909090909,4,2,1,75,0,0
26098,-111.111111111111,4,2,1,65,0,0
36410,-111.111111111111,4,2,1,60,0,0
44143,-105.263157894737,4,2,1,65,0,0
46721,-100,4,2,1,70,0,0
54455,-100,4,2,1,65,0,0
57033,-100,4,2,1,75,0,0
62188,-90.9090909090909,4,2,1,80,0,0
82811,-90.9090909090909,4,2,1,85,0,0
85389,-90.9090909090909,4,2,1,75,0,0
85873,-90.9090909090909,4,2,1,77,0,0
86356,-90.9090909090909,4,2,1,79,0,0
86678,-90.9090909090909,4,2,1,81,0,0
87000,-90.9090909090909,4,2,1,83,0,0
87323,-90.9090909090909,4,2,1,85,0,0
87967,-90.9090909090909,4,2,1,85,0,0
88289,-90.9090909090909,4,2,1,82,0,0
88612,-90.9090909090909,4,2,1,79,0,0
88934,-90.9090909090909,4,2,1,76,0,0
89256,-90.9090909090909,4,2,1,73,0,0
89578,-90.9090909090909,4,2,1,70,0,0
89901,-90.9090909090909,4,2,1,67,0,0
90223,-90.9090909090909,4,2,1,64,0,0
90545,-90.9090909090909,4,2,1,55,0,0
90867,-90.9090909090909,4,2,1,51,0,0
91190,-90.9090909090909,4,2,1,47,0,0
91512,-90.9090909090909,4,2,1,42,0,0
91834,-90.9090909090909,4,2,1,37,0,0
92156,-90.9090909090909,4,2,1,32,0,0
92478,-90.9090909090909,4,2,1,23,0,0
92801,-90.9090909090909,4,2,1,15,0,0
93123,-90.9090909090909,4,2,1,5,0,0

[Colours]
Combo1 : 0,128,128
Combo2 : 240,105,23
Combo3 : 50,180,218
Combo4 : 242,24,57

[HitObjects]
452,334,320,6,0,L|337:313,2,99.9999999999999,14|2|2,3:2|0:0|0:0,0:0:0:0:
490,301,1125,1,2,0:0:0:0:
434,218,1447,1,2,0:0:0:0:
475,126,1770,1,2,0:0:0:0:
411,48,2092,2,0,B|361:57|361:57|332:93|332:93|279:104,1,150,2|8,0:0|3:3,0:0:0:0:
211,29,2897,6,0,P|165:22|104:55,1,99.9999999999999,6|2,3:2|0:0,0:0:0:0:
77,73,3381,1,2,0:0:0:0:
123,161,3703,2,0,P|111:213|103:258,1,99.9999999999999,2|2,0:0|0:0,0:0:0:0:
73,299,4186,2,0,P|98:337|163:344,1,99.9999999999999,2|2,0:0|0:0,0:0:0:0:
191,322,4670,1,2,0:0:0:0:
275,375,4992,2,0,P|316:348|379:358,1,99.9999999999999,2|2,0:0|0:0,0:0:0:0:
412,366,5475,6,0,P|401:308|391:247,1,99.9999999999999,2|2,0:0|0:0,0:0:0:0:
413,221,5959,1,2,0:0:0:0:
340,151,6281,2,0,P|294:167|239:183,1,99.9999999999999,2|2,0:0|0:0,0:0:0:0:
199,161,6764,2,0,P|170:127|178:67,1,99.9999999999999,2|2,0:0|0:0,0:0:0:0:
205,34,7248,1,2,0:0:0:0:
291,83,7570,1,2,0:0:0:0:
370,21,7892,1,2,0:0:0:0:
370,21,8053,6,0,P|433:12|494:117,1,200,6|2,3:2|0:0,0:0:0:0:
424,188,9020,1,2,0:0:0:0:
455,282,9342,2,0,B|386:272|386:272|338:299|338:299|251:286,1,200,2|2,0:0|0:0,0:0:0:0:
187,353,10309,1,2,0:0:0:0:
98,306,10631,6,0,P|88:257|75:198,1,99.9999999999999,2|2,0:0|0:0,0:0:0:0:
3,140,11275,2,0,P|13:91|26:32,1,99.9999999999999,2|2,0:0|0:0,0:0:0:0:
116,3,11920,1,2,0:0:0:0:
190,68,12242,2,0,P|238:55|292:44,1,99.9999999999999,2|0,0:0|0:0,0:0:0:0:
369,103,12887,1,8,3:3:0:0:
454,51,13209,6,0,P|485:93|480:162,1,110.000003356934,10|0,0:0|3:2,0:0:0:0:
460,198,13692,1,10,0:0:0:0:
510,301,14014,1,0,3:2:0:0:
510,301,14176,2,0,B|447:305|474:332|404:338,1,110.000003356934,10|0,0:0|3:2,0:0:0:0:
361,366,14659,1,10,0:0:0:0:
292,287,14981,1,8,3:3:0:0:
292,287,15142,2,0,P|262:295|221:304,1,55.0000016784668,10|0,0:0|3:2,0:0:0:0:
195,334,15465,2,0,P|165:326|124:317,1,55.0000016784668,10|0,0:0|3:2,0:0:0:0:
90,300,15787,6,0,P|54:258|61:192,1,110.000003356934,6|8,3:2|0:0,0:0:0:0:
79,156,16270,1,0,0:0:0:0:
22,62,16592,2,0,P|53:58|80:42,1,55.0000016784668,2|10,0:0|0:0,0:0:0:0:
115,11,16915,6,0,B|179:-1|162:41|229:32,1,110.000003356934,2|0,0:0|0:0,0:0:0:0:
272,11,17398,1,8,0:0:0:0:
338,98,17720,2,0,P|323:130|315:161,1,55.0000016784668,0|0,3:2|0:0,0:0:0:0:
275,184,18042,1,10,0:0:0:0:
341,271,18365,6,0,P|394:256|452:242,2,110.000003356934,6|8|0,3:2|0:0|3:2,0:0:0:0:
299,306,19170,2,0,P|271:299|236:293,1,55.0000016784668,2|10,0:0|0:0,0:0:0:0:
193,277,19492,6,0,P|162:230|186:167,1,110.000003356934,2|0,0:0|0:0,0:0:0:0:
208,137,19976,1,8,0:0:0:0:
148,44,20298,2,0,P|117:49|77:55,1,55.0000016784668,0|0,3:2|0:0,0:0:0:0:
39,60,20620,1,8,0:0:0:0:
11,165,20942,6,0,P|25:221|38:279,1,110.000003356934,6|8,3:2|0:0,0:0:0:0:
12,321,21426,1,0,0:0:0:0:
111,368,21748,2,0,P|135:366|171:343,1,55.0000016784668,2|10,0:0|0:0,0:0:0:0:
197,310,22070,6,0,B|234:320|234:320|253:348|253:348|303:360,1,110.000003356934,2|0,0:0|0:0,0:0:0:0:
335,325,22554,1,8,0:0:0:0:
432,374,22876,2,0,P|438:348|449:319,1,55.0000016784668,0|0,3:2|0:0,0:0:0:0:
496,295,23198,1,10,0:0:0:0:
437,202,23520,6,0,P|451:149|470:70,1,110.000003356934,6|8,3:2|0:0,0:0:0:0:
478,41,24004,1,8,3:3:0:0:
372,70,24326,2,0,P|340:77|306:89,1,55.0000016784668,10|2,0:0|3:2,0:0:0:0:
282,125,24648,6,0,B|212:84|115:142|184:175|108:235|46:220|46:220|68:204|69:171,1,330.000010070801,14|8,0:0|0:0,0:0:0:0:
24,56,26098,5,10,3:2:0:0:
24,56,26259,1,10,3:2:0:0:
337,7,27387,1,10,3:2:0:0:
337,7,27548,1,10,3:2:0:0:
385,321,28676,1,10,3:2:0:0:
385,321,28837,1,8,3:2:0:0:
72,370,29965,1,10,3:2:0:0:
72,370,30126,1,8,3:2:0:0:
185,76,31254,5,10,3:2:0:0:
185,76,31415,1,10,3:2:0:0:
499,135,32543,1,10,3:2:0:0:
499,135,32704,1,10,3:2:0:0:
290,377,33832,1,8,3:2:0:0:
290,377,33993,1,10,3:2:0:0:
343,66,35121,2,0,P|368:59|395:55,2,44.999998626709,0|0|0,3:2|3:2|3:2,0:0:0:0:
303,45,35604,1,8,0:0:0:0:
232,100,35926,2,0,P|228:125|239:149,2,44.999998626709,2|2|2,0:0|0:0|0:0,0:0:0:0:
198,69,36410,6,0,P|152:69|107:97,1,89.999997253418,2|2,3:2|3:2,0:0:0:0:
80,119,36893,1,2,0:0:0:0:
120,199,37215,1,2,0:0:0:0:
69,273,37538,2,0,P|81:315|92:360,2,89.999997253418,2|2|0,0:0|0:0|0:0,0:0:0:0:
216,168,38826,1,8,0:0:0:0:
216,168,38988,6,0,B|265:177|251:199|301:209,1,89.999997253418,2|2,3:2|3:2,0:0:0:0:
330,236,39471,1,2,0:0:0:0:
402,289,39793,2,0,P|409:313|414:341,1,44.999998626709,2|2,0:0|3:2,0:0:0:0:
448,359,40115,1,2,0:0:0:0:
502,286,40438,1,2,0:0:0:0:
452,210,40760,2,0,P|461:165|468:113,1,89.999997253418,2|10,0:0|0:0,0:0:0:0:
366,32,41565,5,2,3:2:0:0:
297,91,41888,1,2,3:2:0:0:
219,56,42210,1,2,3:2:0:0:
219,56,42371,1,2,0:0:0:0:
142,104,42693,2,0,P|122:137|128:195,1,89.999997253418,2|2,0:0|0:0,0:0:0:0:
197,239,43338,2,0,P|240:229|297:221,1,89.999997253418,2|2,0:0|0:0,0:0:0:0:
333,217,43821,1,2,3:2:0:0:
333,217,43982,5,2,0:0:0:0:
394,289,44304,1,2,0:0:0:0:
336,364,44627,2,0,P|289:353|230:344,1,94.9999974632263,2|0,0:0|0:0,0:0:0:0:
196,337,45110,1,8,0:0:0:0:
106,369,45432,2,0,P|85:354|68:319,1,47.4999987316131,10|0,0:0|3:2,0:0:0:0:
59,295,45755,1,8,0:0:0:0:
59,295,45916,1,2,3:2:0:0:
126,215,46238,1,10,0:0:0:0:
66,88,46721,5,10,0:0:0:0:
66,88,46882,2,0,P|102:58|166:60,2,99.9999999999999,0|2|0,3:2|3:2|3:2,0:0:0:0:
38,131,47688,1,8,0:0:0:0:
38,131,47849,1,0,3:2:0:0:
101,207,48171,2,0,P|86:264|77:309,1,99.9999999999999,0|0,3:2|3:2,0:0:0:0:
100,348,48655,1,10,0:0:0:0:
196,322,48977,2,0,P|223:314|260:305,1,50,8|2,0:0|3:2,0:0:0:0:
292,335,49299,5,10,0:0:0:0:
292,335,49460,1,2,3:2:0:0:
356,258,49782,2,0,P|356:210|313:160,1,99.9999999999999,2|0,3:2|3:2,0:0:0:0:
292,140,50266,1,8,0:0:0:0:
292,140,50427,1,0,3:2:0:0:
337,51,50749,2,0,P|394:61|447:70,1,99.9999999999999,0|0,3:2|3:2,0:0:0:0:
468,105,51232,2,0,P|454:132|456:172,1,50,8|0,0:0|3:2,0:0:0:0:
481,192,51555,1,8,0:0:0:0:
425,276,51877,5,10,0:0:0:0:
425,276,52038,2,0,B|381:251|381:251|319:267,2,99.9999999999999,2|2|0,3:2|3:2|3:2,0:0:0:0:
444,322,52844,1,8,0:0:0:0:
448,326,53005,2,0,P|423:367|373:381,1,99.9999999999999,0|0,3:2|3:2,0:0:0:0:
331,356,53488,1,8,0:0:0:0:
234,381,53810,2,0,P|228:353|216:315,1,50,8|0,0:0|3:2,0:0:0:0:
188,295,54133,2,0,P|193:267|206:229,1,50,8|2,0:0|3:2,0:0:0:0:
236,212,54455,5,6,3:2:0:0:
236,212,54616,1,0,3:2:0:0:
301,136,54938,2,0,P|296:111|287:73,1,50,2|8,3:2|0:0,0:0:0:0:
280,38,55260,1,2,3:2:0:0:
183,9,55583,2,0,P|136:6|86:38,1,99.9999999999999,2|8,3:2|0:0,0:0:0:0:
23,103,56227,2,0,P|15:133|11:155,1,50,2|8,3:2|0:0,0:0:0:0:
47,186,56549,1,2,3:2:0:0:
6,280,56872,1,0,3:2:0:0:
6,280,57033,6,0,B|60:286|44:307|114:315,1,99.9999999999999,10|2,0:0|3:2,0:0:0:0:
131,351,57516,1,10,0:0:0:0:
207,287,57838,2,0,P|233:292|270:301,1,50,10|0,0:0|3:2,0:0:0:0:
296,332,58161,2,0,B|337:305|337:305|387:318,1,99.9999999999999,10|0,0:0|3:2,0:0:0:0:
433,334,58644,1,8,0:0:0:0:
499,259,58966,2,0,P|499:234|485:204,1,50,0|8,3:2|0:0,0:0:0:0:
454,176,59288,2,0,P|454:151|468:121,1,50,8|8,3:2|3:3,0:0:0:0:
491,86,59611,5,4,3:2:0:0:
354,24,60094,1,4,3:2:0:0:
235,116,60577,1,4,3:2:0:0:
98,54,61060,1,4,3:2:0:0:
7,174,61544,2,0,P|34:207|110:208,1,99.9999999999999,4|8,3:2|0:0,0:0:0:0:
134,193,62027,1,2,0:0:0:0:
134,193,62188,6,0,B|176:203|176:203|189:224|189:224|236:236,1,110.000003356934,4|10,3:1|0:0,0:0:0:0:
283,246,62672,1,2,0:0:0:0:
270,141,62994,1,2,0:0:0:0:
270,141,63155,1,8,0:0:0:0:
354,70,63477,6,0,P|349:43|341:12,2,55.0000016784668,2|2|10,3:2|0:0|0:0,0:0:0:0:
405,91,63961,1,2,0:0:0:0:
502,142,64283,2,0,L|488:216,1,55.0000016784668,2|8,0:0|0:0,0:0:0:0:
509,253,64605,1,2,0:0:0:0:
509,253,64766,6,0,B|445:255|473:287|394:290,1,110.000003356934,6|10,3:2|0:0,0:0:0:0:
360,317,65250,1,2,0:0:0:0:
270,263,65572,1,2,0:0:0:0:
270,263,65733,1,8,0:0:0:0:
173,315,66055,6,0,P|166:344|161:371,2,55.0000016784668,2|2|10,3:2|0:0|0:0,0:0:0:0:
143,268,66539,1,2,0:0:0:0:
35,293,66861,2,0,P|30:268|22:237,1,55.0000016784668,2|8,0:0|0:0,0:0:0:0:
11,190,67183,1,2,0:0:0:0:
11,190,67344,6,0,P|44:148|111:146,1,110.000003356934,6|10,3:2|0:0,0:0:0:0:
174,62,67989,2,0,P|227:74|297:86,1,110.000003356934,6|10,3:2|0:0,0:0:0:0:
319,43,68472,1,2,0:0:0:0:
319,43,68633,6,0,P|376:32|436:25,1,110.000003356934,6|10,3:2|0:0,0:0:0:0:
499,110,69278,2,0,P|499:143|482:170,1,55.0000016784668,2|2,3:2|0:0,0:0:0:0:
443,192,69600,2,0,P|443:225|460:252,1,55.0000016784668,10|2,0:0|0:0,0:0:0:0:
482,290,69922,6,0,B|428:279|428:279|370:312,1,110.000003356934,6|10,3:2|0:0,0:0:0:0:
280,259,70567,2,0,P|265:286|267:316,2,55.0000016784668,6|2|10,3:2|0:0|0:0,0:0:0:0:
313,216,71050,1,2,0:0:0:0:
313,216,71211,5,6,3:2:0:0:
232,141,71533,2,0,P|237:112|248:66,1,55.0000016784668,14|0,0:0|3:2,0:0:0:0:
257,34,71855,1,8,3:3:0:0:
151,0,72178,2,0,P|123:1|87:27,1,55.0000016784668,8|10,0:0|0:0,0:0:0:0:
58,50,72500,6,0,B|68:92|68:92|89:105|89:105|101:152,1,110.000003356934,4|10,3:1|0:0,0:0:0:0:
113,199,72984,1,2,0:0:0:0:
31,272,73306,1,2,0:0:0:0:
31,272,73467,1,8,0:0:0:0:
104,361,73789,5,2,3:2:0:0:
104,361,73950,2,0,L|165:350,1,55.0000016784668,2|8,0:0|0:0,0:0:0:0:
212,341,74273,1,2,0:0:0:0:
319,319,74595,2,0,P|325:291|305:245,1,55.0000016784668,2|8,0:0|0:0,0:0:0:0:
297,221,74917,1,2,0:0:0:0:
297,221,75078,6,0,B|233:219|261:187|182:184,1,110.000003356934,6|10,3:2|0:0,0:0:0:0:
143,204,75562,1,2,0:0:0:0:
63,136,75884,1,2,0:0:0:0:
134,53,76206,1,0,0:0:0:0:
134,53,76367,6,0,P|127:24|122:-3,2,55.0000016784668,2|2|8,3:2|0:0|0:0,0:0:0:0:
183,77,76851,1,2,0:0:0:0:
289,50,77173,2,0,P|314:55|345:63,1,55.0000016784668,2|8,0:0|0:0,0:0:0:0:
382,107,77495,1,2,0:0:0:0:
382,107,77656,6,0,B|436:97|436:97|493:132,1,110.000003356934,6|10,3:2|0:0,0:0:0:0:
504,233,78301,2,0,P|450:225|394:271,1,110.000003356934,6|10,3:2|0:0,0:0:0:0:
367,293,78784,1,2,0:0:0:0:
367,293,78945,6,0,P|309:283|250:275,1,110.000003356934,6|10,3:2|0:0,0:0:0:0:
161,328,79590,2,0,P|161:295|144:268,1,55.0000016784668,2|2,3:2|0:0,0:0:0:0:
108,240,79912,2,0,P|108:207|125:180,1,55.0000016784668,10|2,0:0|0:0,0:0:0:0:
148,142,80234,6,0,B|202:157|202:157|260:120,1,110.000003356934,6|10,3:2|0:0,0:0:0:0:
297,102,80717,1,2,0:0:0:0:
297,102,80878,1,6,3:2:0:0:
246,4,81200,1,10,0:0:0:0:
144,48,81523,5,6,3:2:0:0:
42,5,81845,2,0,P|15:49|35:126,1,110.000003356934,14|8,3:2|3:2,0:0:0:0:
73,199,82489,2,0,P|65:229|58:258,1,55.0000016784668,10|8,3:2|0:0,0:0:0:0:
49,306,82811,6,0,B|111:308|88:341|154:344,1,110.000003356934,14|8,3:2|3:2,0:0:0:0:
203,370,83295,1,8,0:0:0:0:
203,370,83456,1,8,3:2:0:0:
289,301,83778,2,0,P|319:302|346:315,1,55.0000016784668,8|8,3:2|0:0,0:0:0:0:
390,337,84100,2,0,P|420:330|449:326,1,55.0000016784668,8|8,3:2|0:0,0:0:0:0:
498,317,84423,1,8,3:2:0:0:
453,216,84745,2,0,P|457:190|465:159,1,55.0000016784668,8|8,3:2|0:0,0:0:0:0:
500,121,85067,2,0,P|496:95|488:64,1,55.0000016784668,8|8,3:2|0:0,0:0:0:0:
447,31,85389,6,0,P|391:46|321:62,1,110.000003356934,10|0,0:0|3:2,0:0:0:0:
286,71,85873,2,0,P|266:97|266:137,2,55.0000016784668,10|0|0,0:0|3:2|3:2,0:0:0:0:
245,34,86356,1,10,0:0:0:0:
152,93,86678,2,0,P|162:122|174:170,1,55.0000016784668,10|0,0:0|3:2,0:0:0:0:
131,185,87000,2,0,P|121:214|109:262,1,55.0000016784668,10|0,0:0|3:2,0:0:0:0:
151,278,87323,1,10,0:0:0:0:
88,369,87645,1,6,3:2:0:0:
88,369,87806,1,6,3:2:0:0:
256,192,87967,12,0,93123,0:0:0:0:
