osu file format v14

[General]
AudioFilename: audio.mp3
AudioLeadIn: 0
PreviewTime: 61945
Countdown: 0
SampleSet: Soft
StackLeniency: 0.3
Mode: 0
LetterboxInBreaks: 0
WidescreenStoryboard: 1

[Editor]
DistanceSpacing: 1.4
BeatDivisor: 4
GridSize: 16
TimelineZoom: 2.3

[Metadata]
Title:THE DAY
TitleUnicode:THE DAY
Artist:NateWantsToBattle
ArtistUnicode:NateWantsToBattle
Creator:Smoke
Version:Hard
Source:僕のヒーローアカデミア
Tags:ポルノグラフィティ Porno Graffitti Cover boku no hero academia my op opening tv english rock anime sajinn
BeatmapID:3007797
BeatmapSetID:1464434

[Difficulty]
HPDrainRate:4.5
CircleSize:3.5
OverallDifficulty:6.6
ApproachRate:7.8
SliderMultiplier:1.4
SliderTickRate:1

[Events]
//Background and Video events
0,0,"my hero jpeg g.jpg",0,0
Video,-381,"video.mp4"
//Break Periods
//Storyboard Layer 0 (Background)
//Storyboard Layer 1 (Fail)
//Storyboard Layer 2 (Pass)
//Storyboard Layer 3 (Foreground)
//Storyboard Layer 4 (Overlay)
//Storyboard Sound Samples

[TimingPoints]
231,361.01083032491,4,2,1,55,1,0
320,322.234156820623,4,2,1,55,1,0
320,-111.111111111111,4,2,1,55,0,0
2495,-111.111111111111,4,2,1,5,0,0
2575,-111.111111111111,4,2,1,55,0,0
2897,-111.111111111111,4,2,1,60,0,0
13128,-111.111111111111,4,2,1,5,0,0
13209,-90.9090909090909,4,2,1,80,0,0
15787,-90.9090909090909,4,2,1,75,0,0
18284,-90.9090909090909,4,2,1,5,0,0
18365,-90.9090909090909,4,2,1,75,0,0
23440,-90.9090909090909,4,2,1,5,0,0
23521,-90.9090909090909,4,2,1,75,0,0
26098,-111.111111111111,4,2,1,65,0,0
36410,-111.111111111111,4,2,1,60,0,0
44143,-105.263157894737,4,2,1,65,0,0
46721,-100,4,2,1,70,0,0
54455,-100,4,2,1,65,0,0
57033,-90.9090909090909,4,2,1,75,0,0
59611,-111.111111111111,4,2,1,75,0,0
61786,-111.111111111111,4,2,1,5,0,0
61866,-111.111111111111,4,2,1,75,0,0
62188,-90.9090909090909,4,2,1,80,0,0
82811,-90.9090909090909,4,2,1,85,0,0
85389,-90.9090909090909,4,2,1,75,0,0
85873,-90.9090909090909,4,2,1,77,0,0
86356,-90.9090909090909,4,2,1,79,0,0
86678,-90.9090909090909,4,2,1,81,0,0
87000,-90.9090909090909,4,2,1,83,0,0
87323,-90.9090909090909,4,2,1,85,0,0
87564,-90.9090909090909,4,2,1,5,0,0
87645,-90.9090909090909,4,2,1,85,0,0
87967,-90.9090909090909,4,2,1,85,0,0
88289,-90.9090909090909,4,2,1,82,0,0
88612,-90.9090909090909,4,2,1,79,0,0
88934,-90.9090909090909,4,2,1,76,0,0
89256,-90.9090909090909,4,2,1,73,0,0
89578,-90.9090909090909,4,2,1,70,0,0
89901,-90.9090909090909,4,2,1,67,0,0
90223,-90.9090909090909,4,2,1,64,0,0
90545,-90.9090909090909,4,2,1,60,0,0
90867,-90.9090909090909,4,2,1,51,0,0
91190,-90.9090909090909,4,2,1,47,0,0
91512,-90.9090909090909,4,2,1,42,0,0
91834,-90.9090909090909,4,2,1,37,0,0
92156,-90.9090909090909,4,2,1,32,0,0
92478,-90.9090909090909,4,2,1,23,0,0
92801,-90.9090909090909,4,2,1,15,0,0
93123,-90.9090909090909,4,2,1,5,0,0

[Colours]
Combo1 : 0,128,128
Combo2 : 240,105,23
Combo3 : 50,180,218
Combo4 : 242,24,57

[HitObjects]
38,344,231,5,0,3:2:0:0:
38,344,320,2,0,L|108:330,1,62.9999980773926,14|0,3:2|0:0,0:0:0:0:
152,260,642,2,0,L|222:274,1,62.9999980773926,2|0,0:0|0:0,0:0:0:0:
287,221,964,1,2,0:0:0:0:
287,221,1125,1,2,0:0:0:0:
417,338,1447,2,0,P|427:281|443:210,1,125.999996154785,2|2,0:0|0:0,0:0:0:0:
480,42,2092,2,0,B|424:36|399:69|427:69|399:104|323:97,1,157.499995193481,2|0,0:0|0:0,0:0:0:0:
299,113,2575,2,0,P|265:103|228:94,1,62.9999980773926,8|0,3:3|0:0,0:0:0:0:
174,21,2897,6,0,P|113:20|65:84,1,125.999996154785,6|2,3:2|0:0,0:0:0:0:
111,142,3381,2,0,P|128:176|125:209,1,62.9999980773926,2|0,0:0|0:0,0:0:0:0:
50,243,3703,2,0,P|116:245|160:308,1,125.999996154785,2|2,0:0|0:0,0:0:0:0:
220,353,4186,5,2,0:0:0:0:
220,353,4347,2,0,P|254:343|294:334,1,62.9999980773926,2|2,0:0|0:0,0:0:0:0:
361,373,4670,2,0,P|369:341|384:289,1,62.9999980773926,2|0,0:0|0:0,0:0:0:0:
452,265,4992,2,0,P|436:213|411:128,1,125.999996154785,2|2,0:0|0:0,0:0:0:0:
430,57,5475,6,0,P|397:105|310:106,1,125.999996154785,2|2,0:0|0:0,0:0:0:0:
281,44,5959,2,0,P|249:52|210:61,1,62.9999980773926,2|0,0:0|0:0,0:0:0:0:
166,129,6281,2,0,P|134:121|95:112,1,62.9999980773926,2|0,0:0|0:0,0:0:0:0:
29,160,6603,1,2,0:0:0:0:
68,239,6764,6,0,P|85:269|84:310,2,62.9999980773926,2|2|2,0:0|0:0|0:0,0:0:0:0:
29,160,7248,2,0,P|17:133|17:94,1,62.9999980773926,2|0,0:0|0:0,0:0:0:0:
70,31,7570,2,0,P|103:25|138:17,1,62.9999980773926,2|0,0:0|0:0,0:0:0:0:
199,74,7892,1,2,0:0:0:0:
288,17,8053,6,0,B|331:56|388:29|388:29|409:70|409:70|465:46|517:85,1,251.999992309571,6|2,3:2|0:0,0:0:0:0:
380,223,9020,2,0,P|386:258|409:288,1,62.9999980773926,2|2,0:0|0:0,0:0:0:0:
506,307,9342,2,0,P|401:328|255:365,1,251.999992309571,2|2,0:0|0:0,0:0:0:0:
199,307,10148,1,2,0:0:0:0:
199,307,10309,2,0,P|217:282|218:239,1,62.9999980773926,2|2,0:0|0:0,0:0:0:0:
140,179,10631,6,0,P|207:163|273:146,1,125.999996154785,2|2,0:0|0:0,0:0:0:0:
310,76,11114,1,2,0:0:0:0:
310,76,11275,2,0,P|243:60|177:43,1,125.999996154785,2|2,0:0|0:0,0:0:0:0:
15,172,11920,2,0,P|36:200|39:243,1,62.9999980773926,2|0,0:0|0:0,0:0:0:0:
3,306,12242,2,0,P|67:322|145:344,1,125.999996154785,2|0,0:0|0:0,0:0:0:0:
258,369,12806,1,0,3:2:0:0:
258,369,12887,2,0,P|228:332|238:272,1,94.499997116089,8|0,3:3|0:0,0:0:0:0:
265,246,13209,6,0,P|302:256|347:266,2,77.0000023498536,10|0|0,0:0|3:2|3:2,0:0:0:0:
189,169,13692,2,0,P|152:179|107:189,2,77.0000023498536,10|0|0,0:0|3:2|3:2,0:0:0:0:
260,87,14176,2,0,P|297:97|342:107,1,77.0000023498536,10|0,0:0|3:2,0:0:0:0:
407,26,14498,1,0,3:2:0:0:
495,87,14659,2,0,L|513:176,1,77.0000023498536,10|0,0:0|3:2,0:0:0:0:
436,240,14981,1,8,3:3:0:0:
436,240,15062,1,0,3:2:0:0:
436,240,15142,2,0,P|427:282|420:323,1,77.0000023498536,10|0,0:0|3:2,0:0:0:0:
327,366,15465,1,10,0:0:0:0:
327,366,15626,1,0,3:2:0:0:
230,277,15787,6,0,B|185:257|145:287|170:299|128:330|69:311,1,154.000004699707,6|8,3:2|0:0,0:0:0:0:
24,230,16270,2,0,P|39:194|60:132,1,77.0000023498536,0|0,0:0|3:2,0:0:0:0:
17,61,16592,1,2,0:0:0:0:
17,61,16753,1,10,0:0:0:0:
121,34,16915,6,0,P|201:18|283:4,1,154.000004699707,2|0,0:0|0:0,0:0:0:0:
343,86,17398,1,8,0:0:0:0:
438,37,17559,2,0,P|477:67|467:172,1,154.000004699707
376,209,18042,2,0,P|391:269|403:323,1,115.50000352478,10|0,0:0|0:0,0:0:0:0:
363,359,18365,6,0,B|319:378|283:337|308:328|276:286|202:312,1,154.000004699707,6|8,3:2|0:0,0:0:0:0:
139,360,18848,2,0,P|130:323|116:276,1,77.0000023498536,0|0,0:0|3:2,0:0:0:0:
38,222,19170,1,2,0:0:0:0:
38,222,19331,1,10,0:0:0:0:
105,137,19492,6,0,P|178:135|215:199,1,154.000004699707,2|0,0:0|0:0,0:0:0:0:
231,305,19976,1,8,0:0:0:0:
328,261,20137,2,0,B|399:231|399:231|465:282,1,154.000004699707
384,357,20620,1,8,0:0:0:0:
231,207,20942,6,0,P|254:135|276:50,1,154.000004699707,6|8,3:2|0:0,0:0:0:0:
180,3,21426,2,0,P|144:11|87:24,1,77.0000023498536,0|0,0:0|3:2,0:0:0:0:
29,96,21748,1,2,0:0:0:0:
29,96,21909,1,10,0:0:0:0:
95,180,22070,6,0,B|58:198|55:244|55:244|95:274|51:342,1,154.000004699707,2|0,0:0|0:0,0:0:0:0:
155,374,22554,1,8,0:0:0:0:
238,306,22715,2,0,P|293:275|399:305,1,154.000004699707
476,337,23198,2,0,P|466:280|455:208,1,115.50000352478,10|0,0:0|0:0,0:0:0:0:
420,183,23520,6,0,P|463:145|448:50,1,154.000004699707,6|8,3:2|0:0,0:0:0:0:
346,72,24004,2,0,L|337:109,2,38.5000011749268,8|8|8,3:3|3:3|3:3,0:0:0:0:
255,14,24326,1,10,0:0:0:0:
167,76,24487,1,2,3:2:0:0:
71,26,24648,1,14,0:0:0:0:
256,192,24809,12,8,25615,0:0:0:0:
256,192,26098,5,10,3:2:0:0:
256,192,26259,2,0,P|267:256|277:328,1,125.999996154785,10|2,3:2|0:0,0:0:0:0:
337,370,26743,1,2,0:0:0:0:
481,292,27065,1,2,0:0:0:0:
375,173,27387,5,10,3:2:0:0:
375,173,27548,2,0,P|383:113|396:37,1,125.999996154785,10|0,3:2|0:0,0:0:0:0:
325,2,28032,1,0,0:0:0:0:
193,99,28354,1,0,0:0:0:0:
55,20,28676,5,10,3:2:0:0:
55,20,28837,2,0,P|30:85|70:153,1,125.999996154785,8|2,3:2|0:0,0:0:0:0:
116,181,29321,1,2,0:0:0:0:
7,303,29643,1,2,0:0:0:0:
165,360,29965,5,10,3:2:0:0:
165,360,30126,2,0,P|190:295|150:227,1,125.999996154785,8|2,3:2|0:0,0:0:0:0:
116,181,30610,1,2,0:0:0:0:
410,334,31254,5,10,3:2:0:0:
410,334,31415,2,0,L|434:207,1,125.999996154785,10|2,3:2|0:0,0:0:0:0:
500,163,31898,1,2,0:0:0:0:
411,24,32221,1,2,0:0:0:0:
278,119,32543,5,10,3:2:0:0:
278,119,32704,2,0,P|291:185|302:246,2,125.999996154785,10|2|2,3:2|0:0|0:0,0:0:0:0:
62,11,33832,5,8,3:2:0:0:
62,11,33993,2,0,P|52:45|43:92,1,62.9999980773926,10|0,3:2|0:0,0:0:0:0:
94,138,34315,2,0,P|110:232|127:335,1,188.999994232178,2|0,0:0|0:0,0:0:0:0:
200,379,34960,1,0,3:2:0:0:
200,379,35040,1,0,3:2:0:0:
200,379,35121,6,0,P|231:382|268:360,2,62.9999980773926,0|0|0,3:2|3:2|3:2,0:0:0:0:
125,324,35604,1,8,0:0:0:0:
287,289,35926,1,2,0:0:0:0:
287,289,36087,2,0,P|293:261|303:225,1,62.9999980773926,2|2,0:0|0:0,0:0:0:0:
248,157,36410,6,0,P|217:155|178:180,2,62.9999980773926,2|2|2,3:2|0:0|3:2,0:0:0:0:
303,88,36893,2,0,P|337:96|375:103,1,62.9999980773926,2|0,0:0|3:2,0:0:0:0:
440,56,37215,2,0,P|448:90|455:128,1,62.9999980773926,2|0,0:0|3:2,0:0:0:0:
505,188,37538,2,0,P|497:222|490:260,1,62.9999980773926,2|0,0:0|3:2,0:0:0:0:
466,334,37860,2,0,P|410:304|331:328,1,125.999996154785,2|0,0:0|0:0,0:0:0:0:
281,368,38343,1,0,3:2:0:0:
281,368,38665,1,0,3:2:0:0:
214,309,38826,1,8,0:0:0:0:
214,309,38988,6,0,P|180:323|137:309,1,62.9999980773926,2|0,3:2|0:0,0:0:0:0:
76,291,39310,1,2,3:2:0:0:
76,291,39471,2,0,P|71:253|64:212,1,62.9999980773926,2|0,0:0|3:2,0:0:0:0:
123,160,39793,2,0,P|155:161|183:176,1,62.9999980773926,2|2,0:0|3:2,0:0:0:0:
252,228,40115,2,0,P|317:212|385:197,2,125.999996154785,2|2|2,0:0|0:0|0:0,0:0:0:0:
342,66,41082,2,0,P|283:80|200:97,1,125.999996154785,10|0,0:0|0:0,0:0:0:0:
153,34,41565,6,0,P|120:37|94:61,1,62.9999980773926,2|2,3:2|0:0,0:0:0:0:
19,97,41888,2,0,P|29:134|37:170,1,62.9999980773926,2|2,3:2|0:0,0:0:0:0:
91,233,42210,1,2,3:2:0:0:
91,233,42371,2,0,P|82:266|75:301,1,62.9999980773926,2|0,0:0|3:2,0:0:0:0:
142,351,42693,2,0,P|206:333|268:318,1,125.999996154785,2|2,0:0|0:0,0:0:0:0:
433,369,43338,2,0,P|399:322|413:238,1,125.999996154785,2|2,0:0|0:0,0:0:0:0:
457,188,43821,1,2,3:2:0:0:
457,188,43982,6,0,P|448:157|436:111,1,62.9999980773926,2|0,0:0|3:2,0:0:0:0:
478,42,44304,2,0,P|443:36|400:27,1,66.4999982242585,2|8,0:0|0:0,0:0:0:0:
336,84,44627,2,0,B|296:77|265:101|289:114|251:143|203:128,1,132.999996448517,2|0,0:0|0:0,0:0:0:0:
155,63,45110,1,8,0:0:0:0:
6,185,45432,2,0,P|25:213|36:256,1,66.4999982242585,10|0,0:0|3:2,0:0:0:0:
23,292,45674,1,0,3:2:0:0:
23,292,45755,1,8,0:0:0:0:
100,344,45916,2,0,P|134:336|179:327,1,66.4999982242585,2|0,3:2|3:2,0:0:0:0:
220,255,46238,1,8,0:0:0:0:
495,356,46721,5,10,0:0:0:0:
434,279,46882,2,0,P|448:225|470:136,2,140,0|2|0,3:2|3:2|3:2,0:0:0:0:
356,339,47688,1,8,0:0:0:0:
271,289,47849,2,0,P|203:277|132:333,2,140,0|0|0,3:2|3:2|3:2,0:0:0:0:
348,228,48655,2,0,P|336:192|323:147,1,70,10|0,0:0|3:2,0:0:0:0:
388,85,48977,2,0,P|352:73|307:60,1,70,8|2,0:0|3:2,0:0:0:0:
214,3,49299,5,10,0:0:0:0:
214,3,49460,2,0,P|184:22|129:29,1,70,2|8,3:2|3:3,0:0:0:0:
51,11,49782,2,0,P|7:69|36:142,1,140,2|0,3:2|3:2,0:0:0:0:
113,184,50266,1,8,0:0:0:0:
113,184,50427,2,0,P|147:176|210:165,1,70,0|8,3:2|3:3,0:0:0:0:
268,122,50749,2,0,P|302:129|365:141,2,70,0|8|0,3:2|3:3|3:2,0:0:0:0:
182,170,51232,2,0,P|172:204|195:252,1,70,8|0,0:0|3:2,0:0:0:0:
269,280,51555,2,0,P|279:314|256:362,1,70,8|2,0:0|3:2,0:0:0:0:
150,384,51877,5,10,0:0:0:0:
68,329,52038,2,0,P|77:299|86:260,1,70,2|0,3:2|0:0,0:0:0:0:
27,182,52360,2,0,B|73:217|73:217|167:189,1,140,2|0,3:2|3:2,0:0:0:0:
135,100,52844,1,8,0:0:0:0:
135,100,53005,2,0,P|200:117|276:135,1,140,0|0,3:2|3:2,0:0:0:0:
299,33,53488,2,0,P|332:15|382:24,1,70,8|0,0:0|3:2,0:0:0:0:
429,88,53810,2,0,P|428:125|395:164,1,70,8|0,0:0|3:2,0:0:0:0:
318,180,54133,2,0,P|285:160|268:112,1,70,8|2,0:0|3:2,0:0:0:0:
416,156,54455,5,6,3:2:0:0:
416,156,54616,2,0,B|439:170|442:208|442:208|406:238|431:288,1,140,0|2,3:2|3:2,0:0:0:0:
482,361,55099,1,8,0:0:0:0:
386,383,55260,2,0,P|351:374|303:363,1,70,2|0,3:2|0:0,0:0:0:0:
244,299,55583,2,0,P|210:308|168:317,1,70,2|0,3:2|3:2,0:0:0:0:
89,360,55905,2,0,P|45:312|55:231,1,140,8|2,0:0|3:2,0:0:0:0:
121,175,56388,1,8,0:0:0:0:
67,92,56549,2,0,P|36:101|-3:109,2,70,2|0|0,3:2|3:2|3:2,0:0:0:0:
166,5,57033,6,0,P|197:3|251:38,1,77.0000023498536,10|0,0:0|3:2,0:0:0:0:
278,65,57274,1,0,3:2:0:0:
278,65,57355,1,2,3:2:0:0:
196,135,57516,2,0,P|204:171|212:211,1,77.0000023498536,10|0,0:0|3:2,0:0:0:0:
300,271,57838,2,0,P|307:236|318:193,1,77.0000023498536,10|0,0:0|3:2,0:0:0:0:
391,85,58161,6,0,P|446:80|515:164,1,154.000004699707,10|0,0:0|3:2,0:0:0:0:
436,222,58644,1,8,0:0:0:0:
436,222,58805,2,0,P|447:262|461:310,1,77.0000023498536,0|0,3:2|3:2,0:0:0:0:
383,373,59127,1,8,0:0:0:0:
383,373,59208,1,8,0:0:0:0:
383,373,59288,2,0,P|364:367|342:361,3,38.5000011749268,8|8|8|8,3:2|3:3|3:3|3:3,0:0:0:0:
312,323,59611,6,0,B|261:308|214:339|242:355|189:387|134:356,1,188.999994232178,4|4,3:2|3:2,0:0:0:0:
15,124,60577,2,0,B|66:109|113:140|85:156|138:188|193:157,1,188.999994232178,4|4,3:2|3:2,0:0:0:0:
407,9,61544,2,0,P|395:62|385:120,1,94.499997116089,4|0,3:2|0:0,0:0:0:0:
418,133,61866,1,8,0:0:0:0:
346,184,62027,1,2,0:0:0:0:
439,265,62188,6,0,P|426:333|345:360,1,154.000004699707,4|10,3:1|0:0,0:0:0:0:
253,320,62672,2,0,P|212:332|166:343,1,77.0000023498536,2|0,0:0|3:2,0:0:0:0:
73,363,62994,1,2,0:0:0:0:
6,278,63155,2,0,P|8:239|39:196,1,77.0000023498536,8|0,0:0|0:0,0:0:0:0:
114,144,63477,6,0,P|152:153|192:161,2,77.0000023498536,2|2|10,3:2|0:0|0:0,0:0:0:0:
48,59,63961,2,0,P|85:49|122:38,1,77.0000023498536,2|0,0:0|3:2,0:0:0:0:
226,10,64283,2,0,P|250:37|254:83,1,77.0000023498536,2|8,0:0|0:0,0:0:0:0:
189,160,64605,1,2,0:0:0:0:
302,244,64766,6,0,B|333:209|383:220|383:220|408:250|448:237,1,154.000004699707,6|10,3:2|0:0,0:0:0:0:
509,154,65250,2,0,P|501:114|465:79,1,77.0000023498536,2|0,0:0|3:2,0:0:0:0:
388,26,65572,1,2,0:0:0:0:
297,84,65733,2,0,P|260:73|215:62,1,77.0000023498536,8|0,0:0|0:0,0:0:0:0:
151,144,66055,6,0,P|165:180|177:216,2,77.0000023498536,2|2|10,3:2|0:0|0:0,0:0:0:0:
58,199,66539,2,0,P|32:237|33:283,1,77.0000023498536,2|0,0:0|3:2,0:0:0:0:
124,317,66861,2,0,P|150:355|149:401,1,77.0000023498536,2|8,0:0|0:0,0:0:0:0:
239,321,67183,1,2,0:0:0:0:
361,376,67344,6,0,P|375:307|395:220,1,154.000004699707,6|10,3:2|0:0,0:0:0:0:
475,154,67828,1,2,0:0:0:0:
413,65,67989,2,0,B|365:58|330:90|360:92|323:130|260:107,1,154.000004699707,6|10,3:2|0:0,0:0:0:0:
213,23,68472,1,2,0:0:0:0:
93,80,68633,6,0,B|97:117|131:132|131:132|93:175|129:236,1,154.000004699707,6|10,3:2|0:0,0:0:0:0:
45,292,69116,1,2,0:0:0:0:
136,350,69278,2,0,P|172:353|219:325,1,77.0000023498536,2|2,3:2|0:0,0:0:0:0:
263,243,69600,2,0,P|301:240|335:256,1,77.0000023498536,10|2,0:0|0:0,0:0:0:0:
448,330,69922,6,0,B|425:308|427:269|427:269|467:232|433:174,1,154.000004699707,6|10,3:2|0:0,0:0:0:0:
508,105,70405,1,2,0:0:0:0:
417,45,70567,2,0,P|377:45|343:68,1,77.0000023498536,6|2,3:2|0:0,0:0:0:0:
268,139,70889,1,10,0:0:0:0:
187,67,71050,1,2,0:0:0:0:
89,113,71211,5,6,3:2:0:0:
89,113,71533,2,0,P|106:171|121:232,1,115.50000352478,14|8,0:0|0:0,0:0:0:0:
81,262,71855,2,0,P|59:293|60:342,1,77.0000023498536,8|0,3:3|3:2,0:0:0:0:
151,383,72178,1,8,0:0:0:0:
220,300,72339,1,10,0:0:0:0:
337,351,72500,6,0,B|387:337|432:327|432:327|457:354|487:342,1,154.000004699707,4|10,3:1|0:0,0:0:0:0:
507,239,72983,2,0,L|489:164,1,77.0000023498536,2|0,0:0|3:2,0:0:0:0:
404,95,73306,2,0,P|366:103|326:110,1,77.0000023498536,2|8,0:0|0:0,0:0:0:0:
228,149,73628,1,0,0:0:0:0:
167,66,73789,5,2,3:2:0:0:
167,66,73950,2,0,P|138:95|131:151,1,77.0000023498536,2|8,0:0|0:0,0:0:0:0:
67,218,74273,2,0,P|104:228|141:239,1,77.0000023498536,2|0,0:0|3:2,0:0:0:0:
223,307,74594,2,0,P|186:317|149:328,1,77.0000023498536,2|8,0:0|0:0,0:0:0:0:
56,382,74917,1,2,0:0:0:0:
0,273,75078,6,0,B|38:235|22:191|22:191|-8:170|7:127,1,154.000004699707,6|10,3:2|0:0,0:0:0:0:
79,55,75562,2,0,P|119:65|168:76,1,77.0000023498536,2|0,0:0|3:2,0:0:0:0:
256,42,75883,2,0,P|296:32|345:21,1,77.0000023498536,2|8,0:0|0:0,0:0:0:0:
425,75,76206,1,0,0:0:0:0:
349,151,76367,5,2,3:2:0:0:
349,151,76528,2,0,P|329:192|338:233,1,77.0000023498536,2|8,0:0|0:0,0:0:0:0:
419,286,76851,2,0,P|409:320|398:365,1,77.0000023498536,2|0,0:0|3:2,0:0:0:0:
294,381,77172,2,0,P|283:343|271:307,1,77.0000023498536,2|8,0:0|0:0,0:0:0:0:
183,244,77495,1,2,0:0:0:0:
69,314,77656,6,0,B|82:261|91:217|91:217|64:203|62:165,1,154.000004699707,6|10,3:2|0:0,0:0:0:0:
153,113,78140,1,2,0:0:0:0:
76,37,78301,2,0,P|147:24|237:5,1,154.000004699707,6|10,3:2|0:0,0:0:0:0:
305,80,78784,1,2,0:0:0:0:
397,6,78945,6,0,B|427:27|423:64|423:64|479:53|514:115,1,154.000004699707,6|10,3:2|0:0,0:0:0:0:
431,177,79428,1,2,0:0:0:0:
488,268,79590,2,0,P|449:276|404:289,1,77.0000023498536,2|2,3:2|0:0,0:0:0:0:
329,352,79911,2,0,P|294:343|245:331,1,77.0000023498536,10|2,0:0|0:0,0:0:0:0:
128,381,80234,6,0,B|151:359|149:320|149:320|109:283|140:227,1,154.000004699707,6|10,3:2|0:0,0:0:0:0:
215,170,80717,1,2,0:0:0:0:
137,94,80879,2,0,P|97:94|63:117,1,77.0000023498536,6|0,3:2|0:0,0:0:0:0:
31,215,81201,1,10,0:0:0:0:
214,310,81523,5,6,3:2:0:0:
214,310,81845,2,0,P|296:290|382:272,1,154.000004699707,14|8,3:2|3:2,0:0:0:0:
467,333,82328,1,8,0:0:0:0:
467,333,82409,1,8,0:0:0:0:
467,333,82489,2,0,P|470:314|479:287,3,38.5000011749268,10|8|8|8,3:2|0:0|0:0|0:0,0:0:0:0:
508,251,82811,5,14,3:2:0:0:
449,160,82973,2,0,L|460:98,2,38.5000011749268,8|8|8,0:0|0:0|3:2,0:0:0:0:
343,138,83295,2,0,L|354:76,2,38.5000011749268,8|8|8,0:0|0:0|3:2,0:0:0:0:
248,86,83617,2,0,L|237:24,2,38.5000011749268,8|8|8,0:0|0:0|3:2,0:0:0:0:
141,104,83939,2,0,L|130:42,2,38.5000011749268,8|8|8,0:0|0:0|3:2,0:0:0:0:
67,182,84261,2,0,L|29:175,2,38.5000011749268,8|8|8,0:0|0:0|3:2,0:0:0:0:
49,289,84583,2,0,L|11:282,2,38.5000011749268,8|8|8,0:0|0:0|3:2,0:0:0:0:
136,370,84906,1,8,0:0:0:0:
136,370,84987,1,8,0:0:0:0:
136,370,85067,2,0,P|179:365|226:323,1,77.0000023498536,8|8,3:2|0:0,0:0:0:0:
237,304,85309,1,8,0:0:0:0:
237,304,85389,6,0,P|226:265|217:219,1,77.0000023498536,10|0,0:0|3:2,0:0:0:0:
120,195,85712,1,0,3:2:0:0:
120,195,85873,2,0,P|131:156|140:110,1,77.0000023498536,10|0,0:0|3:2,0:0:0:0:
159,14,86195,1,0,3:2:0:0:
266,71,86356,6,0,P|306:69|346:38,1,77.0000023498536,10|0,0:0|3:2,0:0:0:0:
405,184,86678,2,0,P|365:182|325:151,1,77.0000023498536,10|0,0:0|3:2,0:0:0:0:
253,288,87000,2,0,P|293:286|333:255,1,77.0000023498536,10|0,0:0|3:2,0:0:0:0:
444,354,87323,2,0,P|409:310|467:273,1,115.50000352478,10|0,0:0|0:0,0:0:0:0:
499,261,87645,1,6,3:2:0:0:
499,261,87806,1,6,3:2:0:0:
256,192,87967,12,0,93123,0:0:0:0:
