osu file format v14

[General]
AudioFilename: audio.mp3
AudioLeadIn: 0
PreviewTime: 61945
Countdown: 0
SampleSet: Soft
StackLeniency: 0.3
Mode: 0
LetterboxInBreaks: 0
WidescreenStoryboard: 0

[Editor]
DistanceSpacing: 0.4
BeatDivisor: 4
GridSize: 16
TimelineZoom: 2.3

[Metadata]
Title:THE DAY
TitleUnicode:THE DAY
Artist:NateWantsToBattle
ArtistUnicode:NateWantsToBattle
Creator:Smoke
Version:Expert
Source:僕のヒーローアカデミア
Tags:ポルノグラフィティ Porno Graffitti Cover boku no hero academia my op opening tv english rock anime sajinn
BeatmapID:3007796
BeatmapSetID:1464434

[Difficulty]
HPDrainRate:5.8
CircleSize:4
OverallDifficulty:8.8
ApproachRate:9.2
SliderMultiplier:2
SliderTickRate:1

[Events]
//Background and Video events
0,0,"my hero jpeg g.jpg",0,0
Video,-381,"video.mp4"
//Break Periods
//Storyboard Layer 0 (Background)
//Storyboard Layer 1 (Fail)
//Storyboard Layer 2 (Pass)
//Storyboard Layer 3 (Foreground)
//Storyboard Layer 4 (Overlay)
//Storyboard Sound Samples

[TimingPoints]
231,361.01083032491,4,2,1,55,1,0
320,322.234156820623,4,2,1,55,1,0
320,-100,4,2,1,55,0,0
1689,-100,4,2,1,5,0,0
1770,-100,4,2,1,55,0,0
2011,-100,4,2,1,5,0,0
2092,-100,4,2,1,55,0,0
2495,-100,4,2,1,5,0,0
2576,-100,4,2,1,55,0,0
2656,-100,4,2,1,5,0,0
2737,-100,4,2,1,55,0,0
2897,-142.857142857143,4,2,1,60,0,0
7489,-142.857142857143,4,2,1,5,0,0
7570,-142.857142857143,4,2,1,60,0,0
8053,-153.846153846154,4,2,1,60,0,0
11517,-153.846153846154,4,2,1,5,0,0
11598,-153.846153846154,4,2,1,60,0,0
11920,-133.333333333334,4,2,1,60,0,0
12887,-285.714285714289,4,2,1,60,0,0
13128,-285.714285714289,4,2,1,5,0,0
13209,-90.9090909090909,4,2,1,80,0,0
15787,-83.3333333333333,4,2,1,75,0,0
16028,-83.3333333333333,4,2,1,5,0,0
16109,-83.3333333333333,4,2,1,75,0,0
16190,-83.3333333333333,4,2,1,75,0,0
16271,-83.3333333333333,4,2,1,75,0,0
16673,-83.3333333333333,4,2,1,5,0,0
16754,-83.3333333333333,4,2,1,75,0,0
16834,-83.3333333333333,4,2,1,5,0,0
16915,-83.3333333333333,4,2,1,75,0,0
18284,-83.3333333333333,4,2,1,5,0,0
18365,-83.3333333333333,4,2,1,75,0,0
19251,-83.3333333333333,4,2,1,5,0,0
19332,-83.3333333333333,4,2,1,75,0,0
19412,-83.3333333333333,4,2,1,5,0,0
19493,-83.3333333333333,4,2,1,75,0,0
19895,-83.3333333333333,4,2,1,5,0,0
19976,-83.3333333333333,4,2,1,75,0,0
20620,-125,4,2,1,75,0,0
20862,-125,4,2,1,5,0,0
20942,-83.3333333333333,4,2,1,75,0,0
21184,-83.3333333333333,4,2,1,5,0,0
21265,-83.3333333333333,4,2,1,75,0,0
21829,-83.3333333333333,4,2,1,5,0,0
21910,-83.3333333333333,4,2,1,75,0,0
21990,-83.3333333333333,4,2,1,5,0,0
22071,-83.3333333333333,4,2,1,75,0,0
23440,-83.3333333333333,4,2,1,5,0,0
23521,-83.3333333333333,4,2,1,75,0,0
23762,-83.3333333333333,4,2,1,5,0,0
23843,-83.3333333333333,4,2,1,75,0,0
24648,-142.857142857143,4,2,1,75,0,0
26018,-142.857142857143,4,2,1,5,0,0
26098,-166.666666666667,4,2,1,65,0,0
35926,-100,4,2,1,65,0,0
36007,-99.9999999999999,4,2,1,5,0,0
36087,-100,4,2,1,65,0,0
36168,-99.9999999999999,4,2,1,5,0,0
36248,-100,4,2,1,65,0,0
36329,-99.9999999999999,4,2,1,5,0,0
36410,-142.857142857143,4,2,1,60,0,0
44143,-142.857142857143,4,2,1,65,0,0
45432,-125,4,2,1,65,0,0
46238,-83.3333333333333,4,2,1,65,0,0
46721,-111.111111111111,4,2,1,70,0,0
54455,-125,4,2,1,65,0,0
57033,-99.9999999999999,4,2,1,75,0,0
59611,-125,4,2,1,75,0,0
60013,-125,4,2,1,5,0,0
60094,-99.9999999999999,4,2,1,75,0,0
60497,-99.9999999999999,4,2,1,5,0,0
60577,-125,4,2,1,75,0,0
60980,-125,4,2,1,5,0,0
61061,-90.9090909090908,4,2,1,75,0,0
61463,-90.9090909090908,4,2,1,5,0,0
61544,-111.111111111111,4,2,1,75,0,0
61786,-111.111111111111,4,2,1,5,0,0
61867,-111.111111111111,4,2,1,75,0,0
62188,-80,4,2,1,80,0,0
62430,-80,4,2,1,5,0,0
62511,-80,4,2,1,80,0,0
65008,-80,4,2,1,5,0,0
65089,-80,4,2,1,80,0,0
67586,-80,4,2,1,5,0,0
67667,-80,4,2,1,80,0,0
68230,-80,4,2,1,5,0,0
68311,-80,4,2,1,80,0,0
68875,-80,4,2,1,5,0,0
68956,-80,4,2,1,80,0,0
70164,-80,4,2,1,5,0,0
70245,-80,4,2,1,80,0,0
71211,-153.846153846154,4,2,1,80,0,0
71453,-80,4,2,1,5,0,0
71534,-80,4,2,1,80,0,0
72258,-80,4,2,1,5,0,0
72339,-80,4,2,1,80,0,0
72419,-80,4,2,1,5,0,0
72500,-80,4,2,1,80,0,0
72742,-80,4,2,1,5,0,0
72823,-80,4,2,1,80,0,0
75320,-80,4,2,1,5,0,0
75401,-80,4,2,1,80,0,0
77897,-80,4,2,1,5,0,0
77978,-80,4,2,1,80,0,0
78542,-80,4,2,1,5,0,0
78623,-80,4,2,1,80,0,0
79186,-80,4,2,1,5,0,0
79267,-80,4,2,1,80,0,0
80475,-80,4,2,1,5,0,0
80556,-80,4,2,1,80,0,0
81523,-153.846153846154,4,2,1,80,0,0
81764,-80,4,2,1,5,0,0
81845,-80,4,2,1,80,0,0
82086,-80,4,2,1,5,0,0
82167,-80,4,2,1,80,0,0
82811,-76.9230769230769,4,2,1,85,0,0
85389,-74.0740740740741,4,2,1,75,0,0
85873,-74.0740740740741,4,2,1,77,0,0
86356,-74.0740740740741,4,2,1,79,0,0
86678,-71.4285714285714,4,2,1,81,0,0
87000,-71.4285714285714,4,2,1,83,0,0
87323,-71.4285714285714,4,2,1,85,0,0
87564,-71.4285714285714,4,2,1,5,0,0
87645,-71.4285714285714,4,2,1,85,0,0
88289,-71.4285714285714,4,2,1,82,0,0
88612,-71.4285714285714,4,2,1,79,0,0
88934,-71.4285714285714,4,2,1,76,0,0
89256,-71.4285714285714,4,2,1,73,0,0
89578,-71.4285714285714,4,2,1,70,0,0
89901,-71.4285714285714,4,2,1,67,0,0
90223,-71.4285714285714,4,2,1,64,0,0
90545,-71.4285714285714,4,2,1,60,0,0
90867,-71.4285714285714,4,2,1,51,0,0
91190,-71.4285714285714,4,2,1,47,0,0
91512,-71.4285714285714,4,2,1,42,0,0
91834,-71.4285714285714,4,2,1,37,0,0
92156,-71.4285714285714,4,2,1,32,0,0
92478,-71.4285714285714,4,2,1,23,0,0
92801,-71.4285714285714,4,2,1,15,0,0
93123,-71.4285714285714,4,2,1,5,0,0

[Colours]
Combo1 : 0,128,128
Combo2 : 240,105,23
Combo3 : 50,180,218
Combo4 : 242,24,57

[HitObjects]
50,341,231,6,0,L|43:382,1,25,0|0,3:2|3:2,0:0:0:0:
57,329,320,2,0,P|48:278|38:226,1,100,14|0,3:2|0:0,0:0:0:0:
204,300,642,2,0,P|194:250|184:201,1,100,2|0,0:0|0:0,0:0:0:0:
355,272,964,1,2,0:0:0:0:
355,272,1125,1,2,0:0:0:0:
482,20,1447,6,0,P|401:35|365:94,1,150,2|0,0:0|0:0,0:0:0:0:
274,113,1770,2,0,P|355:128|391:187,1,150,2|0,0:0|0:0,0:0:0:0:
486,201,2092,2,0,P|405:216|421:366,1,250,2|0,0:0|0:0,0:0:0:0:
417,366,2575,2,0,P|437:351|470:352,1,50,8|0,3:3|0:0,0:0:0:0:
507,279,2736,1,0,0:0:0:0:
303,363,2897,6,0,P|236:347|142:327,1,139.999995727539,6|2,3:2|0:0,0:0:0:0:
21,183,3381,2,0,P|55:174|109:160,1,69.9999978637696,2|0,0:0|0:0,0:0:0:0:
156,111,3703,2,0,P|130:198|117:256,1,139.999995727539,2|2,0:0|0:0,0:0:0:0:
311,150,4186,5,2,0:0:0:0:
373,205,4347,1,2,0:0:0:0:
455,189,4509,1,2,0:0:0:0:
495,115,4670,2,0,P|471:91|464:46,1,69.9999978637696,2|0,0:0|0:0,0:0:0:0:
383,2,4992,2,0,B|299:-3|332:40|230:33,1,139.999995727539,2|2,0:0|0:0,0:0:0:0:
58,0,5475,5,2,0:0:0:0:
58,0,5797,1,2,0:0:0:0:
0,60,5959,2,0,P|7:97|13:139,1,69.9999978637696,2|0,0:0|0:0,0:0:0:0:
107,221,6281,2,0,P|100:255|95:289,1,69.9999978637696,2|0,0:0|0:0,0:0:0:0:
26,343,6603,1,2,0:0:0:0:
187,267,6764,5,2,0:0:0:0:
249,323,6925,1,2,0:0:0:0:
326,291,7086,1,2,0:0:0:0:
393,342,7248,2,0,P|445:328|526:311,1,104.999996795654,2|0,0:0|0:0,0:0:0:0:
500,307,7570,2,0,P|492:271|454:249,1,69.9999978637696,2|0,0:0|0:0,0:0:0:0:
390,212,7892,1,2,0:0:0:0:
484,11,8053,6,0,B|520:30|513:71|513:71|461:103|397:75|434:50|375:28|310:52,1,259.999988098145,6|2,3:2|0:0,0:0:0:0:
337,45,9020,1,2,0:0:0:0:
258,91,9181,1,2,0:0:0:0:
86,27,9342,6,0,P|106:88|127:169,1,129.999994049073,2|2,0:0|0:0,0:0:0:0:
66,210,9825,1,2,0:0:0:0:
206,344,9987,1,2,0:0:0:0:
229,262,10148,1,2,0:0:0:0:
124,321,10309,1,2,0:0:0:0:
147,239,10470,1,2,0:0:0:0:
291,327,10631,6,0,P|354:308|440:287,1,129.999994049073,2|2,0:0|0:0,0:0:0:0:
487,338,11114,1,2,0:0:0:0:
402,165,11275,2,0,P|435:197|497:198,1,97.4999955368044,2|0,0:0|0:0,0:0:0:0:
496,198,11598,1,2,0:0:0:0:
205,364,11920,6,0,P|173:355|123:342,1,75.0000028610231,2|0,0:0|0:0,0:0:0:0:
46,375,12242,2,0,P|95:340|85:245,1,150.000005722046,2|0,0:0|0:0,0:0:0:0:
17,82,12806,5,0,3:2:0:0:
26,91,12887,2,0,P|49:101|83:96,1,52.4999983978272,8|0,3:3|0:0,0:0:0:0:
158,65,13209,5,10,0:0:0:0:
215,278,13370,1,0,3:2:0:0:
238,362,13531,1,0,3:2:0:0:
283,50,13692,5,10,0:0:0:0:
220,267,13853,1,0,3:2:0:0:
195,360,14014,1,0,3:2:0:0:
400,89,14176,5,10,0:0:0:0:
223,258,14337,1,0,3:2:0:0:
146,332,14498,1,0,3:2:0:0:
473,188,14659,5,10,0:0:0:0:
227,249,14820,1,0,3:2:0:0:
110,280,14981,5,8,3:3:0:0:
105,272,15062,1,0,3:2:0:0:
100,264,15142,1,10,0:0:0:0:
277,125,15303,1,0,3:2:0:0:
349,338,15465,5,10,0:0:0:0:
181,157,15626,1,0,3:2:0:0:
16,306,15787,6,0,B|75:291|114:320|85:334|124:366|193:349,1,179.999994506836,6|0,3:2|0:0,0:0:0:0:
190,343,16109,1,8,0:0:0:0:
391,241,16270,2,0,B|354:238|343:210|343:210|319:231|274:212,1,119.999996337891,0|0,0:0|3:2,0:0:0:0:
127,32,16592,2,0,P|136:63|146:102,1,59.9999981689454,2|0,0:0|0:0,0:0:0:0:
232,132,16753,2,0,P|239:102|248:74,1,59.9999981689454,10|0,0:0|0:0,0:0:0:0:
332,13,16915,6,0,B|386:-23|453:-4|484:51|484:51|446:74|463:130,1,239.999992675781,2|0,0:0|0:0,0:0:0:0:
323,316,17398,1,8,0:0:0:0:
196,251,17559,2,0,P|142:273|69:295,2,119.999996337891,0|0|0,0:0|3:2|0:0,0:0:0:0:
75,113,18042,2,0,B|58:80|22:78|22:78|63:17|144:61,1,179.999994506836,10|0,0:0|0:0,0:0:0:0:
221,0,18365,6,0,P|162:62|206:151,1,179.999994506836,6|0,3:2|0:0,0:0:0:0:
200,151,18687,1,8,0:0:0:0:
420,34,18848,2,0,B|396:66|352:53|352:53|339:29|314:34,1,119.999996337891,0|0,0:0|3:2,0:0:0:0:
479,121,19170,2,0,P|470:149|463:179,1,59.9999981689454,2|0,0:0|0:0,0:0:0:0:
362,198,19331,2,0,P|372:226|378:256,1,59.9999981689454,10|0,0:0|0:0,0:0:0:0:
493,384,19492,6,0,B|493:359|518:342|518:342|417:277|417:378|334:389|286:335,1,299.999990844727,2|0,0:0|0:0,0:0:0:0:
283,329,19976,1,8,0:0:0:0:
108,369,20137,1,0,0:0:0:0:
36,267,20298,2,0,P|21:209|55:162,1,119.999996337891,0|0,3:2|0:0,0:0:0:0:
205,47,20620,6,0,B|166:39|159:12|159:12|166:41|137:64,1,119.999996337891,8|0,0:0|0:0,0:0:0:0:
193,137,20942,6,0,B|256:144|292:108|261:98|302:62|367:75,1,179.999994506836,6|0,3:2|0:0,0:0:0:0:
359,78,21265,1,8,0:0:0:0:
502,225,21426,2,0,B|446:204|446:204|388:250,1,119.999996337891,0|0,0:0|3:2,0:0:0:0:
210,384,21748,2,0,P|225:362|231:309,1,59.9999981689454,2|0,0:0|0:0,0:0:0:0:
303,265,21909,2,0,P|286:240|280:210,1,59.9999981689454,10|0,0:0|0:0,0:0:0:0:
122,186,22070,6,0,B|84:177|63:212|63:212|76:283|171:298|204:220,1,239.999992675781,2|0,0:0|0:0,0:0:0:0:
329,126,22554,1,8,0:0:0:0:
473,170,22715,2,0,P|414:171|369:209,2,119.999996337891,0|0|0,0:0|3:2|0:0,0:0:0:0:
338,41,23198,2,0,B|279:32|248:90|248:90|205:75|198:35,1,179.999994506836,10|0,0:0|0:0,0:0:0:0:
8,103,23520,6,0,P|97:83|143:147,1,179.999994506836,6|0,3:2|0:0,0:0:0:0:
146,157,23843,1,8,0:0:0:0:
8,294,24004,1,8,3:3:0:0:
4,282,24085,1,8,3:3:0:0:
12,273,24165,1,8,3:3:0:0:
186,355,24326,5,10,0:0:0:0:
269,307,24487,1,2,3:2:0:0:
469,364,24648,6,0,P|435:205|397:10,1,349.999989318848,14|0,0:0|0:0,0:0:0:0:
408,16,25534,1,0,0:0:0:0:
416,21,25615,2,0,B|380:66|325:47|325:47|301:12|258:20,1,174.999994659424,8|0,0:0|0:0,0:0:0:0:
131,70,26098,5,10,3:2:0:0:
131,70,26259,1,10,3:2:0:0:
189,130,26420,2,0,P|193:163|177:196,1,59.9999981689454,2|2,0:0|0:0,0:0:0:0:
102,211,26743,2,0,P|97:181|107:153,1,59.9999981689454,2|2,0:0|0:0,0:0:0:0:
166,273,27065,2,0,P|170:302|160:330,1,59.9999981689454,2|2,0:0|0:0,0:0:0:0:
349,200,27387,5,10,3:2:0:0:
349,200,27548,1,10,3:2:0:0:
414,252,27709,2,0,P|420:281|426:310,1,59.9999981689454
389,384,28032,2,0,P|395:354|402:325,1,59.9999981689454
509,289,28354,2,0,P|503:260|497:231,1,59.9999981689454
385,91,28676,5,10,3:2:0:0:
385,91,28837,1,8,3:2:0:0:
428,20,28998,2,0,P|449:38|464:76,1,59.9999981689454,2|2,0:0|0:0,0:0:0:0:
421,163,29321,2,0,P|394:172|353:166,1,59.9999981689454,2|2,0:0|0:0,0:0:0:0:
299,83,29643,2,0,P|304:55|329:23,1,59.9999981689454,2|2,0:0|0:0,0:0:0:0:
146,148,29965,5,10,3:2:0:0:
146,148,30126,1,8,3:2:0:0:
203,209,30287,2,0,P|211:242|216:274,1,59.9999981689454,2|2,0:0|0:0,0:0:0:0:
237,349,30610,2,0,P|242:319|249:290,1,59.9999981689454,2|2,0:0|0:0,0:0:0:0:
314,238,30932,1,0,0:0:0:0:
80,358,31254,5,10,3:2:0:0:
80,358,31415,1,10,3:2:0:0:
24,295,31576,2,0,P|29:261|54:230,1,59.9999981689454,2|2,0:0|0:0,0:0:0:0:
0,167,31898,2,0,P|31:154|71:160,1,59.9999981689454,2|2,0:0|0:0,0:0:0:0:
98,81,32221,2,0,P|124:102|139:139,1,59.9999981689454,2|2,0:0|0:0,0:0:0:0:
316,40,32543,5,10,3:2:0:0:
316,40,32704,2,0,P|289:61|274:98,1,59.9999981689454,10|0,3:2|0:0,0:0:0:0:
466,163,33026,2,0,B|421:116|404:170|345:112,1,119.999996337891,2|2,0:0|0:0,0:0:0:0:
289,173,33510,1,2,0:0:0:0:
339,239,33671,1,2,0:0:0:0:
254,375,33832,5,8,3:2:0:0:
254,375,33993,2,0,L|238:303,1,59.9999981689454,10|0,3:2|0:0,0:0:0:0:
30,265,34315,2,0,B|55:295|91:277|91:277|107:241|145:224|183:246,1,179.999994506836,2|0,0:0|0:0,0:0:0:0:
320,151,34960,5,0,3:2:0:0:
311,159,35040,1,0,3:2:0:0:
310,170,35121,1,0,3:2:0:0:
366,232,35282,1,0,3:2:0:0:
446,207,35443,1,0,3:2:0:0:
408,38,35604,1,8,0:0:0:0:
158,160,35926,6,0,P|145:135|146:97,1,50,2|0,0:0|0:0,0:0:0:0:
135,24,36087,2,0,P|163:25|195:44,1,50,2|0,0:0|0:0,0:0:0:0:
262,74,36249,2,0,P|246:97|212:116,1,50,2|0,0:0|0:0,0:0:0:0:
78,209,36410,5,2,3:2:0:0:
137,270,36571,2,0,P|147:308|157:354,1,69.9999978637696,2|2,0:0|3:2,0:0:0:0:
277,223,36893,2,0,P|254:256|204:266,1,69.9999978637696,2|0,0:0|3:2,0:0:0:0:
349,373,37215,2,0,P|320:344|269:343,1,69.9999978637696,2|0,0:0|3:2,0:0:0:0:
464,257,37538,5,2,0:0:0:0:
387,153,37699,1,0,3:2:0:0:
448,98,37860,2,0,P|438:63|428:22,2,69.9999978637696,2|0|0,0:0|3:2|0:0,0:0:0:0:
305,0,38343,2,0,P|289:69|270:144,1,139.999995727539,0|0,3:2|3:2,0:0:0:0:
198,177,38826,5,8,0:0:0:0:
288,323,38988,1,2,3:2:0:0:
215,378,39149,2,0,P|204:336|188:290,1,69.9999978637696,0|2,0:0|3:2,0:0:0:0:
70,228,39471,2,0,P|110:239|158:248,1,69.9999978637696,2|0,0:0|3:2,0:0:0:0:
285,107,39793,1,2,0:0:0:0:
219,53,39954,1,2,3:2:0:0:
142,86,40115,6,0,P|125:120|127:162,1,69.9999978637696,2|0,0:0|3:2,0:0:0:0:
230,234,40438,2,0,P|228:199|212:168,1,69.9999978637696,2|0,0:0|3:2,0:0:0:0:
70,228,40760,2,0,P|53:258|52:293,1,69.9999978637696,2|0,0:0|3:2,0:0:0:0:
243,378,41082,2,0,P|310:361|379:347,1,139.999995727539,10|0,0:0|0:0,0:0:0:0:
458,368,41565,5,2,3:2:0:0:
361,267,41727,1,2,0:0:0:0:
490,178,41888,1,2,3:2:0:0:
451,254,42049,1,2,0:0:0:0:
307,147,42210,1,2,3:2:0:0:
234,190,42371,2,0,P|220:228|209:272,1,69.9999978637696,2|0,0:0|3:2,0:0:0:0:
137,294,42693,5,2,0:0:0:0:
5,183,42854,1,0,3:2:0:0:
72,117,43016,2,0,P|86:155|97:199,1,69.9999978637696,2|0,0:0|3:2,0:0:0:0:
207,45,43338,2,0,B|249:37|286:68|259:74|297:106|357:80,1,139.999995727539,2|2,0:0|0:0,0:0:0:0:
325,8,43821,1,2,3:2:0:0:
484,78,43982,6,0,P|453:68|406:60,1,69.9999978637696,2|0,0:0|3:2,0:0:0:0:
298,189,44304,2,0,P|329:179|376:171,1,69.9999978637696,2|8,0:0|0:0,0:0:0:0:
495,301,44627,2,0,P|435:288|437:349,1,139.999995727539,2|0,0:0|0:0,0:0:0:0:
512,384,45110,1,8,0:0:0:0:
252,257,45432,5,10,0:0:0:0:
280,344,45593,1,0,3:2:0:0:
283,355,45674,1,0,3:2:0:0:
286,366,45755,1,8,0:0:0:0:
419,256,45916,2,0,P|406:217|397:179,1,80,2|0,3:2|3:2,0:0:0:0:
232,63,46238,2,0,P|222:101|198:182,1,119.999996337891,8|0,0:0|0:0,0:0:0:0:
200,179,46721,1,10,0:0:0:0:
125,228,46882,6,0,P|85:233|31:184,1,89.9999972534181,0|0,3:2|0:0,0:0:0:0:
0,366,47205,2,0,P|78:324|197:353,1,179.999994506836,2|0,3:2|3:2,0:0:0:0:
338,384,47688,1,8,0:0:0:0:
293,295,47849,1,0,3:2:0:0:
344,210,48171,1,0,3:2:0:0:
303,119,48494,1,0,3:2:0:0:
449,18,48655,1,10,0:0:0:0:
426,103,48816,1,0,3:2:0:0:
423,116,48896,1,2,0:0:0:0:
420,129,48977,1,8,0:0:0:0:
512,82,49138,1,2,3:2:0:0:
269,13,49299,5,10,0:0:0:0:
344,210,49460,2,0,P|331:263|321:315,1,89.9999972534181,2|8,3:2|3:3,0:0:0:0:
135,372,49782,2,0,P|125:327|115:284,2,89.9999972534181,2|8|0,3:2|3:3|3:2,0:0:0:0:
422,279,50266,1,8,0:0:0:0:
344,210,50427,2,0,P|294:209|254:241,1,89.9999972534181,0|8,3:2|3:3,0:0:0:0:
127,94,50749,2,0,P|164:116|209:115,2,89.9999972534181,0|8|0,3:2|3:3|3:2,0:0:0:0:
338,13,51232,5,8,0:0:0:0:
298,91,51394,1,0,3:2:0:0:
485,244,51555,5,8,0:0:0:0:
432,137,51716,1,2,3:2:0:0:
278,303,51877,5,10,0:0:0:0:
383,339,52038,2,0,P|368:296|355:253,1,89.9999972534181,2|0,3:2|0:0,0:0:0:0:
170,356,52360,2,0,B|116:375|75:334|110:322|61:278|1:303,1,179.999994506836,2|0,3:2|3:2,0:0:0:0:
170,148,52844,1,8,0:0:0:0:
69,100,53005,2,0,P|81:146|91:197,1,89.9999972534181,0|0,3:2|0:0,0:0:0:0:
145,253,53327,1,0,3:2:0:0:
293,158,53488,5,8,0:0:0:0:
258,71,53649,1,0,3:2:0:0:
459,37,53810,5,8,0:0:0:0:
387,192,53971,1,0,3:2:0:0:
469,234,54133,5,8,0:0:0:0:
376,0,54294,1,2,3:2:0:0:
304,58,54455,5,6,3:2:0:0:
304,58,54616,2,0,P|226:42|136:28,1,160,0|2,3:2|3:2,0:0:0:0:
21,244,55099,1,8,0:0:0:0:
94,181,55260,2,0,P|104:223|121:278,1,80,2|0,3:2|0:0,0:0:0:0:
222,380,55583,6,0,P|231:341|242:302,1,80,2|0,3:2|3:2,0:0:0:0:
431,140,55904,1,8,0:0:0:0:
352,184,56066,2,0,P|309:187|264:158,1,80,0|2,3:2|3:2,0:0:0:0:
117,23,56388,1,8,0:0:0:0:
196,67,56550,2,0,P|239:70|284:41,2,80,2|0|0,3:2|3:2|3:2,0:0:0:0:
42,316,57033,5,10,0:0:0:0:
142,380,57194,1,0,3:2:0:0:
157,360,57275,1,0,3:2:0:0:
159,335,57355,1,2,3:2:0:0:
17,115,57516,2,0,P|29:164|41:221,1,100,10|0,0:0|3:2,0:0:0:0:
313,56,57838,2,0,P|301:105|289:162,1,100,10|0,0:0|3:2,0:0:0:0:
512,309,58161,6,0,B|466:285|424:333|457:338|420:379|371:379|371:379|390:368|389:342,1,200,10|0,0:0|3:2,0:0:0:0:
220,213,58644,1,8,0:0:0:0:
290,153,58805,2,0,P|301:104|313:56,1,100,0|0,3:2|3:2,0:0:0:0:
73,0,59127,1,8,0:0:0:0:
77,14,59208,1,8,0:0:0:0:
81,28,59288,1,8,3:2:0:0:
107,69,59369,1,8,3:3:0:0:
83,116,59449,1,8,3:3:0:0:
122,183,59530,1,8,3:3:0:0:
81,252,59611,6,0,B|97:216|141:220|141:220|136:279|171:315|238:310,1,200,4|0,3:2|0:0,0:0:0:0:
370,225,60094,6,0,P|308:157|292:267,1,250,4|0,3:2|0:0,0:0:0:0:
437,354,60577,6,0,P|461:237|483:140,1,200,4|0,3:2|0:0,0:0:0:0:
317,0,61061,6,0,B|274:9|269:64|269:64|214:1|125:18|100:74,1,275.000008392334,4|0,3:2|0:0,0:0:0:0:
20,49,61544,6,0,P|81:106|83:172,1,134.999995880127,4|0,3:2|0:0,0:0:0:0:
17,207,61866,1,8,0:0:0:0:
149,325,62027,1,2,0:0:0:0:
65,381,62188,6,0,P|156:360|269:339,1,187.5,4|0,3:1|0:0,0:0:0:0:
258,351,62511,1,10,0:0:0:0:
424,320,62672,2,0,B|445:299|437:271|437:271|394:251|393:198,1,125,2|0,0:0|3:2,0:0:0:0:
451,140,62994,1,2,0:0:0:0:
288,17,63155,2,0,B|253:19|239:52|239:52|208:32|164:52,1,125,8|0,0:0|0:0,0:0:0:0:
58,257,63477,5,2,3:2:0:0:
0,167,63639,1,2,0:0:0:0:
159,258,63800,1,10,0:0:0:0:
30,379,63961,2,0,P|43:314|57:257,1,125,2|0,0:0|3:2,0:0:0:0:
0,49,64283,2,0,P|48:96|123:90,1,125,2|8,0:0|0:0,0:0:0:0:
180,45,64605,1,2,0:0:0:0:
419,191,64766,6,0,P|332:180|248:248,1,187.5,6|0,3:2|0:0,0:0:0:0:
250,247,65089,1,10,0:0:0:0:
420,373,65250,2,0,B|417:334|455:315|455:315|432:282|385:286,1,125,2|0,0:0|3:2,0:0:0:0:
322,311,65572,1,2,0:0:0:0:
170,192,65733,2,0,P|188:139|207:70,1,125,8|0,0:0|0:0,0:0:0:0:
435,4,66055,5,2,3:2:0:0:
358,68,66216,1,2,0:0:0:0:
468,192,66378,1,10,0:0:0:0:
322,311,66539,2,0,B|289:292|288:260|288:260|279:291|243:296,1,125,2|0,0:0|3:2,0:0:0:0:
54,379,66861,2,0,B|61:352|91:346|91:346|112:311|83:270,1,125,2|8,0:0|0:0,0:0:0:0:
19,227,67183,1,2,0:0:0:0:
179,31,67344,6,0,P|244:90|364:64,1,187.5,6|0,3:2|0:0,0:0:0:0:
348,76,67666,1,10,0:0:0:0:
256,133,67828,1,2,0:0:0:0:
469,264,67989,6,0,P|378:255|309:315,1,187.5,6|0,3:2|0:0,0:0:0:0:
305,327,68311,1,10,0:0:0:0:
211,265,68472,1,2,0:0:0:0:
11,336,68633,6,0,B|7:363|36:365|36:365|69:307|-11:300|30:225,1,187.5,6|0,3:2|0:0,0:0:0:0:
35,226,68955,1,10,0:0:0:0:
154,137,69116,1,2,0:0:0:0:
0,46,69278,1,2,3:2:0:0:
59,128,69439,1,2,0:0:0:0:
270,10,69600,1,10,0:0:0:0:
230,87,69761,1,2,0:0:0:0:
433,201,69922,6,0,B|418:159|372:159|372:159|330:211|267:184,1,187.5,6|0,3:2|0:0,0:0:0:0:
266,179,70244,2,0,P|201:172|144:221,1,125,10|2,0:0|0:0,0:0:0:0:
51,384,70567,5,6,3:2:0:0:
0,217,70728,1,2,0:0:0:0:
225,261,70889,1,10,0:0:0:0:
169,369,71050,1,2,0:0:0:0:
358,320,71211,6,0,P|310:331|264:345,1,97.4999955368044,6|0,3:2|0:0,0:0:0:0:
485,371,71533,6,0,P|452:330|468:241,1,125,14|0,0:0|0:0,0:0:0:0:
503,192,71775,1,8,0:0:0:0:
503,192,71855,1,8,3:3:0:0:
445,124,72017,1,0,3:2:0:0:
507,7,72178,2,0,P|480:28|432:33,1,62.5,8|0,0:0|0:0,0:0:0:0:
343,115,72339,2,0,P|316:94|268:89,1,62.5,10|0,0:0|0:0,0:0:0:0:
217,28,72500,6,0,B|162:15|114:52|152:63|100:106|23:75,1,187.5,4|0,3:1|0:0,0:0:0:0:
39,74,72822,1,10,0:0:0:0:
189,233,72983,2,0,B|225:223|233:192|233:192|247:219|286:218,1,125,2|0,0:0|3:2,0:0:0:0:
355,164,73306,1,2,0:0:0:0:
512,327,73467,2,0,P|466:290|379:304,1,125,8|0,0:0|0:0,0:0:0:0:
155,368,73789,5,2,3:2:0:0:
155,368,73950,1,2,0:0:0:0:
275,223,74111,1,8,0:0:0:0:
208,126,74272,2,0,B|187:106|148:116|148:116|139:155|85:159,1,125,2|0,0:0|3:2,0:0:0:0:
1,6,74594,2,0,B|62:-15|62:-15|118:39,1,125,2|8,0:0|0:0,0:0:0:0:
43,89,74917,1,2,0:0:0:0:
278,12,75078,6,0,B|342:3|380:48|345:53|385:104|466:82,1,187.5,6|0,3:2|0:0,0:0:0:0:
448,82,75400,1,10,0:0:0:0:
275,223,75561,2,0,B|253:244|260:273|260:273|307:286|304:340,1,125,2|0,0:0|3:2,0:0:0:0:
246,384,75883,1,2,0:0:0:0:
28,235,76045,2,0,B|66:231|75:198|75:198|95:224|135:213,1,125,8|0,0:0|0:0,0:0:0:0:
300,97,76367,5,2,3:2:0:0:
300,97,76528,1,2,0:0:0:0:
428,230,76689,1,8,0:0:0:0:
512,154,76850,2,0,P|451:138|385:119,1,125,2|0,0:0|3:2,0:0:0:0:
168,18,77172,2,0,B|148:49|186:76|186:76|191:113|148:141,1,125,2|8,0:0|0:0,0:0:0:0:
232,184,77495,1,2,0:0:0:0:
27,347,77656,6,0,P|110:298|219:326,1,187.5,6|0,3:2|0:0,0:0:0:0:
206,319,77978,1,10,0:0:0:0:
114,260,78139,1,2,0:0:0:0:
319,97,78300,6,0,P|236:146|127:118,1,187.5,6|0,3:2|0:0,0:0:0:0:
140,125,78622,1,10,0:0:0:0:
232,184,78783,1,2,0:0:0:0:
397,0,78945,6,0,P|420:93|445:187,1,187.5,6|0,3:2|0:0,0:0:0:0:
451,190,79267,1,10,0:0:0:0:
305,280,79428,1,2,0:0:0:0:
456,384,79589,1,2,3:2:0:0:
410,291,79750,1,2,0:0:0:0:
216,339,79911,1,10,0:0:0:0:
276,193,80072,1,2,0:0:0:0:
150,96,80234,6,0,B|162:128|205:135|205:135|256:83|320:114,1,187.5,6|0,3:2|0:0,0:0:0:0:
322,116,80556,1,10,0:0:0:0:
512,59,80717,1,2,0:0:0:0:
402,0,80878,6,0,B|429:40|429:40|406:115,1,125,6|0,3:2|0:0,0:0:0:0:
497,287,81200,2,0,P|443:250|366:274,1,125,10|2,0:0|0:0,0:0:0:0:
195,357,81523,6,0,P|253:330|234:287,1,97.4999955368044,6|0,3:2|0:0,0:0:0:0:
59,186,81845,6,0,P|82:277|109:401,1,187.5,14|0,3:2|0:0,0:0:0:0:
102,368,82167,5,8,3:2:0:0:
112,360,82248,1,8,0:0:0:0:
101,338,82328,1,8,0:0:0:0:
122,304,82409,1,8,0:0:0:0:
99,258,82489,1,10,3:2:0:0:
137,210,82570,1,8,0:0:0:0:
104,147,82650,1,8,0:0:0:0:
147,81,82731,1,8,0:0:0:0:
107,11,82811,5,14,3:2:0:0:
253,131,82973,1,8,0:0:0:0:
265,127,83053,1,8,0:0:0:0:
277,123,83134,1,8,3:2:0:0:
431,39,83295,1,8,0:0:0:0:
416,33,83375,1,8,0:0:0:0:
401,28,83456,1,8,3:2:0:0:
228,229,83617,1,8,0:0:0:0:
249,221,83697,1,8,0:0:0:0:
271,213,83778,1,8,3:2:0:0:
458,351,83939,5,8,0:0:0:0:
432,341,84019,1,8,0:0:0:0:
405,331,84100,1,8,3:2:0:0:
477,143,84261,1,8,0:0:0:0:
488,173,84341,1,8,0:0:0:0:
500,205,84422,1,8,3:2:0:0:
295,367,84584,1,8,0:0:0:0:
308,328,84664,1,8,0:0:0:0:
323,288,84745,1,8,3:2:0:0:
112,163,84906,1,8,0:0:0:0:
126,206,84986,1,8,0:0:0:0:
143,251,85067,1,8,3:2:0:0:
372,140,85228,1,8,0:0:0:0:
388,90,85308,1,8,0:0:0:0:
406,39,85389,6,0,B|388:11|353:10|353:10|333:47|291:46,1,135.000000514984,10|0,0:0|3:2,0:0:0:0:
211,7,85712,1,0,3:2:0:0:
0,166,85873,6,0,P|52:134|124:153,1,135.000000514984,10|0,0:0|3:2,0:0:0:0:
190,205,86195,1,0,3:2:0:0:
25,331,86356,5,10,0:0:0:0:
70,233,86517,1,0,3:2:0:0:
261,355,86678,5,10,0:0:0:0:
214,186,86839,1,0,3:2:0:0:
374,374,87000,5,10,0:0:0:0:
462,148,87162,1,0,3:2:0:0:
167,295,87323,6,0,P|276:260|400:228,1,209.999993591309,10|0,0:0|0:0,0:0:0:0:
474,281,87645,5,6,3:2:0:0:
214,186,87806,1,6,3:2:0:0:
256,192,87967,12,0,93123,0:0:0:0:
