osu file format v14

[General]
AudioFilename: audio.mp3
AudioLeadIn: 0
PreviewTime: 12823
Countdown: 0
SampleSet: Soft
StackLeniency: 0.4
Mode: 0
LetterboxInBreaks: 0
WidescreenStoryboard: 1

[Editor]
DistanceSpacing: 1.2
BeatDivisor: 4
GridSize: 32
TimelineZoom: 1.6

[Metadata]
Title:Re:Re:
TitleUnicode:Re:Re:
Artist:NateWantsToBattle
ArtistUnicode:NateWantsToBattle
Creator:Smoke
Version:Normal
Source:僕だけがいない街
Tags:erased anime opening op tv size english rock ASIAN KUNG-FU GENERATION boku dake ga inai machi kuki1537
BeatmapID:3102514
BeatmapSetID:1515384

[Difficulty]
HPDrainRate:4
CircleSize:3.2
OverallDifficulty:4.2
ApproachRate:5.2
SliderMultiplier:1
SliderTickRate:1

[Events]
//Background and Video events
0,0,"erased jpg.jpg",0,0
Video,-163,"vid.avi"
//Break Periods
//Storyboard Layer 0 (Background)
//Storyboard Layer 1 (Fail)
//Storyboard Layer 2 (Pass)
//Storyboard Layer 3 (Foreground)
//Storyboard Layer 4 (Overlay)
//Storyboard Sound Samples

[TimingPoints]
-808,386.722526587174,4,2,1,70,1,0
353,-95.2380952380952,4,2,1,70,0,0
740,-95.2380952380952,4,2,1,75,0,0
9536,-100,4,2,1,5,0,0
9633,-100,4,2,1,75,0,0
11567,-100,4,2,1,55,0,0
12340,-100,4,2,1,60,0,0
13114,-100,4,2,1,70,0,0
23458,-100,4,2,1,5,0,0
23555,-100,4,2,1,70,0,0
29259,-100,4,2,1,5,0,0
29356,-100,4,2,1,70,0,0
35833,-100,4,2,1,5,0,0
35930,-100,4,2,1,70,0,0
37864,-90.9090909090909,4,2,1,80,0,1
50142,-90.9090909090909,4,2,1,50,0,1
50239,-111.111111111111,4,2,1,50,0,0
61067,-111.111111111111,4,2,1,55,0,0
61841,-111.111111111111,4,2,1,55,0,0
62614,-105.263157894737,4,2,1,60,0,0
68802,-105.263157894737,4,2,1,65,0,0
73442,-100,4,2,1,70,0,0
74989,-95.2380952380952,4,2,1,75,0,1
87364,-100,4,2,1,75,0,0
88138,-100,4,2,1,70,0,0
88911,-100,4,2,1,65,0,0
89685,-100,4,2,1,60,0,0
90458,-100,4,2,1,50,0,0
91231,-100,4,2,1,40,0,0
92005,-100,4,2,1,30,0,0
92778,-100,4,2,1,20,0,0
93552,-100,4,2,1,12,0,0
94325,-100,4,2,1,5,0,0

[Colours]
Combo1 : 241,191,73
Combo2 : 220,138,16

[HitObjects]
67,120,352,5,8,3:2:0:0:
142,55,738,6,0,L|253:87,1,104.999996795654,6|10,3:1|0:0,0:0:0:0:
278,122,1318,1,0,0:0:0:0:
278,122,1512,2,0,P|306:114|333:109,1,52.4999983978272,2|0,3:2|0:0,0:0:0:0:
380,100,1899,1,10,0:0:0:0:
465,160,2285,6,0,P|463:191|446:226,1,52.4999983978272,2|0,3:2|0:0,0:0:0:0:
435,259,2672,1,10,0:0:0:0:
465,359,3059,2,0,P|416:346|360:337,1,104.999996795654,2|10,3:2|0:0,0:0:0:0:
267,382,3832,6,0,P|259:323|214:287,1,104.999996795654,6|10,3:2|0:0,0:0:0:0:
185,271,4412,1,0,0:0:0:0:
185,271,4606,1,2,3:2:0:0:
87,309,4992,2,0,P|79:277|67:244,1,52.4999983978272,10|0,0:0|0:0,0:0:0:0:
37,218,5379,6,0,P|45:193|55:161,1,52.4999983978272,2|0,3:2|0:0,0:0:0:0:
66,117,5766,1,10,0:0:0:0:
3,32,6153,2,0,P|53:10|115:22,1,104.999996795654,2|10,3:2|0:0,0:0:0:0:
187,76,6926,6,0,B|252:76|231:45|301:45,1,104.999996795654,6|10,3:2|0:0,0:0:0:0:
323,81,7506,1,0,0:0:0:0:
323,81,7699,2,0,P|314:108|307:139,1,52.4999983978272,2|0,3:2|0:0,0:0:0:0:
297,182,8086,1,10,0:0:0:0:
208,239,8473,6,0,P|216:265|226:297,1,52.4999983978272,2|0,3:2|0:0,0:0:0:0:
238,339,8860,1,10,0:0:0:0:
335,301,9246,2,0,P|381:313|445:329,1,104.999996795654,2|10,3:2|0:0,0:0:0:0:
502,251,10020,6,0,P|503:226|483:192,1,50,6|8,3:2|0:0,0:0:0:0:
455,171,10406,2,0,P|454:146|474:112,1,50,2|10,3:2|0:0,0:0:0:0:
480,76,10793,1,10,3:2:0:0:
402,13,11180,2,0,P|373:14|337:38,1,50,10|8,3:2|3:3,0:0:0:0:
316,56,11567,5,10,3:2:0:0:
228,7,11953,1,2,0:0:0:0:
155,75,12340,1,2,0:0:0:0:
202,162,12727,1,2,0:0:0:0:
118,217,13114,6,0,P|126:247|134:283,1,50,6|2,3:1|0:0,0:0:0:0:
144,313,13500,1,10,0:0:0:0:
235,353,13887,2,0,P|282:334|336:315,1,100,2|8,3:2|0:0,0:0:0:0:
381,330,14467,1,2,0:0:0:0:
381,330,14660,6,0,P|390:305|403:272,1,50,6|2,3:1|0:0,0:0:0:0:
418,237,15047,1,10,0:0:0:0:
489,166,15434,2,0,P|472:117|456:64,1,100,2|8,3:2|0:0,0:0:0:0:
370,120,16207,6,0,P|339:119|305:100,1,50,6|2,3:1|0:0,0:0:0:0:
284,78,16594,2,0,P|253:79|219:98,1,50,10|2,0:0|0:0,0:0:0:0:
192,112,16981,1,2,3:2:0:0:
119,43,17367,2,0,P|100:66|89:95,1,50,10|2,0:0|0:0,0:0:0:0:
62,125,17754,6,0,P|81:148|92:177,1,50,6|2,3:1|0:0,0:0:0:0:
59,206,18141,1,10,0:0:0:0:
117,287,18528,2,0,B|176:298|156:322|219:334,1,100,2|8,3:2|0:0,0:0:0:0:
253,310,19108,1,2,0:0:0:0:
253,310,19301,6,0,P|283:300|311:294,1,50,6|2,3:1|0:0,0:0:0:0:
348,278,19688,1,10,0:0:0:0:
295,192,20075,2,0,P|286:143|323:86,1,100,2|8,3:2|0:0,0:0:0:0:
349,70,20655,1,2,0:0:0:0:
349,70,20848,6,0,P|373:77|410:86,1,50,6|2,3:1|0:0,0:0:0:0:
446,94,21235,1,10,0:0:0:0:
493,182,21621,2,0,P|502:231|465:288,1,100,2|8,3:2|0:0,0:0:0:0:
400,334,22395,6,0,P|372:327|338:321,1,50,6|2,3:1|0:0,0:0:0:0:
303,309,22782,1,10,0:0:0:0:
215,357,23168,2,0,P|180:315|177:263,1,100,2|10,3:2|0:0,0:0:0:0:
210,235,23748,1,2,0:0:0:0:
210,235,23942,6,0,P|220:212|221:187,1,50,6|2,3:1|0:0,0:0:0:0:
202,141,24328,1,10,0:0:0:0:
257,57,24715,2,0,P|208:47|151:33,1,100,2|8,3:2|0:0,0:0:0:0:
115,59,25295,1,2,0:0:0:0:
115,59,25489,6,0,P|99:81|95:112,1,50,6|2,3:1|0:0,0:0:0:0:
108,150,25875,1,10,0:0:0:0:
32,216,26262,2,0,P|46:264|59:315,1,100,2|8,3:2|0:0,0:0:0:0:
103,345,26842,1,2,0:0:0:0:
103,345,27036,6,0,P|134:337|160:331,1,50,6|2,3:1|0:0,0:0:0:0:
200,321,27422,1,10,0:0:0:0:
269,249,27809,2,0,B|326:254|306:278|371:288,1,100,2|8,3:2|0:0,0:0:0:0:
435,219,28582,2,0,P|435:191|421:159,1,50,6|2,3:1|0:0,0:0:0:0:
398,129,28969,1,10,0:0:0:0:
300,149,29356,1,2,3:2:0:0:
224,82,29743,2,0,P|199:91|168:102,1,50,10|2,0:0|0:0,0:0:0:0:
144,137,30129,6,0,P|119:128|88:117,1,50,6|2,3:1|0:0,0:0:0:0:
49,103,30516,1,10,0:0:0:0:
5,193,30903,2,0,P|21:243|35:294,1,100,2|8,3:2|0:0,0:0:0:0:
50,336,31483,1,2,0:0:0:0:
50,336,31676,6,0,P|73:348|115:349,1,50,6|2,3:1|0:0,0:0:0:0:
144,335,32063,1,10,0:0:0:0:
229,283,32450,2,0,P|278:277|331:309,1,100,2|8,3:2|0:0,0:0:0:0:
364,335,33030,1,2,0:0:0:0:
364,335,33223,6,0,P|397:326|422:321,1,50,6|2,3:1|0:0,0:0:0:0:
460,310,33610,1,10,0:0:0:0:
507,222,33997,2,0,P|476:181|480:121,1,100,2|8,3:2|0:0,0:0:0:0:
443,103,34577,1,2,0:0:0:0:
443,103,34770,6,0,P|416:95|392:86,1,50,6|2,3:1|0:0,0:0:0:0:
353,59,35157,2,0,P|326:67|302:76,1,50,10|2,0:0|0:0,0:0:0:0:
257,89,35543,1,2,3:2:0:0:
307,175,35930,2,0,P|310:205|294:241,1,50,10|2,0:0|0:0,0:0:0:0:
268,258,36317,6,0,P|265:288|281:324,1,50,6|8,3:1|0:0,0:0:0:0:
289,358,36704,1,2,3:2:0:0:
289,358,36897,1,10,0:0:0:0:
195,384,37284,1,2,0:0:0:0:
195,384,37477,2,0,P|171:376|144:367,1,50,10|8,3:2|3:3,0:0:0:0:
94,354,37864,6,0,P|106:300|58:245,1,110.000003356934,6|8,3:1|0:0,0:0:0:0:
40,215,38444,1,0,0:0:0:0:
120,140,38831,2,0,P|113:115|107:86,1,55.0000016784668,2|10,0:0|0:0,0:0:0:0:
145,47,39217,6,0,B|214:57|182:84|260:94,1,110.000003356934,2|0,0:0|0:0,0:0:0:0:
293,64,39797,1,10,0:0:0:0:
293,64,39991,1,2,0:0:0:0:
392,14,40377,1,2,0:0:0:0:
392,14,40571,2,0,P|398:40|409:75,1,55.0000016784668,10|2,0:0|0:0,0:0:0:0:
454,93,40958,6,0,P|441:150|429:207,1,110.000003356934,6|8,3:1|0:0,0:0:0:0:
422,258,41538,1,2,0:0:0:0:
422,258,41731,1,2,3:2:0:0:
474,355,42118,2,0,P|448:363|411:377,1,55.0000016784668,8|2,0:0|0:0,0:0:0:0:
371,351,42504,1,4,3:2:0:0:
265,382,42891,1,10,0:0:0:0:
189,302,43278,1,2,3:2:0:0:
245,211,43665,1,2,3:2:0:0:
245,211,43858,1,14,0:0:0:0:
245,211,44051,6,0,B|218:163|218:163|241:104,1,110.000003356934,4|8,3:1|0:0,0:0:0:0:
167,26,44825,1,0,3:2:0:0:
71,80,45211,1,8,0:0:0:0:
114,180,45598,6,0,P|97:243|87:298,1,110.000003356934,4|10,3:2|0:0,0:0:0:0:
123,329,46178,2,0,P|173:296|237:314,1,110.000003356934,2|2,0:0|0:0,0:0:0:0:
257,343,46758,2,0,P|285:333|312:325,1,55.0000016784668,10|2,0:0|0:0,0:0:0:0:
358,350,47145,6,0,B|408:334|408:334|413:339|413:339|470:321,1,110.000003356934,6|8,3:1|0:0,0:0:0:0:
501,286,47725,1,2,0:0:0:0:
501,286,47919,1,2,3:2:0:0:
421,210,48305,2,0,P|428:182|436:154,1,55.0000016784668,10|2,0:0|0:0,0:0:0:0:
467,112,48692,2,0,P|459:84|452:56,1,55.0000016784668,4|8,3:2|0:0,0:0:0:0:
408,25,49079,1,2,0:0:0:0:
313,84,49465,2,0,P|283:86|242:65,1,55.0000016784668,2|8,3:2|0:0,0:0:0:0:
215,36,49852,2,0,P|185:34|144:55,1,55.0000016784668,8|8,0:0|3:3,0:0:0:0:
124,67,50239,5,2,0:0:0:0:
175,140,50626,1,2,0:0:0:0:
130,217,51012,1,2,0:0:0:0:
293,292,51786,5,2,0:0:0:0:
242,219,52173,1,2,0:0:0:0:
287,142,52559,1,2,0:0:0:0:
431,34,53333,5,2,0:0:0:0:
485,105,53719,1,2,0:0:0:0:
428,175,54106,2,0,P|441:222|451:267,1,89.9999972534181,2|2,0:0|0:0,0:0:0:0:
390,330,54880,1,2,0:0:0:0:
308,291,55266,1,2,0:0:0:0:
245,355,55653,1,2,0:0:0:0:
85,272,56426,5,2,0:0:0:0:
107,184,56813,1,2,0:0:0:0:
126,96,57200,1,2,0:0:0:0:
295,36,57973,5,2,0:0:0:0:
317,124,58360,1,2,0:0:0:0:
336,212,58747,1,2,0:0:0:0:
468,331,59520,5,2,0:0:0:0:
508,250,59907,1,2,0:0:0:0:
455,176,60294,2,0,P|450:133|482:84,1,89.9999972534181,2|2,0:0|0:0,0:0:0:0:
403,33,61067,6,0,B|331:32|350:71|265:69,1,134.999995880127,2|2,0:0|0:0,0:0:0:0:
248,105,61841,2,0,B|176:106|195:67|110:69,1,134.999995880127,2|2,0:0|0:0,0:0:0:0:
78,90,62614,6,0,P|41:124|39:179,1,94.9999974632264,6|0,3:2|3:2,0:0:0:0:
88,245,63387,1,0,3:2:0:0:
29,320,63774,2,0,P|51:334|86:340,1,47.4999987316132,2|0,3:2|0:0,0:0:0:0:
110,367,64161,6,0,P|159:355|213:346,1,94.9999974632264,2|0,3:2|3:2,0:0:0:0:
277,288,64934,1,0,3:2:0:0:
347,352,65321,2,0,P|376:349|401:330,1,47.4999987316132,2|0,3:2|0:0,0:0:0:0:
421,302,65708,6,0,P|459:305|512:351,2,94.9999974632264,2|0|0,3:2|3:2|3:2,0:0:0:0:
368,222,66868,2,0,P|375:201|382:172,1,47.4999987316132,0|2,3:2|0:0,0:0:0:0:
417,145,67255,6,0,P|402:101|387:46,1,94.9999974632264,2|0,3:2|3:2,0:0:0:0:
305,8,68028,2,0,P|291:53|277:98,1,94.9999974632264,2|0,3:2|3:2,0:0:0:0:
203,159,68802,6,0,P|233:200|228:252,1,94.9999974632264,6|0,3:2|3:2,0:0:0:0:
165,310,69575,1,0,3:2:0:0:
71,292,69962,2,0,P|62:266|50:242,1,47.4999987316132,0|0,3:2|0:0,0:0:0:0:
24,210,70348,6,0,P|36:165|51:100,1,94.9999974632264,0|0,3:2|3:2,0:0:0:0:
110,46,71122,1,0,3:2:0:0:
188,99,71509,2,0,P|216:96|243:80,1,47.4999987316132,2|0,3:2|0:0,0:0:0:0:
269,56,71895,6,0,B|324:66|304:86|356:94,1,94.9999974632264,2|0,3:2|3:2,0:0:0:0:
432,38,72669,1,0,3:2:0:0:
503,100,73056,2,0,P|495:126|487:152,1,47.4999987316132,0|0,3:2|0:0,0:0:0:0:
450,176,73442,5,2,3:2:0:0:
450,176,73636,2,0,P|478:215|469:270,1,100,8|8,0:0|0:0,0:0:0:0:
436,299,74216,2,0,P|444:328|449:348,1,50,8|8,0:0|0:0,0:0:0:0:
357,382,74796,1,8,0:0:0:0:
357,382,74989,6,0,B|311:370|311:370|309:364|309:364|249:348,1,104.999996795654,6|10,3:1|0:0,0:0:0:0:
207,258,75763,1,2,3:2:0:0:
286,190,76149,2,0,P|283:159|267:135,1,52.4999983978272,10|0,0:0|0:0,0:0:0:0:
235,102,76536,6,0,P|186:114|121:127,1,104.999996795654,2|10,3:2|0:0,0:0:0:0:
58,198,77309,1,2,3:2:0:0:
125,278,77696,2,0,P|115:305|108:334,1,52.4999983978272,10|0,0:0|0:0,0:0:0:0:
148,362,78083,5,6,3:2:0:0:
236,306,78470,1,10,0:0:0:0:
323,363,78856,1,2,3:2:0:0:
402,294,79243,1,10,0:0:0:0:
358,198,79630,6,0,P|357:171|374:137,1,52.4999983978272,2|0,3:2|0:0,0:0:0:0:
397,105,80017,1,10,0:0:0:0:
323,30,80403,2,0,P|296:29|262:46,1,52.4999983978272,2|0,3:2|0:0,0:0:0:0:
230,69,80790,1,10,0:0:0:0:
144,7,81177,6,0,P|131:59|116:117,1,104.999996795654,6|10,3:1|0:0,0:0:0:0:
158,205,81950,1,2,3:2:0:0:
74,268,82337,2,0,P|76:298|94:328,1,52.4999983978272,10|0,0:0|0:0,0:0:0:0:
129,347,82724,6,0,P|173:320|235:326,1,104.999996795654,2|10,3:2|0:0,0:0:0:0:
317,371,83497,1,2,3:2:0:0:
395,301,83884,2,0,P|391:272|372:248,1,52.4999983978272,10|0,0:0|0:0,0:0:0:0:
347,210,84270,5,2,3:2:0:0:
432,149,84657,1,10,0:0:0:0:
376,59,85044,1,2,3:2:0:0:
288,116,85431,1,10,0:0:0:0:
208,47,85817,6,0,P|190:70|183:113,1,52.4999983978272,2|0,3:2|0:0,0:0:0:0:
147,131,86204,1,10,0:0:0:0:
203,219,86591,2,0,P|221:242|228:285,1,52.4999983978272,2|0,3:2|0:0,0:0:0:0:
264,303,86978,1,10,0:0:0:0:
333,230,87364,5,2,0:0:0:0:
256,192,87558,12,0,94325,0:0:0:0:
