osu file format v14

[General]
AudioFilename: audio.mp3
AudioLeadIn: 0
PreviewTime: 12823
Countdown: 0
SampleSet: Soft
StackLeniency: 0.3
Mode: 0
LetterboxInBreaks: 0
WidescreenStoryboard: 1

[Editor]
DistanceSpacing: 1.5
BeatDivisor: 4
GridSize: 32
TimelineZoom: 1.6

[Metadata]
Title:Re:Re:
TitleUnicode:Re:Re:
Artist:NateWantsToBattle
ArtistUnicode:NateWantsToBattle
Creator:Smoke
Version:Hard
Source:僕だけがいない街
Tags:erased anime opening op tv size english rock ASIAN KUNG-FU GENERATION boku dake ga inai machi kuki1537
BeatmapID:3102512
BeatmapSetID:1515384

[Difficulty]
HPDrainRate:4.6
CircleSize:3.5
OverallDifficulty:6
ApproachRate:7
SliderMultiplier:1.3
SliderTickRate:1

[Events]
//Background and Video events
0,0,"erased jpg.jpg",0,0
Video,-163,"vid.avi"
//Break Periods
//Storyboard Layer 0 (Background)
//Storyboard Layer 1 (Fail)
//Storyboard Layer 2 (Pass)
//Storyboard Layer 3 (Foreground)
//Storyboard Layer 4 (Overlay)
//Storyboard Sound Samples

[TimingPoints]
-808,386.722526587174,4,2,1,70,1,0
353,-100,4,2,1,70,0,0
740,-100,4,2,1,75,0,0
9536,-100,4,2,1,5,0,0
9633,-100,4,2,1,75,0,0
11567,-111.111111111111,4,2,1,55,0,0
12340,-105.263157894737,4,2,1,60,0,0
13114,-100,4,2,1,70,0,0
23458,-100,4,2,1,5,0,0
23555,-100,4,2,1,70,0,0
29259,-100,4,2,1,5,0,0
29356,-100,4,2,1,70,0,0
35833,-100,4,2,1,5,0,0
35930,-100,4,2,1,70,0,0
37864,-90.9090909090909,4,2,1,80,0,1
50239,-117.647058823529,4,2,1,50,0,0
61067,-125,4,2,1,55,0,0
61841,-133.333333333333,4,2,1,55,0,0
62614,-111.111111111111,4,2,1,60,0,0
68802,-111.111111111111,4,2,1,65,0,0
73442,-100,4,2,1,70,0,0
74989,-90.9090909090909,4,2,1,75,0,1
87364,-125,4,2,1,75,0,0
88138,-125,4,2,1,70,0,0
88911,-125,4,2,1,65,0,0
89685,-125,4,2,1,60,0,0
90458,-125,4,2,1,50,0,0
91231,-125,4,2,1,40,0,0
92005,-125,4,2,1,30,0,0
92778,-125,4,2,1,20,0,0
93552,-125,4,2,1,12,0,0
94325,-125,4,2,1,5,0,0

[Colours]
Combo1 : 241,191,73
Combo2 : 220,138,16

[HitObjects]
446,309,352,5,8,3:2:0:0:
446,309,738,6,0,B|373:314|403:344|320:348,1,130,6|10,3:1|0:0,0:0:0:0:
243,302,1318,1,0,0:0:0:0:
243,302,1512,2,0,L|175:325,1,65,2|0,3:2|0:0,0:0:0:0:
87,350,1899,1,10,0:0:0:0:
14,284,2092,1,0,0:0:0:0:
75,208,2285,6,0,P|75:177|50:142,1,65,2|0,3:2|0:0,0:0:0:0:
133,86,2672,2,0,P|133:55|158:20,1,65,10|0,0:0|0:0,0:0:0:0:
245,2,3059,2,0,P|276:10|315:18,1,65,2|0,3:2|0:0,0:0:0:0:
357,100,3445,2,0,P|388:92|427:84,1,65,10|0,0:0|0:0,0:0:0:0:
512,166,3832,6,0,B|503:203|475:215|475:215|501:242|479:296,1,130,6|10,3:2|0:0,0:0:0:0:
485,375,4412,1,0,0:0:0:0:
398,328,4606,2,0,P|367:311|318:311,1,65,2|0,3:2|0:0,0:0:0:0:
241,323,4992,1,10,0:0:0:0:
275,231,5186,1,0,0:0:0:0:
198,171,5379,6,0,P|189:134|179:96,1,65,2|0,3:2|0:0,0:0:0:0:
98,56,5766,2,0,P|89:87|82:119,1,65,10|0,0:0|0:0,0:0:0:0:
16,191,6153,2,0,P|44:205|65:243,1,65,2|0,3:2|0:0,0:0:0:0:
60,329,6539,2,0,P|86:311|129:312,1,65,10|0,0:0|0:0,0:0:0:0:
228,369,6926,6,0,B|288:353|288:353|295:356|295:356|359:339,1,130,6|10,3:2|0:0,0:0:0:0:
446,369,7506,1,0,0:0:0:0:
446,369,7699,2,0,P|466:344|468:300,1,65,2|0,3:2|0:0,0:0:0:0:
404,239,8086,1,10,0:0:0:0:
467,165,8279,1,0,0:0:0:0:
399,94,8473,6,0,P|366:103|328:112,1,65,2|0,3:2|0:0,0:0:0:0:
263,175,8860,2,0,P|230:166|192:157,1,65,10|0,0:0|0:0,0:0:0:0:
136,232,9246,2,0,P|103:241|39:201,1,97.5,2|0,3:2|0:0,0:0:0:0:
16,177,9633,2,0,P|25:148|37:109,1,65,10|0,0:0|0:0,0:0:0:0:
0,0,10020,5,6,3:2:0:0:
88,39,10213,2,0,P|122:31|169:23,1,65,8|2,0:0|3:2,0:0:0:0:
198,53,10503,1,8,0:0:0:0:
198,53,10600,1,10,0:0:0:0:
285,9,10793,2,0,P|319:17|348:24,1,65,10|2,3:2|0:0,0:0:0:0:
398,42,11083,1,8,0:0:0:0:
398,42,11180,2,0,P|406:74|413:115,1,65,10|8,3:2|3:3,0:0:0:0:
512,146,11567,6,0,P|494:214|483:269,1,116.999996429443,10|2,3:2|0:0,0:0:0:0:
375,369,12340,2,0,P|362:311|345:246,1,123.499996702194,2|2,0:0|0:0,0:0:0:0:
207,152,13114,5,6,3:1:0:0:
207,152,13307,1,2,0:0:0:0:
128,209,13500,2,0,P|137:241|146:277,1,65,10|0,0:0|0:0,0:0:0:0:
61,330,13887,2,0,P|44:265|25:194,1,130,2|8,3:2|0:0,0:0:0:0:
0,110,14467,1,2,0:0:0:0:
110,54,14660,5,6,3:1:0:0:
110,54,14853,1,2,0:0:0:0:
189,111,15046,2,0,P|180:143|171:179,1,65,10|0,0:0|0:0,0:0:0:0:
256,232,15434,2,0,P|273:167|292:96,1,130,2|8,3:2|0:0,0:0:0:0:
283,7,16014,1,2,0:0:0:0:
386,81,16207,6,0,P|416:82|454:62,1,65,6|2,3:1|0:0,0:0:0:0:
512,140,16594,2,0,P|496:165|494:208,1,65,10|2,0:0|0:0,0:0:0:0:
408,249,16981,2,0,P|423:274|425:317,1,65,2|2,3:2|0:0,0:0:0:0:
362,381,17367,2,0,P|332:382|294:362,1,65,10|2,0:0|0:0,0:0:0:0:
210,285,17754,5,6,3:1:0:0:
210,285,17948,1,2,0:0:0:0:
121,324,18141,2,0,P|113:292|104:262,1,65,10|0,0:0|0:0,0:0:0:0:
38,188,18528,2,0,B|109:177|82:149|159:137,1,130,2|8,3:2|0:0,0:0:0:0:
246,174,19108,1,2,0:0:0:0:
338,98,19301,5,6,3:1:0:0:
338,98,19494,1,2,0:0:0:0:
411,161,19688,2,0,P|391:189|385:234,1,65,10|0,0:0|0:0,0:0:0:0:
435,301,20075,2,0,P|369:307|315:360,1,130,2|8,3:2|0:0,0:0:0:0:
231,383,20655,1,2,0:0:0:0:
148,297,20848,5,6,3:1:0:0:
148,297,21041,1,2,0:0:0:0:
219,227,21235,2,0,P|199:199|193:154,1,65,10|0,0:0|0:0,0:0:0:0:
243,87,21622,2,0,P|177:81|123:28,1,130,2|8,3:2|0:0,0:0:0:0:
36,68,22201,1,2,0:0:0:0:
104,169,22395,5,6,3:1:0:0:
104,169,22588,1,2,0:0:0:0:
28,230,22782,2,0,P|38:268|47:308,1,65,10|0,0:0|0:0,0:0:0:0:
115,358,23168,2,0,B|150:358|165:326|165:326|194:346|231:331,1,130,2|10,3:2|0:0,0:0:0:0:
299,264,23748,1,2,0:0:0:0:
394,333,23942,6,0,P|426:328|462:294,1,65,6|2,3:1|0:0,0:0:0:0:
496,222,24328,2,0,P|477:195|472:163,1,65,10|0,0:0|0:0,0:0:0:0:
509,73,24715,2,0,P|445:61|377:45,1,130,2|8,3:2|0:0,0:0:0:0:
293,4,25295,1,2,0:0:0:0:
206,89,25489,5,6,3:1:0:0:
206,89,25682,1,2,0:0:0:0:
128,30,25875,2,0,P|107:66|111:99,1,65,10|0,0:0|0:0,0:0:0:0:
28,146,26262,2,0,B|56:187|56:187|29:266,1,130,2|8,3:2|0:0,0:0:0:0:
100,330,26842,1,2,0:0:0:0:
196,264,27036,5,6,3:1:0:0:
196,264,27229,1,2,0:0:0:0:
274,323,27422,2,0,P|295:287|291:254,1,65,10|0,0:0|0:0,0:0:0:0:
374,207,27809,2,0,B|346:166|346:166|373:87,1,130,2|8,3:2|0:0,0:0:0:0:
452,33,28389,1,2,0:0:0:0:
512,135,28582,5,6,3:1:0:0:
512,135,28776,1,2,0:0:0:0:
464,219,28969,2,0,P|478:267|489:319,1,97.5,10|0,0:0|0:0,0:0:0:0:
456,350,29356,2,0,P|429:360|385:348,1,65,2|2,3:2|0:0,0:0:0:0:
317,293,29743,2,0,P|285:286|255:296,1,65,10|2,0:0|0:0,0:0:0:0:
176,352,30129,5,6,3:1:0:0:
176,352,30323,1,2,0:0:0:0:
106,284,30516,2,0,P|115:252|124:217,1,65,10|0,0:0|0:0,0:0:0:0:
69,139,30903,2,0,P|133:134|186:83,1,130,2|8,3:2|0:0,0:0:0:0:
256,153,31483,1,2,0:0:0:0:
358,93,31676,5,6,3:1:0:0:
358,93,31870,1,2,0:0:0:0:
427,161,32063,2,0,P|414:194|405:227,1,65,10|0,0:0|0:0,0:0:0:0:
471,294,32450,2,0,P|409:313|339:339,1,130,2|8,3:2|0:0,0:0:0:0:
276,268,33030,1,2,0:0:0:0:
163,324,33223,5,6,3:1:0:0:
163,324,33417,1,2,0:0:0:0:
94,256,33610,2,0,P|107:223|116:190,1,65,10|0,0:0|0:0,0:0:0:0:
50,123,33997,2,0,P|112:104|182:78,1,130,2|8,3:2|0:0,0:0:0:0:
251,140,34577,1,2,0:0:0:0:
201,243,34770,5,6,3:1:0:0:
201,243,34963,1,2,0:0:0:0:
272,309,35157,2,0,P|305:311|349:286,1,65,10|2,0:0|0:0,0:0:0:0:
416,351,35543,2,0,P|429:320|417:248,1,97.5,2|0,3:2|0:0,0:0:0:0:
398,215,35930,2,0,P|407:185|418:150,1,65,10|2,0:0|0:0,0:0:0:0:
490,25,36317,6,0,P|457:37|412:50,1,65,6|8,3:1|0:0,0:0:0:0:
343,86,36704,1,2,3:2:0:0:
343,86,36800,1,8,0:0:0:0:
343,86,36897,1,10,0:0:0:0:
257,40,37090,2,0,P|224:40|191:62,1,65,8|2,3:2|0:0,0:0:0:0:
158,83,37380,1,8,0:0:0:0:
158,83,37477,2,0,P|148:56|135:22,1,65,10|8,3:2|3:3,0:0:0:0:
18,119,37864,6,0,B|102:134|64:170|143:187,1,143.000004364014,6|8,3:1|0:0,0:0:0:0:
221,256,38444,2,0,P|198:287|196:325,1,71.5000021820069,0|0,0:0|3:2,0:0:0:0:
283,379,38831,2,0,P|318:366|355:354,1,71.5000021820069,2|10,0:0|0:0,0:0:0:0:
469,384,39217,6,0,P|436:324|458:250,1,143.000004364014,2|0,0:0|0:0,0:0:0:0:
387,170,39797,1,10,0:0:0:0:
442,77,39991,2,0,P|407:70|369:60,1,71.5000021820069,2|0,0:0|3:2,0:0:0:0:
288,6,40377,1,2,0:0:0:0:
217,78,40571,2,0,P|215:122|236:152,1,71.5000021820069,10|2,0:0|0:0,0:0:0:0:
316,225,40958,6,0,B|280:232|270:269|270:269|227:242|180:277,1,143.000004364014,6|8,3:1|0:0,0:0:0:0:
126,336,41538,1,2,0:0:0:0:
47,274,41731,2,0,P|62:221|85:126,1,143.000004364014,2|8,3:2|0:0,0:0:0:0:
31,49,42311,1,2,0:0:0:0:
154,7,42504,6,0,P|161:43|170:82,1,71.5000021820069,4|0,3:2|0:0,0:0:0:0:
259,120,42891,2,0,P|252:156|243:195,1,71.5000021820069,10|0,0:0|0:0,0:0:0:0:
329,242,43278,2,0,P|336:278|345:317,1,71.5000021820069,2|0,3:2|0:0,0:0:0:0:
428,366,43665,1,2,3:2:0:0:
497,291,43858,1,14,0:0:0:0:
421,193,44051,6,0,B|437:127|437:127|444:125|444:125|461:56,1,143.000004364014,4|8,3:1|0:0,0:0:0:0:
380,6,44631,1,0,0:0:0:0:
380,6,44825,2,0,P|343:19|312:29,1,71.5000021820069,0|0,3:2|0:0,0:0:0:0:
238,96,45211,2,0,P|201:83|170:73,1,71.5000021820069,8|2,0:0|0:0,0:0:0:0:
46,20,45598,6,0,B|75:38|74:75|74:75|35:100|48:146,1,143.000004364014,4|10,3:2|0:0,0:0:0:0:
113,216,46178,2,0,P|57:224|6:295,1,143.000004364014,2|2,0:0|0:0,0:0:0:0:
67,376,46758,1,10,0:0:0:0:
67,376,46952,1,2,0:0:0:0:
175,312,47145,6,0,B|260:318|228:358|307:363,1,143.000004364014,6|8,3:1|0:0,0:0:0:0:
381,297,47725,1,2,0:0:0:0:
325,213,47919,2,0,P|335:181|346:137,1,71.5000021820069,2|0,3:2|0:0,0:0:0:0:
374,44,48305,1,10,0:0:0:0:
374,44,48499,1,2,0:0:0:0:
252,79,48692,5,4,3:2:0:0:
162,20,48885,2,0,L|141:101,1,71.5000021820069,8|2,0:0|0:0,0:0:0:0:
104,124,49175,1,8,0:0:0:0:
104,124,49272,2,0,L|122:207,1,71.5000021820069,8|2,0:0|3:2,0:0:0:0:
81,299,49659,1,8,0:0:0:0:
81,299,49755,1,8,0:0:0:0:
81,299,49852,2,0,P|106:304|125:313,3,35.7500010910034,8|8|8|8,0:0|0:0|3:3|3:3,0:0:0:0:
140,336,50239,6,0,P|168:320|210:324,1,55.2500010538101,2|2,0:0|0:0,0:0:0:0:
266,352,50626,1,2,0:0:0:0:
266,352,51012,2,0,P|278:297|295:236,1,110.50000210762,2|0,0:0|0:0,0:0:0:0:
416,134,51786,6,0,P|388:118|346:122,1,55.2500010538101,2|2,0:0|0:0,0:0:0:0:
290,150,52173,1,2,0:0:0:0:
290,150,52559,2,0,P|278:95|261:34,1,110.50000210762,2|0,0:0|0:0,0:0:0:0:
121,128,53333,6,0,P|106:155|105:188,1,55.2500010538101,2|2,0:0|0:0,0:0:0:0:
42,234,53719,1,2,0:0:0:0:
142,365,54106,1,2,0:0:0:0:
286,283,54493,1,2,0:0:0:0:
435,355,54880,6,0,P|439:328|448:294,1,55.2500010538101,2|2,0:0|0:0,0:0:0:0:
494,233,55266,1,2,0:0:0:0:
494,233,55653,2,0,P|463:188|473:120,1,110.50000210762,2|0,0:0|0:0,0:0:0:0:
339,26,56426,6,0,P|314:35|286:42,1,55.2500010538101,2|2,0:0|0:0,0:0:0:0:
228,101,56813,1,2,0:0:0:0:
228,101,57200,2,0,P|172:86|116:73,1,110.50000210762,2|0,0:0|0:0,0:0:0:0:
15,201,57973,6,0,P|40:210|68:217,1,55.2500010538101,2|2,0:0|0:0,0:0:0:0:
126,276,58360,1,2,0:0:0:0:
126,276,58747,2,0,P|182:261|238:248,1,110.50000210762,2|0,0:0|0:0,0:0:0:0:
363,351,59520,6,0,P|378:329|380:292,1,55.2500010538101,2|2,0:0|0:0,0:0:0:0:
447,250,59907,2,0,P|432:228|430:191,1,55.2500010538101,2|0,0:0|0:0,0:0:0:0:
467,126,60294,2,0,P|421:106|392:50,1,110.50000210762,2|2,0:0|0:0,0:0:0:0:
319,14,60874,1,2,0:0:0:0:
319,14,61067,6,0,P|272:28|206:46,1,104,2|0,0:0|0:0,0:0:0:0:
138,165,61841,2,0,P|185:179|239:194,1,97.50000371933,2|0,0:0|0:0,0:0:0:0:
300,298,62614,6,0,P|265:308|226:320,1,58.4999982147217,6|0,3:2|0:0,0:0:0:0:
169,361,63001,2,0,P|134:351|95:339,1,58.4999982147217,0|0,3:2|0:0,0:0:0:0:
25,354,63387,2,0,P|24:330|45:290,1,58.4999982147217,0|0,3:2|0:0,0:0:0:0:
107,245,63774,1,2,3:2:0:0:
13,78,64161,6,0,P|44:68|72:58,1,58.4999982147217,2|0,3:2|0:0,0:0:0:0:
136,3,64548,2,0,P|167:13|195:23,1,58.4999982147217,0|0,3:2|0:0,0:0:0:0:
246,89,64934,2,0,P|277:79|305:69,1,58.4999982147217,0|0,3:2|0:0,0:0:0:0:
367,11,65321,1,2,3:2:0:0:
502,150,65708,6,0,P|492:180|485:211,1,58.4999982147217,2|0,3:2|0:0,0:0:0:0:
403,234,66094,2,0,P|412:264|420:295,1,58.4999982147217,0|0,3:2|0:0,0:0:0:0:
355,350,66481,2,0,P|323:343|293:334,1,58.4999982147217,0|0,3:2|0:0,0:0:0:0:
231,278,66868,2,0,P|199:284|169:293,1,58.4999982147217,0|2,3:2|0:0,0:0:0:0:
65,349,67255,6,0,P|79:285|43:239,1,116.999996429443,2|0,3:2|3:2,0:0:0:0:
6,176,67835,1,2,0:0:0:0:
6,176,68028,2,0,P|16:125|74:84,1,116.999996429443,2|0,3:2|3:2,0:0:0:0:
137,136,68608,1,2,0:0:0:0:
226,74,68802,6,0,P|256:84|291:96,1,58.4999982147217,6|0,3:2|0:0,0:0:0:0:
365,66,69188,2,0,P|371:96|378:133,1,58.4999982147217,0|0,3:2|0:0,0:0:0:0:
442,181,69575,2,0,P|418:201|390:226,1,58.4999982147217,0|0,3:2|0:0,0:0:0:0:
394,307,69962,2,0,P|364:296|329:285,1,58.4999982147217,0|0,3:2|0:0,0:0:0:0:
223,329,70348,6,0,P|243:309|248:272,1,58.4999982147217,0|0,3:2|0:0,0:0:0:0:
301,209,70735,2,0,P|281:189|276:152,1,58.4999982147217,0|0,3:2|0:0,0:0:0:0:
199,117,71122,2,0,P|219:97|224:60,1,58.4999982147217,0|0,3:2|0:0,0:0:0:0:
145,30,71509,2,0,P|125:50|120:87,1,58.4999982147217,2|0,3:2|0:0,0:0:0:0:
24,140,71895,6,0,P|36:181|43:214,1,58.4999982147217,2|0,3:2|0:0,0:0:0:0:
104,256,72282,2,0,P|92:297|85:330,1,58.4999982147217,0|0,3:2|0:0,0:0:0:0:
154,370,72669,2,0,P|195:358|228:351,1,58.4999982147217,0|0,3:2|0:0,0:0:0:0:
272,291,73056,2,0,P|313:303|346:310,1,58.4999982147217,0|0,3:2|0:0,0:0:0:0:
417,383,73442,5,2,3:2:0:0:
490,319,73636,2,0,P|490:286|471:254,1,65,8|0,0:0|0:0,0:0:0:0:
447,224,73926,1,8,0:0:0:0:
447,224,74022,1,8,0:0:0:0:
390,144,74216,2,0,P|396:125|402:98,2,32.5,8|8|8,0:0|0:0|0:0,0:0:0:0:
362,184,74506,2,0,P|326:191|284:198,1,65,8|8,0:0|0:0,0:0:0:0:
267,233,74796,1,8,0:0:0:0:
174,155,74989,6,0,B|131:147|97:181|127:184|94:218|42:207,1,143.000004364014,6|10,3:1|0:0,0:0:0:0:
8,123,75569,1,0,0:0:0:0:
8,123,75763,2,0,P|33:95|81:81,1,71.5000021820069,2|0,3:2|0:0,0:0:0:0:
140,17,76149,2,0,P|173:34|222:31,1,71.5000021820069,10|0,0:0|0:0,0:0:0:0:
321,5,76536,6,0,P|297:83|276:154,1,143.000004364014,2|10,3:2|0:0,0:0:0:0:
207,211,77116,1,0,0:0:0:0:
207,211,77309,2,0,P|217:246|227:287,1,71.5000021820069,2|0,3:2|0:0,0:0:0:0:
312,329,77696,2,0,P|347:319|388:309,1,71.5000021820069,10|0,0:0|0:0,0:0:0:0:
493,324,78083,6,0,P|494:287|470:243,1,71.5000021820069,6|0,3:2|0:0,0:0:0:0:
401,194,78470,2,0,P|400:157|424:113,1,71.5000021820069,10|0,0:0|0:0,0:0:0:0:
467,42,78856,2,0,P|438:35|397:24,1,71.5000021820069,2|0,3:2|0:0,0:0:0:0:
320,87,79243,2,0,P|291:93|250:105,1,71.5000021820069,10|0,0:0|0:0,0:0:0:0:
178,13,79630,6,0,P|151:38|135:72,1,71.5000021820069,2|0,3:2|0:0,0:0:0:0:
44,111,80017,2,0,P|71:136|87:170,1,71.5000021820069,10|0,0:0|0:0,0:0:0:0:
173,214,80403,2,0,P|91:217|41:279,1,143.000004364014,2|10,3:2|0:0,0:0:0:0:
5,347,80983,1,0,0:0:0:0:
137,312,81177,6,0,B|206:327|206:327|208:336|208:336|271:350,1,143.000004364014,6|10,3:1|0:0,0:0:0:0:
371,374,81757,1,0,0:0:0:0:
371,374,81950,2,0,P|393:350|398:297,1,71.5000021820069,2|0,3:2|0:0,0:0:0:0:
474,243,82337,2,0,P|452:219|447:166,1,71.5000021820069,10|0,0:0|0:0,0:0:0:0:
512,81,82724,6,0,P|443:65|393:0,1,143.000004364014,2|10,3:2|0:0,0:0:0:0:
307,52,83304,1,0,0:0:0:0:
307,52,83497,2,0,P|296:88|285:125,1,71.5000021820069,2|0,3:2|0:0,0:0:0:0:
346,200,83884,2,0,P|357:236|368:273,1,71.5000021820069,10|0,0:0|0:0,0:0:0:0:
278,352,84270,6,0,P|237:340|205:304,1,71.5000021820069,2|0,3:2|0:0,0:0:0:0:
122,359,84657,2,0,P|111:318|126:272,1,71.5000021820069,10|0,0:0|0:0,0:0:0:0:
37,228,85044,2,0,P|67:198|114:188,1,71.5000021820069,2|0,3:2|0:0,0:0:0:0:
99,88,85431,2,0,P|139:99|171:135,1,71.5000021820069,10|0,0:0|0:0,0:0:0:0:
287,62,85817,5,2,3:2:0:0:
287,62,86011,1,0,0:0:0:0:
256,157,86204,2,0,P|267:196|275:234,1,71.5000021820069,10|0,0:0|0:0,0:0:0:0:
364,269,86591,2,0,P|352:308|345:346,1,71.5000021820069,2|0,3:2|0:0,0:0:0:0:
441,383,86978,1,10,0:0:0:0:
441,383,87171,1,0,0:0:0:0:
502,280,87364,5,2,0:0:0:0:
256,192,87558,12,0,94325,0:0:0:0:
