osu file format v14

[General]
AudioFilename: audio.mp3
AudioLeadIn: 0
PreviewTime: 41115
Countdown: 1
SampleSet: None
StackLeniency: 0.6
Mode: 1
LetterboxInBreaks: 0
WidescreenStoryboard: 1

[Editor]
Bookmarks: 946,83658
DistanceSpacing: 1
BeatDivisor: 4
GridSize: 16
TimelineZoom: 1.4

[Metadata]
Title:Question
TitleUnicode:Question
Artist:NateWantsToBattle
ArtistUnicode:NateWantsToBattle
Creator:F4UZ4N
Version:dsafasf
Source:暗殺教室 第2期 FINAL SEASON
Tags:
BeatmapID:2273484
BeatmapSetID:1087149

[Difficulty]
HPDrainRate:3.5
CircleSize:3
OverallDifficulty:4
ApproachRate:5
SliderMultiplier:1.3
SliderTickRate:1

[Events]
//Background and Video events
0,0,"Assassination-Classroom-assassination-classroom-40615461-1920-1080.png",0,0
//Break Periods
//Storyboard Layer 0 (Background)
//Storyboard Layer 1 (Fail)
//Storyboard Layer 2 (Pass)
//Storyboard Layer 3 (Foreground)
//Storyboard Layer 4 (Overlay)
//Storyboard Sound Samples

[TimingPoints]
438,338.983050847458,4,2,0,70,1,0
3149,-83.3333333333333,4,2,0,70,0,0
13997,-106.382978723404,4,2,0,70,0,0
22132,-92.5925925925926,4,2,0,70,0,0
24844,-106.382978723404,4,2,0,70,0,0
32980,-125,4,2,0,70,0,0
38404,-83.3333333333333,4,2,0,70,0,0
41115,-76.9230769230769,4,2,0,70,0,1
62810,-83.3333333333333,4,2,0,70,0,0
87895,-66.6666666666667,4,2,0,70,0,0

[Colours]
Combo1 : 188,67,155
Combo2 : 60,255,60
Combo3 : 4,214,251
Combo4 : 255,60,65

[HitObjects]
200,254,438,5,2,0:0:0:0:
200,254,607,1,2,0:0:0:0:
200,254,776,1,2,0:0:0:0:
314,255,946,1,0,0:0:0:0:
314,255,1115,1,0,0:0:0:0:
200,254,1285,1,2,0:0:0:0:
314,255,1454,1,0,0:0:0:0:
200,254,1624,1,2,0:0:0:0:
200,254,1793,1,2,0:0:0:0:
314,255,1963,1,0,0:0:0:0:
314,255,2048,1,0,0:0:0:0:
200,254,2132,1,2,0:0:0:0:
314,255,2217,1,0,0:0:0:0:
200,254,2302,1,2,0:0:0:0:
200,254,2641,1,2,0:0:0:0:
200,254,2810,1,2,0:0:0:0:
314,255,2980,1,0,0:0:0:0:
200,136,3149,1,8,0:0:0:0:
314,255,3319,1,0,0:0:0:0:
314,255,3404,1,0,0:0:0:0:
200,254,3488,1,2,0:0:0:0:
314,255,3658,1,0,0:0:0:0:
314,255,3997,1,0,0:0:0:0:
314,255,4166,1,0,0:0:0:0:
200,254,4336,1,2,0:0:0:0:
200,254,4505,1,2,0:0:0:0:
314,255,4675,1,0,0:0:0:0:
314,255,4760,1,0,0:0:0:0:
200,254,4844,1,2,0:0:0:0:
314,255,5014,1,0,0:0:0:0:
200,254,5353,1,2,0:0:0:0:
314,255,5522,1,0,0:0:0:0:
314,255,5692,1,0,0:0:0:0:
200,254,5861,1,2,0:0:0:0:
314,255,6031,1,0,0:0:0:0:
314,255,6115,1,0,0:0:0:0:
200,254,6200,1,2,0:0:0:0:
314,255,6370,1,0,0:0:0:0:
314,255,6709,1,0,0:0:0:0:
314,255,6878,1,0,0:0:0:0:
200,254,7048,1,2,0:0:0:0:
200,254,7217,1,2,0:0:0:0:
314,255,7387,1,0,0:0:0:0:
314,255,7471,1,0,0:0:0:0:
200,254,7556,1,2,0:0:0:0:
200,254,7641,1,2,0:0:0:0:
314,255,7726,1,0,0:0:0:0:
314,255,8065,1,0,0:0:0:0:
200,254,8234,1,2,0:0:0:0:
200,254,8404,1,2,0:0:0:0:
200,254,8573,1,2,0:0:0:0:
314,255,8743,1,0,0:0:0:0:
314,255,8827,1,0,0:0:0:0:
200,254,8912,1,2,0:0:0:0:
314,255,9082,1,0,0:0:0:0:
200,254,9421,1,2,0:0:0:0:
314,255,9590,1,0,0:0:0:0:
200,254,9760,1,2,0:0:0:0:
200,254,9929,1,2,0:0:0:0:
314,255,10099,1,0,0:0:0:0:
314,255,10184,1,0,0:0:0:0:
200,254,10268,1,2,0:0:0:0:
200,254,10353,1,2,0:0:0:0:
314,255,10438,1,0,0:0:0:0:
200,254,10777,1,2,0:0:0:0:
314,255,10946,1,0,0:0:0:0:
314,255,11116,1,0,0:0:0:0:
200,254,11285,1,2,0:0:0:0:
314,255,11455,1,0,0:0:0:0:
314,255,11539,1,0,0:0:0:0:
200,254,11624,1,2,0:0:0:0:
314,255,11794,1,0,0:0:0:0:
200,254,12132,1,2,0:0:0:0:
314,255,12302,1,0,0:0:0:0:
200,254,12471,1,2,0:0:0:0:
200,254,12641,1,2,0:0:0:0:
314,255,12811,1,0,0:0:0:0:
314,255,12895,1,0,0:0:0:0:
200,254,12980,1,2,0:0:0:0:
314,255,13065,1,0,0:0:0:0:
314,255,13150,1,0,0:0:0:0:
200,136,13488,1,8,0:0:0:0:
200,136,13658,1,8,0:0:0:0:
200,136,13827,1,8,0:0:0:0:
314,255,13997,1,0,0:0:0:0:
200,254,14336,1,2,0:0:0:0:
200,254,14675,1,2,0:0:0:0:
200,254,15014,1,2,0:0:0:0:
314,255,15183,1,0,0:0:0:0:
314,255,15353,1,0,0:0:0:0:
200,254,15692,1,2,0:0:0:0:
200,254,16031,1,2,0:0:0:0:
200,254,16370,1,2,0:0:0:0:
314,255,16539,1,0,0:0:0:0:
200,254,16709,1,2,0:0:0:0:
200,254,17048,1,2,0:0:0:0:
200,254,17387,1,2,0:0:0:0:
200,254,17726,1,2,0:0:0:0:
314,255,17895,1,0,0:0:0:0:
314,255,18065,1,0,0:0:0:0:
200,254,18404,1,2,0:0:0:0:
200,254,18743,1,2,0:0:0:0:
200,254,19082,1,2,0:0:0:0:
