osu file format v14

[General]
AudioFilename: audio.mp3
AudioLeadIn: 0
PreviewTime: 41115
Countdown: 1
SampleSet: None
StackLeniency: 0.6
Mode: 0
LetterboxInBreaks: 0
WidescreenStoryboard: 1

[Editor]
Bookmarks: 83658
DistanceSpacing: 0.6
BeatDivisor: 8
GridSize: 16
TimelineZoom: 1.4

[Metadata]
Title:Question
TitleUnicode:Question
Artist:NateWantsToBattle
ArtistUnicode:NateWantsToBattle
Creator:F4UZ4N
Version:Insane????
Source:暗殺教室 第2期 FINAL SEASON
Tags:
BeatmapID:2273487
BeatmapSetID:1087149

[Difficulty]
HPDrainRate:5
CircleSize:5.2
OverallDifficulty:7.2
ApproachRate:8.8
SliderMultiplier:1.1
SliderTickRate:1

[Events]
//Background and Video events
0,0,"Assassination-Classroom-assassination-classroom-40615461-1920-1080.png",0,0
//Break Periods
//Storyboard Layer 0 (Background)
//Storyboard Layer 1 (Fail)
//Storyboard Layer 2 (Pass)
//Storyboard Layer 3 (Foreground)
//Storyboard Layer 4 (Overlay)
//Storyboard Sound Samples

[TimingPoints]
438,338.983050847458,4,2,0,70,1,0
3149,-83.3333333333333,4,2,0,70,0,0
13997,-117.647058823529,4,2,0,70,0,0
22132,-71.4285714285714,4,2,0,70,0,0
22641,-83.3333333333333,4,2,0,70,0,0
24844,-117.647058823529,4,2,0,70,0,0
32980,-76.9230769230769,4,2,0,70,0,0
38404,-83.3333333333333,4,2,0,70,0,0
41115,-76.9230769230769,4,2,0,70,0,1
62810,-83.3333333333333,4,2,0,70,0,0
87895,-66.6666666666667,4,2,0,70,0,0

[Colours]
Combo1 : 188,67,155
Combo2 : 60,255,60
Combo3 : 4,214,251
Combo4 : 255,60,65

[HitObjects]
67,356,438,5,0,0:0:0:0:
134,383,607,1,0,0:0:0:0:
180,327,776,1,0,0:0:0:0:
141,265,946,1,0,0:0:0:0:
141,265,1115,1,0,0:0:0:0:
71,284,1285,1,0,0:0:0:0:
67,356,1454,1,0,0:0:0:0:
134,383,1624,1,0,0:0:0:0:
71,284,1793,6,0,P|59:251|60:208,1,55
90,169,2132,1,0,0:0:0:0:
40,79,2302,2,0,B|110:74|89:108|146:106,1,110
229,79,2810,1,0,0:0:0:0:
200,144,2980,1,0,0:0:0:0:
315,186,3149,5,0,0:0:0:0:
305,106,3319,1,0,0:0:0:0:
295,26,3488,1,0,0:0:0:0:
295,26,3658,2,0,P|342:34|385:112,1,131.99999597168
458,154,4166,2,0,P|418:165|399:202,1,65.9999979858399
420,276,4505,6,0,P|397:252|365:246,1,65.9999979858399
306,290,4844,1,0,0:0:0:0:
306,290,5014,2,0,B|251:284|251:284|223:296|223:296|166:289,1,131.99999597168
129,235,5522,1,0,0:0:0:0:
115,329,5692,1,0,0:0:0:0:
61,222,5861,5,0,0:0:0:0:
141,212,6031,1,0,0:0:0:0:
221,202,6200,1,0,0:0:0:0:
221,202,6370,2,0,B|226:104|226:104|211:138,1,131.99999597168
295,206,6878,2,0,L|299:125,1,65.9999979858399
215,69,7217,6,0,L|211:134,1,65.9999979858399
148,98,7556,1,0,0:0:0:0:
148,98,7726,2,0,P|106:127|96:206,1,131.99999597168
160,256,8234,1,0,0:0:0:0:
239,228,8404,1,0,0:0:0:0:
242,317,8573,5,0,0:0:0:0:
252,237,8743,1,0,0:0:0:0:
262,157,8912,1,0,0:0:0:0:
262,157,9082,2,0,P|305:176|326:263,1,131.99999597168
386,362,9590,2,0,P|375:340|395:300,1,65.9999979858399
454,265,9929,6,0,P|464:243|444:203,1,65.9999979858399
377,193,10268,1,0,0:0:0:0:
377,193,10438,2,0,L|384:42,1,131.99999597168
324,18,10946,1,0,0:0:0:0:
314,112,11115,1,0,0:0:0:0:
222,79,11285,5,0,0:0:0:0:
232,159,11455,1,0,0:0:0:0:
242,239,11624,1,0,0:0:0:0:
242,239,11793,2,0,B|188:243|188:243|171:265|171:265|116:269,1,131.99999597168
70,185,12302,2,0,P|110:185|136:203,1,65.9999979858399
169,114,12641,6,0,P|194:144|197:176,1,65.9999979858399
264,202,12980,1,0,0:0:0:0:
264,202,13149,2,0,B|305:188|321:222|361:207,1,98.9999969787599
377,197,13488,5,0,0:0:0:0:
379,75,13658,1,0,0:0:0:0:
483,137,13827,1,0,0:0:0:0:
481,259,13997,5,0,0:0:0:0:
425,297,14166,1,0,0:0:0:0:
425,297,14336,2,0,P|392:286|374:286,1,46.7500008916855
324,327,14675,2,0,P|291:338|273:338,1,46.7500008916855
223,291,15014,1,0,0:0:0:0:
188,180,15183,1,0,0:0:0:0:
123,275,15353,2,0,B|108:243|108:243|116:180,1,93.500001783371
85,121,15861,2,0,P|118:112|140:120,1,46.7500008916855
195,86,16200,1,0,0:0:0:0:
195,86,16370,1,0,0:0:0:0:
266,167,16539,1,0,0:0:0:0:
301,66,16708,5,0,0:0:0:0:
361,109,16878,1,0,0:0:0:0:
343,181,17048,1,0,0:0:0:0:
401,226,17217,1,0,0:0:0:0:
360,309,17387,2,0,P|345:283|342:251,1,46.7500008916855
278,230,17726,1,0,0:0:0:0:
207,311,17895,1,0,0:0:0:0:
172,210,18065,2,0,P|119:201|85:245,1,93.500001783371
0,311,18573,2,0,P|53:320|87:276,1,93.500001783371
144,334,19082,1,0,0:0:0:0:
238,247,19251,1,0,0:0:0:0:
266,371,19421,5,0,0:0:0:0:
293,303,19590,1,0,0:0:0:0:
361,254,19760,1,0,0:0:0:0:
334,186,19929,1,0,0:0:0:0:
386,134,20099,2,0,P|406:125|433:120,1,46.7500008916855
412,53,20438,1,0,0:0:0:0:
319,108,20607,1,0,0:0:0:0:
264,15,20776,2,0,B|195:22|195:22|235:37,1,93.500001783371
162,85,21285,1,0,0:0:0:0:
267,162,21454,1,0,0:0:0:0:
103,134,21624,1,0,0:0:0:0:
161,291,21793,1,0,0:0:0:0:
178,196,21963,1,0,0:0:0:0:
284,304,22132,6,0,P|299:267|296:222,1,76.9999976501466
372,272,22471,1,0,0:0:0:0:
327,167,22641,2,0,B|242:148|282:198|201:185,1,131.99999597168
149,81,23149,1,0,0:0:0:0:
223,120,23319,1,0,0:0:0:0:
103,140,23488,6,0,P|75:99|108:24,1,131.99999597168
181,158,23997,2,0,P|188:132|229:121,1,65.9999979858399
211,224,24336,1,0,0:0:0:0:
131,288,24505,1,0,0:0:0:0:
131,288,24675,1,0,0:0:0:0:
236,350,24844,5,0,0:0:0:0:
285,295,25014,1,0,0:0:0:0:
333,350,25183,2,0,P|321:323|317:299,1,46.7500008916855
385,277,25522,2,0,P|361:259|345:240,1,46.7500008916855
353,174,25861,1,0,0:0:0:0:
446,111,26031,1,0,0:0:0:0:
502,229,26200,2,0,P|457:235|413:205,1,93.500001783371
353,174,26709,2,0,P|308:168|264:198,1,93.500001783371
238,259,27217,1,0,0:0:0:0:
123,208,27387,1,0,0:0:0:0:
174,93,27556,5,0,0:0:0:0:
113,134,27726,1,0,0:0:0:0:
69,256,27895,1,0,0:0:0:0:
130,297,28065,1,0,0:0:0:0:
207,384,28234,1,0,0:0:0:0:
248,323,28404,1,0,0:0:0:0:
332,377,28573,1,0,0:0:0:0:
388,256,28743,1,0,0:0:0:0:
445,369,28912,2,0,B|471:329|471:329|457:283,1,93.500001783371
449,214,29421,2,0,B|475:174|475:174|461:128,1,93.500001783371
414,72,29929,1,0,0:0:0:0:
384,195,30099,1,0,0:0:0:0:
340,76,30268,5,0,0:0:0:0:
287,127,30438,1,0,0:0:0:0:
217,106,30607,2,0,L|212:152,1,46.7500008916855
156,231,30946,1,0,0:0:0:0:
178,301,31115,1,0,0:0:0:0:
276,232,31285,1,0,0:0:0:0:
252,302,31454,1,0,0:0:0:0:
327,366,31624,2,0,P|332:335|333:294,1,70.1250013375283
343,287,31963,2,0,P|343:262|341:234,1,46.7500008916855
305,125,32302,5,0,0:0:0:0:
454,96,32471,1,0,0:0:0:0:
320,108,32641,5,0,0:0:0:0:
438,112,32810,1,0,0:0:0:0:
315,199,32980,5,0,0:0:0:0:
315,199,33149,2,0,P|297:254|214:268,1,142.99999345398
144,311,33658,2,0,P|187:272|265:301,1,142.99999345398
208,340,34166,1,0,0:0:0:0:
245,201,34336,1,0,0:0:0:0:
178,162,34505,2,0,P|139:118|168:40,1,142.99999345398
255,9,35014,2,0,P|211:47|133:18,1,142.99999345398
227,72,35522,1,0,0:0:0:0:
352,15,35692,5,0,0:0:0:0:
383,89,35861,2,0,B|398:135|398:135|375:243,1,142.99999345398
374,321,36370,2,0,B|389:275|389:275|366:167,1,142.99999345398
313,268,36878,1,0,0:0:0:0:
242,222,37048,1,0,0:0:0:0:
256,335,37217,2,0,P|245:267|210:203,1,142.99999345398
160,375,37726,2,0,P|170:341|166:264,1,107.249995090485
160,262,38065,1,0,0:0:0:0:
220,231,38234,1,0,0:0:0:0:
340,181,38404,6,0,P|274:112|95:277,1,395.999987915039
220,231,39760,5,0,0:0:0:0:
220,231,39929,1,0,0:0:0:0:
321,137,40099,5,0,0:0:0:0:
321,137,40268,1,0,0:0:0:0:
176,95,40438,5,0,0:0:0:0:
176,95,40607,1,0,0:0:0:0:
306,301,40776,5,0,0:0:0:0:
306,301,40945,1,0,0:0:0:0:
203,384,41115,37,0,0:0:0:0:
86,347,41285,1,0,0:0:0:0:
150,304,41454,2,0,P|168:259|167:230,1,71.4999967269899
38,255,41793,2,0,P|84:239|105:220,1,71.4999967269899
150,304,42132,1,0,0:0:0:0:
169,226,42302,1,0,0:0:0:0:
127,158,42471,6,0,P|82:140|53:141,1,71.4999967269899
0,72,42810,2,0,P|45:54|74:55,1,71.4999967269899
165,0,43149,1,0,0:0:0:0:
183,77,43319,1,0,0:0:0:0:
201,154,43488,2,0,L|219:77,1,71.4999967269899
301,0,43827,6,0,L|317:69,1,71.4999967269899
401,154,44166,2,0,L|419:77,1,71.4999967269899
331,137,44505,1,0,0:0:0:0:
331,137,44675,1,0,0:0:0:0:
397,32,44844,2,0,P|415:77|414:105,1,71.4999967269899
452,253,45183,6,0,B|424:230|424:230|377:228,1,71.4999967269899
449,341,45522,2,0,B|484:339|484:339|512:316,1,71.4999967269899
442,351,45861,1,0,0:0:0:0:
361,356,46031,1,0,0:0:0:0:
302,302,46200,2,0,P|292:254|298:226,1,71.4999967269899
212,231,46539,5,0,0:0:0:0:
207,312,46709,1,0,0:0:0:0:
146,365,46878,2,0,P|110:368|76:358,1,71.4999967269899
0,237,47217,2,0,P|35:233|69:243,1,71.4999967269899
115,295,47556,1,0,0:0:0:0:
136,230,47726,1,0,0:0:0:0:
41,152,47895,6,0,L|118:134,1,71.4999967269899
213,17,48234,2,0,L|136:-1,1,71.4999967269899
10,41,48573,1,0,0:0:0:0:
79,57,48743,1,0,0:0:0:0:
148,73,48912,2,0,L|217:89,1,71.4999967269899
423,37,49251,6,0,P|394:14|341:15,1,71.4999967269899
296,150,49590,2,0,P|330:144|358:122,1,71.4999967269899
290,78,49929,1,0,0:0:0:0:
359,94,50099,1,0,0:0:0:0:
428,110,50268,2,0,L|497:126,1,71.4999967269899
368,237,50607,6,0,L|299:253,1,71.4999967269899
491,380,50946,2,0,L|422:364,1,71.4999967269899
340,342,51285,1,0,0:0:0:0:
368,237,51454,5,0,0:0:0:0:
301,80,51624,5,0,0:0:0:0:
144,147,51793,5,0,0:0:0:0:
211,304,51963,6,0,P|180:324|142:326,1,71.4999967269899
30,268,52302,2,0,L|99:252,1,71.4999967269899
75,372,52641,1,0,0:0:0:0:
146,326,52810,1,0,0:0:0:0:
100,252,52980,2,0,P|70:232|35:229,1,71.4999967269899
54,46,53319,6,0,B|32:76|32:76|41:121,1,71.4999967269899
208,106,53658,2,0,B|215:73|215:73|193:43,1,71.4999967269899
38,109,53997,1,0,0:0:0:0:
124,146,54166,1,0,0:0:0:0:
208,106,54336,2,0,L|224:37,1,71.4999967269899
450,37,54675,6,0,P|478:58|512:67,1,71.4999967269899
386,89,55014,2,0,P|388:124|404:156,1,71.4999967269899
334,23,55353,2,0,P|308:47|293:80,1,71.4999967269899
325,154,55692,1,0,0:0:0:0:
325,154,55861,1,0,0:0:0:0:
330,285,56031,6,0,P|304:261|289:228,1,71.4999967269899
379,383,56370,2,0,L|395:314,1,71.4999967269899
512,235,56709,2,0,P|487:261|455:275,1,71.4999967269899
297,151,57048,5,0,0:0:0:0:
136,151,57217,5,0,0:0:0:0:
217,384,57387,5,0,0:0:0:0:
139,361,57556,1,0,0:0:0:0:
102,291,57726,2,0,P|108:243|124:218,1,71.4999967269899
225,310,58065,2,0,P|192:273|183:246,1,71.4999967269899
213,43,58404,5,0,0:0:0:0:
135,66,58573,1,0,0:0:0:0:
98,136,58743,2,0,L|167:152,1,71.4999967269899
25,16,59082,2,0,L|94:0,1,71.4999967269899
311,86,59421,5,0,0:0:0:0:
400,106,59591,1,0,0:0:0:0:
489,127,59760,2,0,P|487:92|471:60,1,71.4999967269899
488,316,60099,6,0,P|486:351|470:383,1,71.4999967269899
296,232,60438,2,0,P|298:267|314:299,1,71.4999967269899
512,229,60776,2,0,L|443:245,1,71.4999967269899
350,368,61115,1,0,0:0:0:0:
350,368,61285,1,0,0:0:0:0:
350,122,61454,5,0,0:0:0:0:
350,122,61624,1,0,0:0:0:0:
216,154,61793,5,0,0:0:0:0:
216,154,61963,1,0,0:0:0:0:
297,236,62132,5,0,0:0:0:0:
297,236,62302,1,0,0:0:0:0:
196,327,62471,5,0,0:0:0:0:
189,305,62555,1,0,0:0:0:0:
185,283,62640,1,0,0:0:0:0:
181,261,62725,1,0,0:0:0:0:
163,249,62810,6,0,P|157:210|171:177,1,65.9999979858399
116,304,63149,2,0,P|63:262|35:200,1,131.99999597168
95,82,63658,2,0,L|84:158,1,65.9999979858399
162,47,63997,1,0,0:0:0:0:
246,128,64166,6,0,L|235:204,1,65.9999979858399
313,93,64505,1,0,0:0:0:0:
397,174,64675,2,0,P|389:204|386:250,1,65.9999979858399
464,139,65014,1,0,0:0:0:0:
487,237,65183,1,0,0:0:0:0:
510,335,65353,1,0,0:0:0:0:
446,378,65522,6,0,P|410:368|393:345,1,65.9999979858399
303,336,65861,2,0,P|284:303|324:222,1,131.99999597168
398,174,66370,2,0,P|422:153|429:121,1,65.9999979858399
375,62,66709,1,0,0:0:0:0:
279,148,66878,6,0,P|278:115|259:89,1,65.9999979858399
178,93,67217,1,0,0:0:0:0:
182,222,67387,2,0,P|157:201|122:186,1,65.9999979858399
62,238,67726,1,0,0:0:0:0:
