osu file format v14

[General]
AudioFilename: audio.mp3
AudioLeadIn: 0
PreviewTime: 41115
Countdown: 1
SampleSet: None
StackLeniency: 0.6
Mode: 0
LetterboxInBreaks: 0
WidescreenStoryboard: 1

[Editor]
Bookmarks: 83658
DistanceSpacing: 0.4
BeatDivisor: 4
GridSize: 16
TimelineZoom: 1.4

[Metadata]
Title:Question
TitleUnicode:Question
Artist:NateWantsToBattle
ArtistUnicode:NateWantsToBattle
Creator:F4UZ4N
Version:Hard???
Source:暗殺教室 第2期 FINAL SEASON
Tags:
BeatmapID:2273486
BeatmapSetID:1087149

[Difficulty]
HPDrainRate:4.5
CircleSize:4
OverallDifficulty:6
ApproachRate:7
SliderMultiplier:1.3
SliderTickRate:1

[Events]
//Background and Video events
0,0,"Assassination-Classroom-assassination-classroom-40615461-1920-1080.png",0,0
//Break Periods
//Storyboard Layer 0 (Background)
//Storyboard Layer 1 (Fail)
//Storyboard Layer 2 (Pass)
//Storyboard Layer 3 (Foreground)
//Storyboard Layer 4 (Overlay)
//Storyboard Sound Samples

[TimingPoints]
438,338.983050847458,4,2,0,70,1,0
3149,-90.9090909090909,4,2,0,70,0,0
13488,-83.3333333333333,4,2,0,70,0,0
13997,-120.481927710843,4,2,0,70,0,0
22132,-83.3333333333333,4,2,0,70,0,0
24844,-120.481927710843,4,2,0,70,0,0
32980,-111.111111111111,4,2,0,70,0,0
38404,-83.3333333333333,4,2,0,70,0,0
41115,-76.9230769230769,4,2,0,70,0,1
62810,-83.3333333333333,4,2,0,70,0,0
87895,-66.6666666666667,4,2,0,70,0,0

[Colours]
Combo1 : 188,67,155
Combo2 : 60,255,60
Combo3 : 4,214,251
Combo4 : 255,60,65

[HitObjects]
38,224,438,6,0,L|119:212,1,65
171,169,776,1,0,0:0:0:0:
265,341,1285,2,0,L|184:329,2,65
341,296,1793,6,0,L|422:284,2,65
278,222,2302,2,0,P|279:155|399:131,1,195,0|2,0:0|0:0,0:0:0:0:
440,192,2980,1,2,0:0:0:0:
325,211,3149,6,0,P|278:200|236:175,2,71.5000021820069
237,266,3658,2,0,B|201:257|201:257|169:267|169:267|126:258,1,107.25000327301
112,252,3997,1,0,0:0:0:0:
72,172,4166,1,0,0:0:0:0:
153,102,4336,1,0,0:0:0:0:
170,106,4505,6,0,L|157:190,1,71.5000021820069
254,185,4844,1,0,0:0:0:0:
243,166,5013,2,0,L|261:54,1,107.25000327301
265,39,5353,1,0,0:0:0:0:
333,103,5522,2,0,P|349:156|348:201,1,71.5000021820069
284,247,5861,6,0,P|271:301|267:337,1,71.5000021820069
353,352,6200,1,0,0:0:0:0:
353,352,6370,2,0,P|357:313|381:226,1,107.25000327301
391,236,6709,1,0,0:0:0:0:
481,274,6878,2,0,P|477:238|468:203,1,71.5000021820069
404,128,7217,5,0,0:0:0:0:
326,126,7387,1,0,0:0:0:0:
268,70,7556,1,0,0:0:0:0:
193,62,7726,2,0,L|66:77,1,107.25000327301
65,76,8065,1,0,0:0:0:0:
44,172,8234,1,0,0:0:0:0:
44,172,8404,1,0,0:0:0:0:
76,254,8573,6,0,P|125:268|159:262,1,71.5000021820069
223,236,8912,1,0,0:0:0:0:
247,307,9082,2,0,P|239:244|234:178,1,107.25000327301
234,178,9421,1,0,0:0:0:0:
310,113,9590,2,0,P|317:164|316:197,1,71.5000021820069
317,300,9929,6,0,P|281:300|246:306,1,71.5000021820069
173,355,10268,1,0,0:0:0:0:
137,266,10438,2,0,B|144:222|144:222|137:197|137:197|144:132|144:132,1,107.25000327301
146,139,10776,1,0,0:0:0:0:
104,61,10946,2,0,P|143:48|192:64,1,71.5000021820069
260,132,11285,6,0,P|295:136|328:123,1,71.5000021820069
409,168,11624,1,0,0:0:0:0:
417,86,11793,2,0,B|433:135|433:135|404:213,1,107.25000327301
419,207,12132,1,0,0:0:0:0:
440,295,12302,1,0,0:0:0:0:
338,254,12471,1,0,0:0:0:0:
338,254,12641,6,0,L|260:262,1,71.5000021820069
195,304,12980,1,0,0:0:0:0:
110,249,13149,2,0,P|143:196|208:196,1,107.25000327301
206,195,13488,5,0,0:0:0:0:
278,126,13658,1,0,0:0:0:0:
208,61,13827,1,0,0:0:0:0:
145,107,13997,5,0,0:0:0:0:
145,107,14336,2,0,P|115:103|85:101,1,53.9500007820511
103,193,14675,2,0,P|133:189|163:187,1,53.9500007820511
213,242,15014,1,0,0:0:0:0:
250,315,15183,1,0,0:0:0:0:
296,230,15353,2,0,B|303:181|255:187|264:113,1,107.900001564102
356,147,15861,2,0,P|388:114|452:122,1,107.900001564102
489,186,16370,1,0,0:0:0:0:
457,278,16539,1,0,0:0:0:0:
457,278,16709,6,0,L|388:287,1,53.9500007820511
334,331,17048,1,0,0:0:0:0:
334,331,17217,1,0,0:0:0:0:
286,228,17387,2,0,P|284:143|288:100,1,107.900001564102
216,52,17895,1,0,0:0:0:0:
216,52,18065,2,0,P|205:107|205:170,1,107.900001564102
112,157,18573,2,0,P|113:103|123:50,1,107.900001564102
36,43,19082,2,0,P|29:70|27:100,1,53.9500007820511
38,200,19421,5,0,0:0:0:0:
13,276,19590,1,0,0:0:0:0:
13,276,19760,2,0,P|61:277|84:260,1,53.9500007820511
126,331,20099,2,0,B|156:303|156:303|230:316,1,107.900001564102
319,271,20607,1,0,0:0:0:0:
319,271,20776,2,0,P|346:313|396:314,1,80.9250011730767
389,317,21115,2,0,P|419:300|430:277,1,53.9500007820511
387,194,21454,5,0,0:0:0:0:
474,190,21624,1,0,0:0:0:0:
469,81,21793,1,0,0:0:0:0:
382,77,21963,1,0,0:0:0:0:
295,73,22132,6,0,B|246:71|246:71|224:87|224:87|161:87,1,116.999996429443
159,84,22471,1,0,0:0:0:0:
75,125,22641,2,0,P|60:177|52:264,1,116.999996429443
55,262,22980,1,0,0:0:0:0:
142,276,23149,2,0,L|135:186,1,77.999997619629
221,195,23488,6,0,L|228:273,1,77.999997619629
283,333,23827,1,0,0:0:0:0:
374,302,23997,2,0,P|421:278|424:202,1,116.999996429443
424,196,24336,1,0,0:0:0:0:
348,223,24505,2,0,P|337:185|344:147,1,77.999997619629
411,98,24844,5,0,0:0:0:0:
266,137,25183,2,0,P|234:143|199:145,1,53.9500007820511
158,85,25522,2,0,P|126:79|91:77,1,53.9500007820511
46,137,25861,1,0,0:0:0:0:
75,231,26031,1,0,0:0:0:0:
75,231,26200,2,0,B|116:265|116:265|172:248,1,107.900001564102
247,217,26709,2,0,B|299:201|299:201|340:235,1,107.900001564102
379,308,27217,2,0,L|362:370,1,53.9500007820511
455,343,27556,6,0,P|463:301|463:283,1,53.9500007820511
422,222,27895,2,0,P|415:195|413:168,1,53.9500007820511
446,96,28234,1,0,0:0:0:0:
446,96,28404,1,0,0:0:0:0:
386,43,28573,2,0,P|344:38|316:42,1,53.9500007820511
275,97,28912,2,0,L|164:84,1,107.900001564102
155,168,29421,2,0,L|262:180,1,107.900001564102
249,263,29929,2,0,L|182:255,1,53.9500007820511
122,318,30268,5,0,0:0:0:0:
122,318,30438,2,0,P|97:287|79:253,1,53.9500007820511
4,280,30776,1,0,0:0:0:0:
4,280,30946,2,0,P|11:240|26:205,1,53.9500007820511
63,149,31285,1,0,0:0:0:0:
139,126,31454,1,0,0:0:0:0:
139,126,31624,2,0,P|166:84|216:83,1,80.9250011730767
209,80,31963,2,0,P|239:97|250:120,1,53.9500007820511
223,228,32302,5,0,0:0:0:0:
299,213,32471,1,0,0:0:0:0:
402,151,32641,5,0,0:0:0:0:
326,136,32810,1,0,0:0:0:0:
374,241,32980,5,0,0:0:0:0:
374,241,33149,2,0,P|303:253|245:277,1,116.999996429443
202,226,33658,2,0,P|131:238|73:262,1,116.999996429443
27,216,34166,1,0,0:0:0:0:
22,184,34336,1,0,0:0:0:0:
68,103,34505,2,0,L|207:117,1,116.999996429443
245,66,35014,2,0,L|384:80,1,116.999996429443
400,94,35522,1,0,0:0:0:0:
352,153,35692,1,0,0:0:0:0:
383,232,35861,6,0,P|367:284|370:354,1,116.999996429443
302,383,36370,2,0,P|274:331|232:291,1,116.999996429443
158,307,36878,1,0,0:0:0:0:
87,262,37048,1,0,0:0:0:0:
48,271,37217,2,0,B|24:219|24:219|52:146,1,116.999996429443
119,171,37726,2,0,B|140:115|140:115|116:63,1,116.999996429443
176,0,38234,6,0,L|202:57,1,58.4999982147217
307,147,39760,5,0,0:0:0:0:
298,138,39929,1,0,0:0:0:0:
211,141,40099,5,0,0:0:0:0:
202,149,40268,1,0,0:0:0:0:
191,254,40438,5,0,0:0:0:0:
199,262,40607,1,0,0:0:0:0:
316,265,40776,5,0,0:0:0:0:
324,256,40945,1,0,0:0:0:0:
212,342,41115,5,0,0:0:0:0:
135,318,41285,1,0,0:0:0:0:
45,382,41454,2,0,P|29:328|36:251,1,126.749994197846
38,242,41793,2,0,P|82:245|129:226,1,84.4999961318971
212,254,42132,1,0,0:0:0:0:
212,254,42302,1,0,0:0:0:0:
167,151,42471,6,0,L|71:139,1,84.4999961318971
0,76,42810,2,0,P|29:26|96:15,1,126.749994197846
109,17,43149,1,0,0:0:0:0:
209,0,43319,1,0,0:0:0:0:
207,77,43488,2,0,B|218:118|218:118|199:159,1,84.4999961318971
311,156,43827,6,0,B|294:118|294:118|305:77,1,84.4999961318971
381,0,44166,2,0,B|398:38|398:38|387:79,1,84.4999961318971
481,26,44505,1,0,0:0:0:0:
481,26,44675,1,0,0:0:0:0:
483,138,44844,2,0,L|398:153,1,84.4999961318971
342,236,45183,6,0,L|425:250,1,84.4999961318971
512,235,45522,2,0,L|497:318,1,84.4999961318971
422,384,45861,2,0,P|364:377|335:306,1,126.749994197846
350,319,46200,2,0,P|312:288|295:246,1,84.4999961318971
210,237,46539,5,0,0:0:0:0:
210,237,46709,1,0,0:0:0:0:
209,331,46878,2,0,B|163:351|163:351|60:312,1,126.749994197846
75,319,47217,2,0,L|88:236,1,84.4999961318971
