osu file format v14

[General]
AudioFilename: audio.mp3
AudioLeadIn: 0
PreviewTime: 51594
Countdown: 0
SampleSet: Normal
StackLeniency: 0.7
Mode: 1
LetterboxInBreaks: 0
WidescreenStoryboard: 1

[Editor]
Bookmarks: 30261,44483,50261,78261,92483,98260,112038
DistanceSpacing: 1
BeatDivisor: 4
GridSize: 4
TimelineZoom: 1.5

[Metadata]
Title:Hero Of Our Time
TitleUnicode:Hero Of Our Time
Artist:NateWantsToBattle
ArtistUnicode:NateWantsToBattle
Creator:Arach
Version:Futsuu
Source:ゼルダの伝説 時のオカリナ
Tags:Legend of Zelda Ocarina of Time Link Hyrule Field Songs Nathan Sharp Alternative Rock 2016 Nintendo N64 Kith190 Vized
BeatmapID:1421972
BeatmapSetID:669332

[Difficulty]
HPDrainRate:7
CircleSize:2
OverallDifficulty:4
ApproachRate:5
SliderMultiplier:1.40399990653992
SliderTickRate:1

[Events]
//Background and Video events
0,0,"Futsuu-bg.png",0,0
//Break Periods
//Storyboard Layer 0 (Background)
//Storyboard Layer 1 (Fail)
//Storyboard Layer 2 (Pass)
//Storyboard Layer 3 (Foreground)
//Storyboard Sound Samples

[TimingPoints]
1850,444.444444444444,4,1,0,100,1,0
16072,-100,4,1,0,100,0,1
30294,-100,4,1,0,100,0,0
51627,-100,4,1,0,100,0,1
64072,-100,4,1,0,100,0,0
99627,-100,4,1,0,100,0,1
112072,-100,4,1,0,100,0,0

[HitObjects]
256,192,1850,5,4,0:0:0:0:
256,192,3628,1,12,0:0:0:0:
256,192,5406,1,4,0:0:0:0:
256,192,6739,1,8,0:0:0:0:
256,192,7184,1,4,0:0:0:0:
256,192,8072,1,0,0:0:0:0:
256,192,8517,1,8,0:0:0:0:
256,192,8961,1,4,0:0:0:0:
256,192,9850,1,0,0:0:0:0:
256,192,10739,1,12,0:0:0:0:
256,192,11628,1,0,0:0:0:0:
256,192,12517,1,12,0:0:0:0:
256,192,13406,1,0,0:0:0:0:
256,192,13850,1,8,0:0:0:0:
256,192,14295,1,0,0:0:0:0:
256,192,14739,1,8,0:0:0:0:
256,192,15183,1,0,0:0:0:0:
256,192,15628,1,8,0:0:0:0:
256,192,16072,1,0,0:0:0:0:
256,192,16517,1,8,0:0:0:0:
256,192,17406,1,8,0:0:0:0:
256,192,17850,1,0,0:0:0:0:
256,192,18294,1,8,0:0:0:0:
256,192,18961,1,8,0:0:0:0:
256,192,19183,1,8,0:0:0:0:
256,192,19628,1,0,0:0:0:0:
256,192,20072,1,8,0:0:0:0:
256,192,20961,1,8,0:0:0:0:
256,192,21406,1,0,0:0:0:0:
256,192,21850,1,8,0:0:0:0:
256,192,22739,1,8,0:0:0:0:
256,192,22961,1,8,0:0:0:0:
256,192,23183,1,0,0:0:0:0:
256,192,23628,1,8,0:0:0:0:
256,192,24517,1,8,0:0:0:0:
256,192,24961,1,0,0:0:0:0:
256,192,25405,1,8,0:0:0:0:
256,192,26072,1,8,0:0:0:0:
256,192,26294,1,8,0:0:0:0:
256,192,26739,1,0,0:0:0:0:
256,192,27183,1,8,0:0:0:0:
256,192,28072,1,8,0:0:0:0:
256,192,28517,1,0,0:0:0:0:
256,192,28961,1,8,0:0:0:0:
256,192,29850,1,8,0:0:0:0:
256,192,30072,1,8,0:0:0:0:
256,192,30294,1,4,0:0:0:0:
256,192,30739,1,8,0:0:0:0:
256,192,31183,1,0,0:0:0:0:
256,192,31628,1,8,0:0:0:0:
256,192,32516,1,8,0:0:0:0:
256,192,33405,1,8,0:0:0:0:
256,192,33628,1,0,0:0:0:0:
256,192,33850,1,0,0:0:0:0:
256,192,34294,1,8,0:0:0:0:
256,192,35183,1,8,0:0:0:0:
256,192,35405,1,0,0:0:0:0:
256,192,35628,1,0,0:0:0:0:
256,192,36072,1,8,0:0:0:0:
256,192,36739,1,8,0:0:0:0:
256,192,36961,1,8,0:0:0:0:
256,192,37405,1,0,0:0:0:0:
256,192,37850,1,8,0:0:0:0:
256,192,38739,1,8,0:0:0:0:
256,192,39183,1,0,0:0:0:0:
256,192,39627,1,8,0:0:0:0:
256,192,40516,1,8,0:0:0:0:
256,192,40739,1,0,0:0:0:0:
256,192,40961,1,0,0:0:0:0:
256,192,41405,1,8,0:0:0:0:
256,192,42294,1,8,0:0:0:0:
256,192,42516,1,0,0:0:0:0:
256,192,42739,1,0,0:0:0:0:
256,192,43183,1,8,0:0:0:0:
256,192,43850,1,8,0:0:0:0:
256,192,44072,1,8,0:0:0:0:
256,192,44516,1,4,0:0:0:0:
256,192,45405,1,0,0:0:0:0:
256,192,46294,1,12,0:0:0:0:
256,192,47183,1,0,0:0:0:0:
256,192,48072,1,12,0:0:0:0:
256,192,48961,1,0,0:0:0:0:
256,192,49850,1,12,0:0:0:0:
256,192,50516,1,8,0:0:0:0:
256,192,50739,1,8,0:0:0:0:
256,192,51183,1,0,0:0:0:0:
256,192,51405,1,0,0:0:0:0:
256,192,51627,1,8,0:0:0:0:
256,192,52072,1,0,0:0:0:0:
256,192,52516,1,8,0:0:0:0:
256,192,52961,1,0,0:0:0:0:
256,192,53183,1,8,0:0:0:0:
256,192,53405,1,0,0:0:0:0:
256,192,54294,1,8,0:0:0:0:
256,192,54738,1,0,0:0:0:0:
256,192,54961,1,0,0:0:0:0:
256,192,55183,1,8,0:0:0:0:
256,192,55627,1,8,0:0:0:0:
256,192,56072,1,0,0:0:0:0:
256,192,56516,1,0,0:0:0:0:
256,192,56738,1,8,0:0:0:0:
256,192,56961,1,0,0:0:0:0:
256,192,57405,1,0,0:0:0:0:
256,192,57849,1,8,0:0:0:0:
256,192,58294,1,0,0:0:0:0:
256,192,58738,1,4,0:0:0:0:
256,192,59627,1,8,0:0:0:0:
256,192,60072,1,8,0:0:0:0:
256,192,60294,1,0,0:0:0:0:
256,192,60516,1,0,0:0:0:0:
256,192,61405,1,8,0:0:0:0:
256,192,61849,1,0,0:0:0:0:
256,192,62294,1,8,0:0:0:0:
256,192,62738,1,8,0:0:0:0:
256,192,62960,1,8,0:0:0:0:
256,192,63183,1,8,0:0:0:0:
256,192,63627,1,0,0:0:0:0:
256,192,64072,1,12,0:0:0:0:
256,192,64516,1,8,0:0:0:0:
256,192,65405,1,8,0:0:0:0:
256,192,65849,1,0,0:0:0:0:
256,192,66293,1,8,0:0:0:0:
256,192,66960,1,8,0:0:0:0:
256,192,67182,1,8,0:0:0:0:
256,192,67627,1,0,0:0:0:0:
256,192,68071,1,8,0:0:0:0:
256,192,68960,1,8,0:0:0:0:
256,192,69405,1,0,0:0:0:0:
256,192,69849,1,8,0:0:0:0:
256,192,70738,1,8,0:0:0:0:
256,192,70960,1,8,0:0:0:0:
256,192,71182,1,0,0:0:0:0:
256,192,71627,1,8,0:0:0:0:
256,192,72516,1,8,0:0:0:0:
256,192,72960,1,0,0:0:0:0:
256,192,73404,1,8,0:0:0:0:
256,192,74071,1,8,0:0:0:0:
256,192,74293,1,8,0:0:0:0:
256,192,74738,1,0,0:0:0:0:
256,192,75182,1,8,0:0:0:0:
256,192,76071,1,8,0:0:0:0:
256,192,76516,1,0,0:0:0:0:
256,192,76960,1,8,0:0:0:0:
256,192,77849,1,8,0:0:0:0:
256,192,78071,1,8,0:0:0:0:
256,192,78294,1,0,0:0:0:0:
256,192,78738,1,0,0:0:0:0:
256,192,79182,1,8,0:0:0:0:
256,192,79627,1,8,0:0:0:0:
256,192,80515,1,8,0:0:0:0:
256,192,81404,1,8,0:0:0:0:
256,192,81627,1,0,0:0:0:0:
256,192,81849,1,0,0:0:0:0:
256,192,82293,1,8,0:0:0:0:
256,192,83182,1,8,0:0:0:0:
256,192,83404,1,0,0:0:0:0:
256,192,83627,1,0,0:0:0:0:
256,192,84071,1,8,0:0:0:0:
256,192,84738,1,8,0:0:0:0:
256,192,84960,1,8,0:0:0:0:
256,192,85404,1,0,0:0:0:0:
256,192,85849,1,8,0:0:0:0:
256,192,86293,1,0,0:0:0:0:
256,192,86738,1,8,0:0:0:0:
256,192,86960,1,8,0:0:0:0:
256,192,87182,1,0,0:0:0:0:
256,192,87627,1,8,0:0:0:0:
256,192,88516,1,8,0:0:0:0:
256,192,88738,1,0,0:0:0:0:
256,192,88960,1,0,0:0:0:0:
256,192,89405,1,8,0:0:0:0:
256,192,90293,1,8,0:0:0:0:
256,192,90738,1,0,0:0:0:0:
256,192,91182,1,8,0:0:0:0:
256,192,91627,1,0,0:0:0:0:
256,192,92071,1,8,0:0:0:0:
256,192,92516,1,4,0:0:0:0:
256,192,93405,1,0,0:0:0:0:
256,192,94294,1,12,0:0:0:0:
256,192,95183,1,0,0:0:0:0:
256,192,96072,1,12,0:0:0:0:
256,192,96961,1,0,0:0:0:0:
256,192,97850,1,12,0:0:0:0:
256,192,98515,1,8,0:0:0:0:
256,192,98738,1,8,0:0:0:0:
256,192,99182,1,0,0:0:0:0:
256,192,99404,1,0,0:0:0:0:
256,192,99627,1,8,0:0:0:0:
256,192,100072,1,0,0:0:0:0:
256,192,100516,1,8,0:0:0:0:
256,192,100961,1,0,0:0:0:0:
256,192,101183,1,8,0:0:0:0:
256,192,101405,1,0,0:0:0:0:
256,192,102294,1,8,0:0:0:0:
256,192,102738,1,0,0:0:0:0:
256,192,102961,1,0,0:0:0:0:
256,192,103183,1,8,0:0:0:0:
256,192,103627,1,8,0:0:0:0:
256,192,104072,1,0,0:0:0:0:
256,192,104516,1,0,0:0:0:0:
256,192,104738,1,8,0:0:0:0:
256,192,104961,1,0,0:0:0:0:
256,192,105405,1,0,0:0:0:0:
256,192,105849,1,8,0:0:0:0:
256,192,106294,1,0,0:0:0:0:
256,192,106738,1,4,0:0:0:0:
256,192,107627,1,8,0:0:0:0:
256,192,108072,1,8,0:0:0:0:
256,192,108294,1,0,0:0:0:0:
256,192,108516,1,0,0:0:0:0:
256,192,109405,1,8,0:0:0:0:
256,192,109849,1,0,0:0:0:0:
256,192,110294,1,8,0:0:0:0:
256,192,110738,1,8,0:0:0:0:
256,192,110960,1,8,0:0:0:0:
256,192,111183,1,8,0:0:0:0:
256,192,111627,1,0,0:0:0:0:
256,192,112072,1,12,0:0:0:0:
256,192,112960,1,8,0:0:0:0:
256,192,113183,1,8,0:0:0:0:
256,192,113626,1,0,0:0:0:0:
256,192,113849,1,8,0:0:0:0:
256,192,114072,1,0,0:0:0:0:
256,192,114737,1,8,0:0:0:0:
256,192,114961,1,8,0:0:0:0:
256,192,115404,1,0,0:0:0:0:
256,192,115626,1,8,0:0:0:0:
256,192,115849,1,0,0:0:0:0:
256,192,116515,1,8,0:0:0:0:
256,192,116738,1,8,0:0:0:0:
256,192,117182,1,0,0:0:0:0:
256,192,117404,1,8,0:0:0:0:
260,196,117627,1,8,0:0:0:0:
256,192,118072,1,0,0:0:0:0:
256,192,118293,1,8,0:0:0:0:
260,196,118516,1,8,0:0:0:0:
256,192,118960,1,0,0:0:0:0:
256,192,119182,1,8,0:0:0:0:
256,188,119405,1,0,0:0:0:0:
256,192,120071,1,8,0:0:0:0:
256,192,120293,1,8,0:0:0:0:
256,192,120960,1,8,0:0:0:0:
256,192,121404,1,0,0:0:0:0:
256,192,121848,1,0,0:0:0:0:
256,192,122293,1,0,0:0:0:0:
256,192,122737,1,12,0:0:0:0:
256,192,124071,1,12,0:0:0:0:
256,192,124515,1,4,0:0:0:0:
256,192,125404,1,8,0:0:0:0:
256,192,125848,1,0,0:0:0:0:
256,192,126293,1,4,0:0:0:0:
256,192,127182,1,8,0:0:0:0:
256,192,128071,1,8,0:0:0:0:
256,192,128515,1,0,0:0:0:0:
256,192,128961,1,8,0:0:0:0:
256,192,129404,1,8,0:0:0:0:
256,192,129848,1,4,0:0:0:0:
256,192,130737,1,8,0:0:0:0:
256,192,131182,1,8,0:0:0:0:
256,192,131626,1,4,0:0:0:0:
256,192,132071,1,8,0:0:0:0:
256,192,132293,1,0,0:0:0:0:
256,192,132515,1,8,0:0:0:0:
256,192,133404,1,4,0:0:0:0:
256,192,133848,1,0,0:0:0:0:
256,192,134293,1,12,0:0:0:0:
256,192,134737,1,8,0:0:0:0:
256,192,135182,1,4,0:0:0:0:
256,192,135404,1,4,0:0:0:0:
256,192,136961,1,12,0:0:0:0:
