osu file format v14

[General]
AudioFilename: audio.mp3
AudioLeadIn: 0
PreviewTime: 49900
Countdown: 0
SampleSet: Normal
StackLeniency: 0.7
Mode: 1
LetterboxInBreaks: 0
WidescreenStoryboard: 1

[Editor]
Bookmarks: 538,5813,11087,13725,18999,24274,29384,34823,40098,45373,50648,55922,61197,66472,71747,74384,78340,82296
DistanceSpacing: 0.8
BeatDivisor: 4
GridSize: 32
TimelineZoom: 0.6

[Metadata]
Title:Haruka Mirai
TitleUnicode:ハルカミライ
Artist:NateWantsToBattle
ArtistUnicode:NateWantsToBattle
Creator:_HeLLFly_
Version:h3oCharles' Kantan
Source:ブラッククローバー
Tags:ron [r] -Maruko- h3oCharles anime op opening 1st first Black Clover english dub cover rock 感覚ピエロ kankaku piero nwtb tv size version male vocal vocalist
BeatmapID:3880695
BeatmapSetID:1884513

[Difficulty]
HPDrainRate:8
CircleSize:2
OverallDifficulty:3
ApproachRate:9
SliderMultiplier:1.4
SliderTickRate:1

[Events]
//Background and Video events
0,0,"bg.png",0,-100
Video,-590,"video.mp4"
//Break Periods
//Storyboard Layer 0 (Background)
//Storyboard Layer 1 (Fail)
//Storyboard Layer 2 (Pass)
//Storyboard Layer 3 (Foreground)
//Storyboard Layer 4 (Overlay)
//Storyboard Sound Samples

[TimingPoints]
-4755,329.670329670329,4,1,0,70,1,0
519,-100,4,1,0,80,0,0
11069,-100,4,1,0,40,0,0
13376,-100,4,1,0,70,0,0
13706,329.670329670329,4,1,0,70,1,0
13706,-100,4,1,0,70,0,0
29365,-100,4,1,0,80,0,0
32167,329.670329670329,4,1,0,70,1,0
32167,-100,4,1,0,70,0,0
37276,-100,4,1,0,80,0,0
40079,329.670329670329,4,1,0,80,1,0
40079,-100,4,1,0,80,0,0
50628,-100,4,1,0,90,0,1
60518,-100,4,1,0,90,0,0
61177,-100,4,1,0,90,0,1
71727,-100,4,1,0,90,0,0
73046,-100,4,1,0,80,0,0
74364,329.670329670329,4,1,0,90,1,1
74364,-100,4,1,0,90,0,1
82276,-100,4,1,0,40,0,0
84583,-100,4,1,0,80,0,0
85353,-100,4,1,0,75,0,0
85682,-100,4,1,0,70,0,0
86012,-100,4,1,0,65,0,0
86342,-100,4,1,0,60,0,0
86671,-100,4,1,0,55,0,0
87001,-100,4,1,0,50,0,0
87331,-100,4,1,0,45,0,0
87660,-100,4,1,0,40,0,0
87990,-100,4,1,0,35,0,0
88320,-100,4,1,0,30,0,0

[HitObjects]
146,165,519,5,4,1:0:0:0:
223,142,849,1,8,1:0:0:0:
143,162,1343,1,8,1:0:0:0:
143,162,1838,1,8,1:0:0:0:
161,122,3157,1,4,1:0:0:0:
144,180,3486,1,8,1:0:0:0:
144,180,3981,1,8,1:0:0:0:
144,180,4475,1,8,1:0:0:0:
164,122,5794,1,4,1:0:0:0:
210,171,6124,1,8,1:0:0:0:
210,171,6618,1,8,1:0:0:0:
210,171,7113,1,8,1:0:0:0:
180,115,8431,1,4,1:0:0:0:
193,178,8761,1,8,1:0:0:0:
139,103,9255,1,8,1:0:0:0:
171,78,9750,1,0,1:0:0:0:
146,137,10080,1,8,1:0:0:0:
167,150,10409,1,0,1:0:0:0:
185,153,11069,1,0,1:0:0:0:
161,185,13376,1,8,1:0:0:0:
161,185,13706,1,4,1:0:0:0:
126,78,14365,1,8,1:0:0:0:
126,78,14695,1,0,1:0:0:0:
173,144,15024,1,12,1:0:0:0:
161,88,15684,1,12,1:0:0:0:
161,88,16343,1,12,1:0:0:0:
217,162,17002,1,0,1:0:0:0:
217,162,17662,1,8,1:0:0:0:
144,107,17991,1,0,1:0:0:0:
217,162,18321,1,8,1:0:0:0:
144,107,18980,1,4,1:0:0:0:
173,129,19969,1,0,1:0:0:0:
121,140,20299,1,12,1:0:0:0:
121,140,20958,1,12,1:0:0:0:
192,147,21618,1,12,1:0:0:0:
233,156,22277,1,0,1:0:0:0:
233,156,22607,1,8,1:0:0:0:
151,68,23266,1,0,1:0:0:0:
151,68,24255,1,12,1:0:0:0:
282,195,24914,1,8,1:0:0:0:
282,195,25574,1,0,1:0:0:0:
172,153,26892,1,0,1:0:0:0:
172,153,27552,1,8,1:0:0:0:
172,153,28211,1,0,1:0:0:0:
147,124,29365,1,12,1:0:0:0:
251,155,30189,1,0,1:0:0:0:
165,89,30684,1,0,1:0:0:0:
165,89,31508,1,8,1:0:0:0:
165,89,31837,1,8,1:0:0:0:
165,89,32167,1,4,1:0:0:0:
176,119,32826,1,8,1:0:0:0:
176,119,33485,1,0,1:0:0:0:
176,119,34804,1,0,1:0:0:0:
176,119,35463,1,8,1:0:0:0:
176,119,36123,1,0,1:0:0:0:
100,92,37276,1,12,1:0:0:0:
366,130,38101,1,0,1:0:0:0:
161,106,38595,1,0,1:0:0:0:
161,106,39419,1,8,1:0:0:0:
160,48,39749,1,0,1:0:0:0:
160,48,40079,1,8,1:0:0:0:
182,138,40573,1,8,1:0:0:0:
182,138,41232,1,0,1:0:0:0:
134,93,41727,1,8,1:0:0:0:
135,82,42716,1,8,1:0:0:0:
181,90,43210,1,0,1:0:0:0:
181,90,43870,1,8,1:0:0:0:
181,90,44364,1,8,1:0:0:0:
200,143,45353,1,8,1:0:0:0:
121,111,45848,1,8,1:0:0:0:
121,111,46177,1,0,1:0:0:0:
126,183,46507,1,8,1:0:0:0:
179,119,47002,1,8,1:0:0:0:
172,69,47661,1,0,1:0:0:0:
216,158,47991,1,8,1:0:0:0:
132,150,48650,1,0,1:0:0:0:
132,150,49309,1,0,1:0:0:0:
132,150,50628,1,12,1:0:0:0:
21,284,50958,1,0,1:0:0:0:
80,199,51617,1,0,1:0:0:0:
167,178,51947,1,8,1:0:0:0:
167,178,52606,1,0,1:0:0:0:
167,178,53265,1,8,1:0:0:0:
140,117,53595,1,0,1:0:0:0:
210,142,53925,1,8,1:0:0:0:
210,142,54254,1,8,1:0:0:0:
135,121,55243,1,0,1:0:0:0:
135,121,55903,1,12,1:0:0:0:
106,258,56562,1,0,1:0:0:0:
103,140,56892,1,0,1:0:0:0:
189,167,57221,1,8,1:0:0:0:
103,140,57881,1,8,1:0:0:0:
140,186,58540,1,4,1:0:0:0:
140,186,59859,1,0,1:0:0:0:
140,186,60188,1,8,1:0:0:0:
138,78,60518,1,0,1:0:0:0:
165,147,61177,1,12,1:0:0:0:
222,157,61507,1,0,1:0:0:0:
132,247,62166,1,0,1:0:0:0:
95,171,62496,1,8,1:0:0:0:
177,158,63155,1,0,1:0:0:0:
177,158,63815,1,8,1:0:0:0:
177,158,64144,1,0,1:0:0:0:
177,158,64474,1,0,1:0:0:0:
177,158,64804,1,8,1:0:0:0:
140,88,65793,1,0,1:0:0:0:
140,88,66452,1,12,1:0:0:0:
66,246,67111,1,0,1:0:0:0:
101,287,67441,1,0,1:0:0:0:
161,147,67771,1,8,1:0:0:0:
188,214,68430,1,0,1:0:0:0:
114,130,69089,1,0,1:0:0:0:
175,98,69419,1,8,1:0:0:0:
175,98,69749,1,8,1:0:0:0:
99,138,70408,1,12,1:0:0:0:
166,127,71068,1,0,1:0:0:0:
166,127,71727,1,12,1:0:0:0:
178,125,73046,1,12,1:0:0:0:
123,120,73705,1,0,1:0:0:0:
123,120,74035,1,8,1:0:0:0:
178,125,74364,1,4,1:0:0:0:
183,169,75023,1,0,1:0:0:0:
177,192,75682,1,8,1:0:0:0:
177,192,76012,1,0,1:0:0:0:
177,192,76342,1,8,1:0:0:0:
146,131,77001,1,12,1:0:0:0:
146,131,77660,1,0,1:0:0:0:
146,131,78320,1,8,1:0:0:0:
171,69,78649,1,8,1:0:0:0:
171,69,78979,1,0,1:0:0:0:
123,189,79638,1,12,1:0:0:0:
199,154,80957,1,8,1:0:0:0:
77,196,81287,1,0,1:0:0:0:
199,154,81616,1,8,1:0:0:0:
95,150,81946,1,0,1:0:0:0:
176,193,84583,1,12,1:0:0:0:
256,192,84913,8,0,88539,1:0:0:0:
