osu file format v14

[General]
AudioFilename: audio.mp3
AudioLeadIn: 0
PreviewTime: 49900
Countdown: 0
SampleSet: Normal
StackLeniency: 0.7
Mode: 1
LetterboxInBreaks: 0
WidescreenStoryboard: 1

[Editor]
Bookmarks: 13725,18999,24274,32186,40098
DistanceSpacing: 0.8
BeatDivisor: 12
GridSize: 32
TimelineZoom: 2.4

[Metadata]
Title:Haruka Mirai
TitleUnicode:ハルカミライ
Artist:NateWantsToBattle
ArtistUnicode:NateWantsToBattle
Creator:_HeLLFly_
Version:Ron's Fate
Source:ブラッククローバー
Tags:ron [r] -Maruko- h3oCharles anime op opening 1st first Black Clover english dub cover rock 感覚ピエロ kankaku piero nwtb tv size version male vocal vocalist
BeatmapID:3890002
BeatmapSetID:1884513

[Difficulty]
HPDrainRate:6
CircleSize:2
OverallDifficulty:6.5
ApproachRate:9
SliderMultiplier:1.4
SliderTickRate:1

[Events]
//Background and Video events
0,0,"bg.png",0,-100
Video,-590,"video.mp4"
//Break Periods
//Storyboard Layer 0 (Background)
//Storyboard Layer 1 (Fail)
//Storyboard Layer 2 (Pass)
//Storyboard Layer 3 (Foreground)
//Storyboard Layer 4 (Overlay)
//Storyboard Sound Samples

[TimingPoints]
-4755,329.670329670329,4,1,0,70,1,0
-4755,-100,4,1,0,70,0,0
187,-111.111111111111,4,1,0,70,0,0
516,-89.29055,4,1,0,80,0,0
681,-90.09583,4,1,0,80,0,0
846,-90.91578,4,1,0,80,0,0
1011,-91.750786,4,1,0,80,0,0
1176,-92.601265,4,1,0,80,0,0
1340,-93.46236,4,1,0,80,0,0
1505,-94.34503,4,1,0,80,0,0
1670,-95.24452,4,1,0,80,0,0
1835,-96.16132,4,1,0,80,0,0
2000,-97.095955,4,1,0,80,0,0
2165,-98.048935,4,1,0,80,0,0
2329,-99.014854,4,1,0,80,0,0
2494,-100.006065,4,1,0,80,0,0
2659,-97.0873786407767,4,1,0,80,0,0
2824,-94.3396226415094,4,1,0,80,0,0
2989,-91.743119266055,4,1,0,80,0,0
3154,-89.29055,4,1,0,80,0,0
3318,-90.09583,4,1,0,80,0,0
3483,-90.91578,4,1,0,80,0,0
3648,-91.750786,4,1,0,80,0,0
3813,-92.601265,4,1,0,80,0,0
3978,-93.46236,4,1,0,80,0,0
4143,-94.34503,4,1,0,80,0,0
4307,-95.24452,4,1,0,80,0,0
4472,-96.16132,4,1,0,80,0,0
4637,-97.095955,4,1,0,80,0,0
4802,-98.048935,4,1,0,80,0,0
4967,-99.014854,4,1,0,80,0,0
5132,-100.006065,4,1,0,80,0,0
5296,-97.0873786407767,4,1,0,80,0,0
5461,-94.3396226415094,4,1,0,80,0,0
5626,-91.743119266055,4,1,0,80,0,0
5791,-89.29055,4,1,0,80,0,0
5956,-90.09583,4,1,0,80,0,0
6121,-90.91578,4,1,0,80,0,0
6285,-91.750786,4,1,0,80,0,0
6450,-92.601265,4,1,0,80,0,0
6615,-93.46236,4,1,0,80,0,0
6780,-94.34503,4,1,0,80,0,0
6945,-95.24452,4,1,0,80,0,0
7110,-96.16132,4,1,0,80,0,0
7274,-97.095955,4,1,0,80,0,0
7439,-98.048935,4,1,0,80,0,0
7604,-99.014854,4,1,0,80,0,0
7769,-100.006065,4,1,0,80,0,0
7934,-97.0873786407767,4,1,0,80,0,0
8099,-94.3396226415094,4,1,0,80,0,0
8263,-91.743119266055,4,1,0,80,0,0
8428,-89.28571,4,1,0,80,0,0
8593,-90.43288,4,1,0,80,0,0
8758,-91.6099,4,1,0,80,0,0
8923,-92.81796,4,1,0,80,0,0
9088,-94.05832,4,1,0,80,0,0
9252,-95.32444,4,1,0,80,0,0
9417,-96.63316,4,1,0,80,0,0
9582,-97.978325,4,1,0,80,0,0
9747,-99.36145,4,1,0,80,0,0
9829,-100.063446,4,1,0,80,0,0
9912,-100.784195,4,1,0,80,0,0
10077,-102.24827,4,1,0,80,0,0
10241,-103.74625,4,1,0,80,0,0
10324,-104.52121,4,1,0,80,0,0
10406,-105.29831,4,1,0,80,0,0
10489,-106.096725,4,1,0,80,0,0
10571,-106.897514,4,1,0,80,0,0
10654,-107.72047,4,1,0,80,0,0
10736,-108.54605,4,1,0,80,0,0
10818,-109.38437,4,1,0,80,0,0
10901,-110.24622,4,1,0,80,0,0
10983,-111.11112,4,1,0,80,0,0
11066,-111.111111111111,4,1,0,80,0,0
13373,-111.111111111111,4,1,0,70,0,0
13706,329.670329670329,4,1,0,70,1,0
13706,-100,4,1,0,70,0,0
23840,-101.69142,4,1,0,70,0,0
23922,-103.462746,4,1,0,70,0,0
24005,-105.2744,4,1,0,70,0,0
24087,-107.17392,4,1,0,70,0,0
24170,-109.11909,4,1,0,70,0,0
24252,-111.13616,4,1,0,70,0,0
29279,-100,4,1,0,70,0,0
29362,-100,4,1,0,80,0,0
31752,-101.68447,4,1,0,80,0,0
31834,-103.44827,4,1,0,80,0,0
31999,-107.14286,4,1,0,80,0,0
32167,329.670329670329,4,1,0,70,1,0
32167,-111.11112,4,1,0,70,0,0
37191,-100,4,1,0,70,0,0
37273,-100,4,1,0,80,0,0
40079,329.670329670329,4,1,0,80,1,0
40079,-100,4,1,0,80,0,0
48207,-98.36636,4,1,0,80,0,0
48427,-96.77814,4,1,0,80,0,0
48647,-95.240395,4,1,0,80,0,0
48867,-93.75074,4,1,0,80,0,0
49086,-92.30698,4,1,0,80,0,0
49306,-90.91327,4,1,0,80,0,0
49526,-89.55495,4,1,0,80,0,0
49746,-88.2366,4,1,0,80,0,0
49966,-86.95652,4,1,0,80,0,0
50130,-100,4,1,0,80,0,0
50213,-98.36719,4,1,0,80,0,0
50295,-96.78683,4,1,0,80,0,0
50378,-95.23809,4,1,0,80,0,0
50460,-93.75593,4,1,0,80,0,0
50543,-92.30194,4,1,0,80,0,0
50628,-90.90909,4,1,0,90,0,1
60185,-93.75593,4,1,0,90,0,1
60350,-96.767876,4,1,0,90,0,1
60433,-98.36719,4,1,0,90,0,1
60518,-100,4,1,0,90,0,0
60680,-97.560974,4,1,0,90,0,0
60845,-95.23809,4,1,0,90,0,0
60927,-94.12435,4,1,0,90,0,0
61010,-93.023254,4,1,0,90,0,0
61092,-91.96043,4,1,0,90,0,0
61177,-90.90909,4,1,0,90,0,1
70570,-93.024895,4,1,0,90,0,1
70735,-95.24152,4,1,0,90,0,1
70817,-96.3829,4,1,0,90,0,1
70900,-97.566376,4,1,0,90,0,1
70982,-98.76451,4,1,0,90,0,1
71065,-100.00758,4,1,0,90,0,1
71147,-101.2668,4,1,0,90,0,1
71229,-102.55813,4,1,0,90,0,1
71312,-103.899185,4,1,0,90,0,1
71394,-105.258965,4,1,0,90,0,1
71477,-106.672066,4,1,0,90,0,1
71559,-108.105896,4,1,0,90,0,1
71727,-111.11112,4,1,0,90,0,0
73372,-100.0000072,4,1,0,80,0,0
74364,329.670329670329,4,1,0,90,1,1
74364,-90.9090909090909,4,1,0,90,0,1
82276,-90.9090909090909,4,1,0,90,0,0
84498,-83.3333333333333,4,1,0,90,0,0
84580,-83.3333333333333,4,1,0,80,0,0
85350,-100,4,1,0,75,0,0
85679,-100,4,1,0,70,0,0
86009,-100,4,1,0,65,0,0
86339,-100,4,1,0,60,0,0
86668,-100,4,1,0,55,0,0
86998,-100,4,1,0,50,0,0
87328,-100,4,1,0,45,0,0
87657,-100,4,1,0,40,0,0
87987,-100,4,1,0,35,0,0
88317,-100,4,1,0,30,0,0

[HitObjects]
256,192,190,5,8,1:0:0:0:
256,192,519,1,4,1:0:0:0:
256,192,684,1,0,1:0:0:0:
256,192,849,1,8,1:0:0:0:
256,192,1014,1,0,1:0:0:0:
256,192,1179,1,0,1:0:0:0:
256,192,1343,1,8,1:0:0:0:
256,192,1508,1,0,1:0:0:0:
256,192,1673,1,0,1:0:0:0:
256,192,1838,1,8,1:0:0:0:
256,192,2003,1,0,1:0:0:0:
256,192,2168,1,0,1:0:0:0:
256,192,2332,1,8,1:0:0:0:
256,192,2497,1,0,1:0:0:0:
256,192,2662,1,12,1:0:0:0:
256,192,2827,1,12,1:0:0:0:
256,192,2992,1,12,1:0:0:0:
256,192,3157,1,0,1:0:0:0:
256,192,3321,1,8,1:0:0:0:
256,192,3486,1,8,1:0:0:0:
256,192,3651,1,0,1:0:0:0:
256,192,3816,1,8,1:0:0:0:
256,192,3981,1,8,1:0:0:0:
256,192,4146,1,0,1:0:0:0:
256,192,4310,1,8,1:0:0:0:
256,192,4475,1,8,1:0:0:0:
256,192,4640,1,0,1:0:0:0:
256,192,4805,1,8,1:0:0:0:
256,192,4970,1,8,1:0:0:0:
256,192,5135,1,0,1:0:0:0:
256,192,5299,1,12,1:0:0:0:
256,192,5464,1,12,1:0:0:0:
256,192,5629,1,12,1:0:0:0:
256,192,5794,1,0,1:0:0:0:
256,192,5959,1,0,1:0:0:0:
256,192,6124,1,8,1:0:0:0:
256,192,6288,1,0,1:0:0:0:
256,192,6453,1,0,1:0:0:0:
256,192,6618,1,8,1:0:0:0:
256,192,6783,1,0,1:0:0:0:
256,192,6948,1,0,1:0:0:0:
256,192,7113,1,8,1:0:0:0:
256,192,7277,1,0,1:0:0:0:
256,192,7442,1,0,1:0:0:0:
256,192,7607,1,8,1:0:0:0:
256,192,7772,1,0,1:0:0:0:
256,192,7937,1,12,1:0:0:0:
256,192,8102,1,12,1:0:0:0:
256,192,8266,1,12,1:0:0:0:
256,192,8431,1,0,1:0:0:0:
256,192,8596,1,8,1:0:0:0:
256,192,8761,1,8,1:0:0:0:
256,192,8926,1,0,1:0:0:0:
256,192,9091,1,8,1:0:0:0:
256,192,9255,1,8,1:0:0:0:
256,192,9420,1,0,1:0:0:0:
256,192,9585,1,8,1:0:0:0:
256,192,9750,1,8,1:0:0:0:
256,192,9832,1,8,1:0:0:0:
256,192,9915,1,0,1:0:0:0:
256,192,10080,1,8,1:0:0:0:
256,192,10244,1,8,1:0:0:0:
256,192,10327,1,8,1:0:0:0:
256,192,10409,1,0,1:0:0:0:
256,192,10492,1,0,1:0:0:0:
256,192,10574,1,8,1:0:0:0:
256,192,10657,1,0,1:0:0:0:
256,192,10739,1,8,1:0:0:0:
256,192,10821,1,8,1:0:0:0:
256,192,10904,1,8,1:0:0:0:
256,192,10986,1,8,1:0:0:0:
256,192,13376,5,8,1:0:0:0:
256,192,13706,1,4,1:0:0:0:
256,192,13870,1,8,1:0:0:0:
256,192,14035,1,8,1:0:0:0:
256,192,14118,1,0,1:0:0:0:
256,192,14200,1,8,1:0:0:0:
256,192,14282,1,8,1:0:0:0:
256,192,14365,1,0,1:0:0:0:
256,192,14530,1,0,1:0:0:0:
256,192,14695,1,8,1:0:0:0:
256,192,14777,1,0,1:0:0:0:
256,192,14859,1,8,1:0:0:0:
256,192,15024,1,4,1:0:0:0:
256,192,15189,1,8,1:0:0:0:
256,192,15354,1,0,1:0:0:0:
256,192,15436,1,0,1:0:0:0:
256,192,15519,1,8,1:0:0:0:
256,192,15684,1,4,1:0:0:0:
256,192,15848,1,0,1:0:0:0:
256,192,16013,1,8,1:0:0:0:
256,192,16343,1,4,1:0:0:0:
256,192,16508,1,8,1:0:0:0:
256,192,16673,1,0,1:0:0:0:
256,192,16755,1,0,1:0:0:0:
256,192,16837,1,8,1:0:0:0:
256,192,16920,1,8,1:0:0:0:
256,192,17002,1,0,1:0:0:0:
256,192,17167,1,0,1:0:0:0:
256,192,17332,1,8,1:0:0:0:
256,192,17497,1,8,1:0:0:0:
256,192,17579,1,8,1:0:0:0:
256,192,17662,1,0,1:0:0:0:
256,192,17744,1,0,1:0:0:0:
256,192,17826,1,8,1:0:0:0:
256,192,17991,1,8,1:0:0:0:
256,192,18074,1,0,1:0:0:0:
256,192,18156,1,8,1:0:0:0:
256,192,18321,1,0,1:0:0:0:
256,192,18486,1,0,1:0:0:0:
256,192,18651,1,8,1:0:0:0:
256,192,18980,1,4,1:0:0:0:
256,192,19145,1,8,1:0:0:0:
256,192,19310,1,8,1:0:0:0:
256,192,19392,1,0,1:0:0:0:
256,192,19475,1,8,1:0:0:0:
256,192,19557,1,8,1:0:0:0:
256,192,19640,1,0,1:0:0:0:
256,192,19804,1,0,1:0:0:0:
256,192,19969,1,8,1:0:0:0:
256,192,20052,1,0,1:0:0:0:
256,192,20134,1,8,1:0:0:0:
256,192,20299,1,4,1:0:0:0:
256,192,20464,1,8,1:0:0:0:
256,192,20629,1,0,1:0:0:0:
256,192,20711,1,0,1:0:0:0:
256,192,20793,1,8,1:0:0:0:
256,192,20958,1,4,1:0:0:0:
256,192,21123,1,0,1:0:0:0:
256,192,21288,1,8,1:0:0:0:
256,192,21618,1,12,1:0:0:0:
256,192,21782,1,0,1:0:0:0:
256,192,21947,1,0,1:0:0:0:
256,192,22030,1,0,1:0:0:0:
256,192,22112,1,8,1:0:0:0:
256,192,22277,1,0,1:0:0:0:
256,192,22442,1,8,1:0:0:0:
256,192,22524,1,0,1:0:0:0:
256,192,22607,1,8,1:0:0:0:
256,192,22689,1,8,1:0:0:0:
256,192,22771,1,0,1:0:0:0:
256,192,22936,1,0,1:0:0:0:
256,192,23101,1,8,1:0:0:0:
256,192,23266,1,8,1:0:0:0:
256,192,23348,1,0,1:0:0:0:
256,192,23513,1,0,1:0:0:0:
256,192,23596,1,8,1:0:0:0:
256,192,23760,1,8,1:0:0:0:
256,192,23843,1,8,1:0:0:0:
256,192,23925,1,0,1:0:0:0:
256,192,24008,1,0,1:0:0:0:
256,192,24090,1,0,1:0:0:0:
256,192,24173,1,0,1:0:0:0:
256,192,24255,1,12,1:0:0:0:
256,192,24585,1,0,1:0:0:0:
256,192,24914,1,8,1:0:0:0:
256,192,25244,1,0,1:0:0:0:
298,222,25409,1,0,1:0:0:0:
256,192,25574,1,8,1:0:0:0:
298,222,25738,1,0,1:0:0:0:
256,192,25903,1,8,1:0:0:0:
256,192,26068,1,8,1:0:0:0:
256,192,26233,1,0,1:0:0:0:
256,192,26398,1,0,1:0:0:0:
256,192,26563,1,8,1:0:0:0:
256,192,26727,1,8,1:0:0:0:
256,192,26892,1,0,1:0:0:0:
256,192,27222,1,8,1:0:0:0:
256,192,27552,1,0,1:0:0:0:
256,192,27881,1,8,1:0:0:0:
256,192,28046,1,0,1:0:0:0:
256,192,28211,1,8,1:0:0:0:
256,192,28376,1,0,1:0:0:0:
256,192,28541,1,8,1:0:0:0:
256,192,28705,1,0,1:0:0:0:
256,192,28870,1,8,1:0:0:0:
256,192,29035,1,0,1:0:0:0:
256,192,29365,1,12,1:0:0:0:
256,192,29695,1,0,1:0:0:0:
256,192,29859,1,8,1:0:0:0:
256,192,30024,1,8,1:0:0:0:
256,192,30107,1,8,1:0:0:0:
256,192,30189,1,0,1:0:0:0:
256,192,30354,1,0,1:0:0:0:
256,192,30519,1,8,1:0:0:0:
256,192,30684,1,4,1:0:0:0:
256,192,31013,1,8,1:0:0:0:
256,192,31096,1,8,1:0:0:0:
256,192,31178,1,8,1:0:0:0:
256,192,31343,1,4,1:0:0:0:
256,192,31508,1,8,1:0:0:0:
256,192,31673,1,8,1:0:0:0:
256,192,31755,1,8,1:0:0:0:
256,192,31837,1,0,1:0:0:0:
256,192,32002,1,0,1:0:0:0:
256,192,32167,1,12,1:0:0:0:
256,192,32496,1,0,1:0:0:0:
256,192,32826,1,8,1:0:0:0:
256,192,33156,1,0,1:0:0:0:
298,222,33320,1,0,1:0:0:0:
256,192,33485,1,8,1:0:0:0:
298,222,33650,1,0,1:0:0:0:
256,192,33815,1,8,1:0:0:0:
256,192,33980,1,8,1:0:0:0:
256,192,34145,1,0,1:0:0:0:
256,192,34309,1,8,1:0:0:0:
256,192,34474,1,0,1:0:0:0:
256,192,34804,1,12,1:0:0:0:
256,192,35134,1,0,1:0:0:0:
256,192,35463,1,8,1:0:0:0:
256,192,35793,1,8,1:0:0:0:
256,192,35958,1,0,1:0:0:0:
256,192,36040,1,0,1:0:0:0:
256,192,36123,1,8,1:0:0:0:
256,192,36287,1,0,1:0:0:0:
256,192,36452,1,8,1:0:0:0:
256,192,36535,1,8,1:0:0:0:
256,192,36617,1,0,1:0:0:0:
256,192,36699,1,0,1:0:0:0:
256,192,36782,1,8,1:0:0:0:
256,192,36947,1,0,1:0:0:0:
256,192,37276,1,12,1:0:0:0:
256,192,37606,1,0,1:0:0:0:
256,192,37771,1,8,1:0:0:0:
256,192,37936,1,8,1:0:0:0:
256,192,38018,1,8,1:0:0:0:
256,192,38101,1,0,1:0:0:0:
256,192,38265,1,0,1:0:0:0:
256,192,38430,1,8,1:0:0:0:
256,192,38595,1,4,1:0:0:0:
256,192,38925,1,8,1:0:0:0:
256,192,39007,1,8,1:0:0:0:
256,192,39090,1,8,1:0:0:0:
256,192,39254,1,4,1:0:0:0:
256,192,39419,1,8,1:0:0:0:
256,192,39584,1,0,1:0:0:0:
256,192,39666,1,0,1:0:0:0:
256,192,39749,1,8,1:0:0:0:
256,192,39914,1,8,1:0:0:0:
256,192,40079,1,4,1:0:0:0:
256,192,40243,1,8,1:0:0:0:
256,192,40408,1,8,1:0:0:0:
256,192,40573,1,4,1:0:0:0:
256,192,40738,1,8,1:0:0:0:
256,192,40903,1,4,1:0:0:0:
256,192,41068,1,8,1:0:0:0:
256,192,41232,1,4,1:0:0:0:
256,192,41562,1,8,1:0:0:0:
256,192,41644,1,8,1:0:0:0:
256,192,41727,1,8,1:0:0:0:
256,192,41892,1,0,1:0:0:0:
256,192,42057,1,8,1:0:0:0:
256,192,42221,1,0,1:0:0:0:
256,192,42386,1,8,1:0:0:0:
256,192,42469,1,0,1:0:0:0:
256,192,42551,1,8,1:0:0:0:
256,192,42633,1,8,1:0:0:0:
256,192,42716,1,4,1:0:0:0:
256,192,42881,1,8,1:0:0:0:
256,192,43046,1,8,1:0:0:0:
256,192,43210,1,4,1:0:0:0:
256,192,43375,1,8,1:0:0:0:
256,192,43540,1,4,1:0:0:0:
256,192,43705,1,8,1:0:0:0:
256,192,43870,1,4,1:0:0:0:
256,192,44199,1,0,1:0:0:0:
256,192,44282,1,0,1:0:0:0:
256,192,44364,1,8,1:0:0:0:
256,192,44529,1,0,1:0:0:0:
256,192,44694,1,8,1:0:0:0:
256,192,44776,1,0,1:0:0:0:
256,192,44859,1,8,1:0:0:0:
256,192,44941,1,8,1:0:0:0:
256,192,45024,1,0,1:0:0:0:
256,192,45106,1,0,1:0:0:0:
256,192,45188,1,8,1:0:0:0:
256,192,45353,1,4,1:0:0:0:
256,192,45518,1,8,1:0:0:0:
256,192,45683,1,8,1:0:0:0:
256,192,45848,1,4,1:0:0:0:
256,192,46013,1,8,1:0:0:0:
256,192,46177,1,4,1:0:0:0:
256,192,46342,1,8,1:0:0:0:
256,192,46507,1,4,1:0:0:0:
256,192,46837,1,8,1:0:0:0:
256,192,46919,1,8,1:0:0:0:
256,192,47002,1,8,1:0:0:0:
256,192,47166,1,0,1:0:0:0:
256,192,47331,1,8,1:0:0:0:
256,192,47496,1,0,1:0:0:0:
256,192,47661,1,0,1:0:0:0:
256,192,47743,1,8,1:0:0:0:
256,192,47826,1,0,1:0:0:0:
256,192,47908,1,0,1:0:0:0:
256,192,47991,1,12,1:0:0:0:
256,192,48210,1,0,1:0:0:0:
256,192,48430,1,0,1:0:0:0:
256,192,48650,1,12,1:0:0:0:
256,192,48870,1,0,1:0:0:0:
256,192,49089,1,0,1:0:0:0:
256,192,49309,1,12,1:0:0:0:
256,192,49529,1,12,1:0:0:0:
256,192,49749,1,4,1:0:0:0:
256,192,49969,1,12,1:0:0:0:
256,192,50133,1,0,1:0:0:0:
256,192,50216,1,0,1:0:0:0:
256,192,50298,1,8,1:0:0:0:
256,192,50381,1,8,1:0:0:0:
256,192,50463,1,8,1:0:0:0:
256,192,50546,1,8,1:0:0:0:
256,192,50628,1,4,1:0:0:0:
256,192,50958,1,8,1:0:0:0:
256,192,51122,1,0,1:0:0:0:
256,192,51287,1,0,1:0:0:0:
256,192,51370,1,8,1:0:0:0:
256,192,51452,1,0,1:0:0:0:
256,192,51535,1,0,1:0:0:0:
256,192,51617,1,8,1:0:0:0:
256,192,51782,1,0,1:0:0:0:
256,192,51947,1,12,1:0:0:0:
256,192,52111,1,0,1:0:0:0:
256,192,52276,1,8,1:0:0:0:
256,192,52359,1,0,1:0:0:0:
256,192,52441,1,0,1:0:0:0:
256,192,52606,1,12,1:0:0:0:
256,192,52771,1,0,1:0:0:0:
256,192,52853,1,0,1:0:0:0:
256,192,52936,1,8,1:0:0:0:
256,192,53100,1,0,1:0:0:0:
256,192,53265,1,12,1:0:0:0:
256,192,53595,1,8,1:0:0:0:
256,192,53760,1,0,1:0:0:0:
256,192,53925,1,0,1:0:0:0:
256,192,54007,1,8,1:0:0:0:
256,192,54089,1,0,1:0:0:0:
256,192,54172,1,0,1:0:0:0:
256,192,54254,1,8,1:0:0:0:
256,192,54419,1,0,1:0:0:0:
256,192,54584,1,8,1:0:0:0:
256,192,54666,1,8,1:0:0:0:
256,192,54749,1,0,1:0:0:0:
256,192,54831,1,0,1:0:0:0:
256,192,54914,1,8,1:0:0:0:
256,192,55078,1,8,1:0:0:0:
256,192,55161,1,8,1:0:0:0:
256,192,55243,1,0,1:0:0:0:
256,192,55408,1,0,1:0:0:0:
256,192,55573,1,8,1:0:0:0:
256,192,55655,1,0,1:0:0:0:
256,192,55738,1,8,1:0:0:0:
256,192,55903,1,4,1:0:0:0:
256,192,56232,1,8,1:0:0:0:
256,192,56397,1,0,1:0:0:0:
256,192,56562,1,0,1:0:0:0:
256,192,56644,1,8,1:0:0:0:
256,192,56727,1,0,1:0:0:0:
256,192,56809,1,0,1:0:0:0:
256,192,56892,1,8,1:0:0:0:
256,192,57057,1,8,1:0:0:0:
256,192,57221,1,4,1:0:0:0:
256,192,57386,1,8,1:0:0:0:
256,192,57551,1,8,1:0:0:0:
256,192,57633,1,0,1:0:0:0:
256,192,57716,1,0,1:0:0:0:
256,192,57881,1,12,1:0:0:0:
256,192,58046,1,0,1:0:0:0:
256,192,58128,1,0,1:0:0:0:
256,192,58210,1,8,1:0:0:0:
256,192,58375,1,8,1:0:0:0:
256,192,58540,1,4,1:0:0:0:
256,192,58705,1,8,1:0:0:0:
256,192,58787,1,8,1:0:0:0:
256,192,58870,1,0,1:0:0:0:
256,192,58952,1,0,1:0:0:0:
256,192,59035,1,8,1:0:0:0:
256,192,59199,1,4,1:0:0:0:
256,192,59364,1,8,1:0:0:0:
256,192,59447,1,0,1:0:0:0:
256,192,59529,1,8,1:0:0:0:
256,192,59694,1,4,1:0:0:0:
256,192,60024,1,0,1:0:0:0:
256,192,60188,1,12,1:0:0:0:
256,192,60353,1,0,1:0:0:0:
256,192,60436,1,0,1:0:0:0:
256,192,60518,1,8,1:0:0:0:
256,192,60683,1,0,1:0:0:0:
256,192,60848,1,8,1:0:0:0:
256,192,60930,1,8,1:0:0:0:
256,192,61013,1,8,1:0:0:0:
256,192,61095,1,8,1:0:0:0:
256,192,61177,1,4,1:0:0:0:
256,192,61507,1,8,1:0:0:0:
256,192,61672,1,0,1:0:0:0:
256,192,61837,1,0,1:0:0:0:
256,192,61919,1,8,1:0:0:0:
256,192,62002,1,0,1:0:0:0:
256,192,62084,1,0,1:0:0:0:
256,192,62166,1,8,1:0:0:0:
256,192,62331,1,0,1:0:0:0:
256,192,62496,1,12,1:0:0:0:
256,192,62661,1,0,1:0:0:0:
256,192,62826,1,8,1:0:0:0:
256,192,62908,1,0,1:0:0:0:
256,192,62991,1,0,1:0:0:0:
256,192,63155,1,12,1:0:0:0:
256,192,63320,1,0,1:0:0:0:
256,192,63403,1,0,1:0:0:0:
256,192,63485,1,8,1:0:0:0:
256,192,63650,1,0,1:0:0:0:
256,192,63815,1,12,1:0:0:0:
256,192,64144,1,8,1:0:0:0:
256,192,64309,1,0,1:0:0:0:
256,192,64474,1,0,1:0:0:0:
256,192,64557,1,8,1:0:0:0:
256,192,64639,1,0,1:0:0:0:
256,192,64721,1,0,1:0:0:0:
256,192,64804,1,8,1:0:0:0:
256,192,64969,1,0,1:0:0:0:
256,192,65133,1,8,1:0:0:0:
256,192,65216,1,8,1:0:0:0:
256,192,65298,1,0,1:0:0:0:
256,192,65381,1,0,1:0:0:0:
256,192,65463,1,8,1:0:0:0:
256,192,65628,1,8,1:0:0:0:
256,192,65710,1,8,1:0:0:0:
256,192,65793,1,0,1:0:0:0:
256,192,65958,1,0,1:0:0:0:
256,192,66122,1,8,1:0:0:0:
256,192,66205,1,0,1:0:0:0:
256,192,66287,1,8,1:0:0:0:
256,192,66452,1,4,1:0:0:0:
256,192,66782,1,8,1:0:0:0:
256,192,66947,1,8,1:0:0:0:
256,192,67029,1,8,1:0:0:0:
256,192,67111,1,0,1:0:0:0:
256,192,67194,1,8,1:0:0:0:
256,192,67276,1,0,1:0:0:0:
256,192,67441,1,8,1:0:0:0:
256,192,67606,1,8,1:0:0:0:
256,192,67771,1,4,1:0:0:0:
256,192,67936,1,8,1:0:0:0:
256,192,68100,1,8,1:0:0:0:
256,192,68183,1,0,1:0:0:0:
256,192,68265,1,0,1:0:0:0:
256,192,68430,1,12,1:0:0:0:
256,192,68595,1,0,1:0:0:0:
256,192,68677,1,0,1:0:0:0:
256,192,68760,1,8,1:0:0:0:
256,192,68925,1,8,1:0:0:0:
256,192,69089,1,0,1:0:0:0:
256,192,69254,1,8,1:0:0:0:
256,192,69419,1,8,1:0:0:0:
256,192,69502,1,0,1:0:0:0:
256,192,69584,1,8,1:0:0:0:
256,192,69666,1,8,1:0:0:0:
256,192,69749,1,0,1:0:0:0:
256,192,69914,1,0,1:0:0:0:
256,192,70078,1,8,1:0:0:0:
256,192,70161,1,8,1:0:0:0:
256,192,70243,1,0,1:0:0:0:
256,192,70408,1,8,1:0:0:0:
256,192,70573,1,0,1:0:0:0:
256,192,70738,1,8,1:0:0:0:
256,192,70820,1,0,1:0:0:0:
256,192,70903,1,8,1:0:0:0:
256,192,70985,1,8,1:0:0:0:
256,192,71068,1,0,1:0:0:0:
256,192,71150,1,0,1:0:0:0:
256,192,71232,1,0,1:0:0:0:
256,192,71315,1,0,1:0:0:0:
256,192,71397,1,8,1:0:0:0:
256,192,71480,1,8,1:0:0:0:
256,192,71562,1,0,1:0:0:0:
256,192,71727,1,12,1:0:0:0:
256,192,73046,1,12,1:0:0:0:
256,192,73375,1,0,1:0:0:0:
256,192,73458,1,0,1:0:0:0:
256,192,73540,1,8,1:0:0:0:
256,192,73622,1,8,1:0:0:0:
256,192,73705,1,8,1:0:0:0:
256,192,73870,1,0,1:0:0:0:
256,192,73952,1,0,1:0:0:0:
256,192,74035,1,8,1:0:0:0:
256,192,74364,1,4,1:0:0:0:
256,192,74528,1,8,1:0:0:0:
256,192,74693,1,8,1:0:0:0:
256,192,74858,1,0,1:0:0:0:
256,192,74940,1,0,1:0:0:0:
256,192,75023,1,8,1:0:0:0:
256,192,75188,1,8,1:0:0:0:
256,192,75353,1,8,1:0:0:0:
256,192,75435,1,0,1:0:0:0:
256,192,75517,1,0,1:0:0:0:
256,192,75600,1,0,1:0:0:0:
256,192,75682,1,8,1:0:0:0:
256,192,75847,1,8,1:0:0:0:
256,192,75929,1,0,1:0:0:0:
256,192,76012,1,8,1:0:0:0:
256,192,76177,1,0,1:0:0:0:
256,192,76342,1,8,1:0:0:0:
256,192,76424,1,8,1:0:0:0:
256,192,76506,1,0,1:0:0:0:
256,192,76589,1,0,1:0:0:0:
256,192,76671,1,8,1:0:0:0:
256,192,76836,1,0,1:0:0:0:
256,192,77001,1,12,1:0:0:0:
256,192,77166,1,8,1:0:0:0:
256,192,77248,1,8,1:0:0:0:
256,192,77331,1,0,1:0:0:0:
256,192,77495,1,8,1:0:0:0:
256,192,77660,1,0,1:0:0:0:
256,192,77743,1,8,1:0:0:0:
256,192,77825,1,0,1:0:0:0:
256,192,77907,1,0,1:0:0:0:
256,192,77990,1,8,1:0:0:0:
256,192,78155,1,0,1:0:0:0:
256,192,78320,1,8,1:0:0:0:
256,192,78402,1,0,1:0:0:0:
256,192,78484,1,8,1:0:0:0:
256,192,78567,1,8,1:0:0:0:
256,192,78649,1,0,1:0:0:0:
256,192,78814,1,0,1:0:0:0:
256,192,78979,1,12,1:0:0:0:
256,192,79144,1,0,1:0:0:0:
256,192,79309,1,12,1:0:0:0:
256,192,79638,1,4,1:0:0:0:
256,192,79803,1,8,1:0:0:0:
256,192,79885,1,8,1:0:0:0:
256,192,79968,1,0,1:0:0:0:
256,192,80133,1,0,1:0:0:0:
256,192,80298,1,8,1:0:0:0:
256,192,80380,1,8,1:0:0:0:
256,192,80462,1,0,1:0:0:0:
256,192,80545,1,0,1:0:0:0:
256,192,80627,1,8,1:0:0:0:
256,192,80792,1,0,1:0:0:0:
256,192,80957,1,8,1:0:0:0:
256,192,81122,1,0,1:0:0:0:
256,192,81204,1,0,1:0:0:0:
256,192,81287,1,8,1:0:0:0:
256,192,81369,1,8,1:0:0:0:
256,192,81451,1,0,1:0:0:0:
256,192,81616,1,8,1:0:0:0:
256,192,81781,1,0,1:0:0:0:
256,192,81863,1,0,1:0:0:0:
256,192,81946,1,8,1:0:0:0:
256,192,82111,1,8,1:0:0:0:
256,192,84583,5,12,1:0:0:0:
256,192,84748,1,12,1:0:0:0:
256,192,84913,8,0,88539,1:0:0:0:
