osu file format v14

[General]
AudioFilename: audio.mp3
AudioLeadIn: 0
PreviewTime: 49900
Countdown: 0
SampleSet: Normal
StackLeniency: 0.7
Mode: 1
LetterboxInBreaks: 0
WidescreenStoryboard: 0

[Editor]
Bookmarks: 29384
DistanceSpacing: 0.8
BeatDivisor: 4
GridSize: 32
TimelineZoom: 2.25

[Metadata]
Title:Haruka Mirai
TitleUnicode:ハルカミライ
Artist:NateWantsToBattle
ArtistUnicode:NateWantsToBattle
Creator:_HeLLFly_
Version:Muzukashii
Source:ブラッククローバー
Tags:ron [r] -Maruko- h3oCharles anime op opening 1st first Black Clover english dub cover rock 感覚ピエロ kankaku piero nwtb tv size version male vocal vocalist
BeatmapID:3880087
BeatmapSetID:1884513

[Difficulty]
HPDrainRate:6
CircleSize:2
OverallDifficulty:5
ApproachRate:9
SliderMultiplier:1.4
SliderTickRate:1

[Events]
//Background and Video events
0,0,"bg.png",0,-100
Video,-590,"video.mp4"
//Break Periods
//Storyboard Layer 0 (Background)
//Storyboard Layer 1 (Fail)
//Storyboard Layer 2 (Pass)
//Storyboard Layer 3 (Foreground)
//Storyboard Layer 4 (Overlay)
//Storyboard Sound Samples

[TimingPoints]
-4755,329.670329670329,4,1,0,70,1,0
519,-100,4,1,0,80,0,0
13376,-100,4,1,0,70,0,0
13706,329.670329670329,4,1,0,70,1,0
13706,-100,4,1,0,70,0,0
29365,-100,4,1,0,80,0,0
32167,329.670329670329,4,1,0,70,1,0
32167,-100,4,1,0,70,0,0
37276,-100,4,1,0,80,0,0
40079,329.670329670329,4,1,0,80,1,0
40079,-100,4,1,0,80,0,0
50628,-100,4,1,0,90,0,1
60518,-100,4,1,0,90,0,0
61177,-100,4,1,0,90,0,1
71727,-100,4,1,0,90,0,0
73046,-100,4,1,0,80,0,0
74364,329.670329670329,4,1,0,90,1,1
74364,-100,4,1,0,90,0,1
82276,-100,4,1,0,90,0,0
84583,-100,4,1,0,80,0,0
85353,-100,4,1,0,75,0,0
85682,-100,4,1,0,70,0,0
86012,-100,4,1,0,65,0,0
86342,-100,4,1,0,60,0,0
86671,-100,4,1,0,55,0,0
87001,-100,4,1,0,50,0,0
87331,-100,4,1,0,45,0,0
87660,-100,4,1,0,40,0,0
87990,-100,4,1,0,35,0,0
88320,-100,4,1,0,30,0,0

[HitObjects]
223,111,519,5,4,1:0:0:0:
269,95,849,1,8,1:0:0:0:
223,111,1014,1,0,1:0:0:0:
308,109,1179,1,0,1:0:0:0:
400,339,1343,1,8,1:0:0:0:
186,219,1673,1,0,1:0:0:0:
310,156,1838,1,8,1:0:0:0:
308,136,2168,1,0,1:0:0:0:
315,132,2332,1,8,1:0:0:0:
289,163,2662,1,8,1:0:0:0:
317,126,2827,1,8,1:0:0:0:
291,172,2992,1,8,1:0:0:0:
223,111,3157,1,4,1:0:0:0:
269,95,3486,1,8,1:0:0:0:
223,111,3651,1,0,1:0:0:0:
308,109,3816,1,8,1:0:0:0:
400,339,3981,1,8,1:0:0:0:
186,219,4310,1,0,1:0:0:0:
310,156,4475,1,8,1:0:0:0:
308,136,4805,1,0,1:0:0:0:
315,132,4970,1,8,1:0:0:0:
289,163,5299,1,0,1:0:0:0:
217,120,5794,1,12,1:0:0:0:
269,95,6124,1,8,1:0:0:0:
236,192,6288,1,0,1:0:0:0:
308,109,6453,1,0,1:0:0:0:
400,339,6618,1,8,1:0:0:0:
186,219,6948,1,0,1:0:0:0:
310,156,7113,1,8,1:0:0:0:
308,136,7442,1,0,1:0:0:0:
315,132,7607,1,8,1:0:0:0:
289,163,7937,1,8,1:0:0:0:
291,172,8102,1,8,1:0:0:0:
222,220,8266,1,8,1:0:0:0:
253,155,8431,1,4,1:0:0:0:
280,168,8761,1,8,1:0:0:0:
274,223,8926,1,0,1:0:0:0:
274,223,9091,1,0,1:0:0:0:
317,144,9255,1,8,1:0:0:0:
284,231,9585,1,0,1:0:0:0:
220,116,9750,1,0,1:0:0:0:
285,234,9832,1,0,1:0:0:0:
254,124,9915,1,0,1:0:0:0:
286,174,10080,1,8,1:0:0:0:
230,94,10244,1,8,1:0:0:0:
203,147,10409,1,0,1:0:0:0:
248,118,10574,1,0,1:0:0:0:
253,114,10739,1,8,1:0:0:0:
391,221,10821,1,8,1:0:0:0:
275,137,10904,1,8,1:0:0:0:
172,202,13376,5,0,1:0:0:0:
205,200,13706,1,12,1:0:0:0:
236,161,14035,1,0,1:0:0:0:
278,123,14200,1,8,1:0:0:0:
231,150,14530,1,0,1:0:0:0:
192,146,14695,1,8,1:0:0:0:
155,147,14859,1,0,1:0:0:0:
196,189,15024,1,12,1:0:0:0:
177,211,15354,1,0,1:0:0:0:
185,191,15684,1,12,1:0:0:0:
183,180,16013,1,0,1:0:0:0:
233,135,16343,1,12,1:0:0:0:
223,158,16508,1,0,1:0:0:0:
247,136,16673,1,8,1:0:0:0:
275,121,16837,1,8,1:0:0:0:
283,131,17167,1,0,1:0:0:0:
314,172,17332,1,8,1:0:0:0:
287,125,17497,1,0,1:0:0:0:
269,100,17662,1,8,1:0:0:0:
255,99,17991,1,0,1:0:0:0:
225,107,18321,1,0,1:0:0:0:
264,250,18486,1,0,1:0:0:0:
175,88,18651,1,8,1:0:0:0:
128,92,18980,1,12,1:0:0:0:
120,145,19310,1,0,1:0:0:0:
175,210,19475,1,8,1:0:0:0:
145,198,19804,1,0,1:0:0:0:
130,189,19969,1,8,1:0:0:0:
173,273,20134,1,0,1:0:0:0:
114,173,20299,1,12,1:0:0:0:
209,242,20629,1,0,1:0:0:0:
155,123,20958,1,12,1:0:0:0:
167,111,21288,1,0,1:0:0:0:
146,101,21618,1,12,1:0:0:0:
236,60,21782,1,0,1:0:0:0:
181,106,21947,1,8,1:0:0:0:
186,82,22112,1,8,1:0:0:0:
222,67,22442,1,0,1:0:0:0:
236,60,22607,1,8,1:0:0:0:
236,60,22689,1,8,1:0:0:0:
236,60,22771,1,8,1:0:0:0:
236,60,22936,1,0,1:0:0:0:
236,60,23101,1,8,1:0:0:0:
236,60,23266,1,0,1:0:0:0:
276,84,23431,1,8,1:0:0:0:
279,137,23513,1,8,1:0:0:0:
295,77,23596,1,8,1:0:0:0:
217,157,23760,1,8,0:0:0:0:
302,71,23925,1,0,1:0:0:0:
283,129,24090,1,8,1:0:0:0:
302,71,24255,1,4,1:0:0:0:
300,57,24585,1,0,1:0:0:0:
285,75,24914,1,8,1:0:0:0:
278,70,25244,1,0,1:0:0:0:
255,49,25574,1,0,1:0:0:0:
200,75,25738,1,0,1:0:0:0:
301,144,25903,1,8,1:0:0:0:
186,132,26068,1,0,1:0:0:0:
330,143,26398,1,8,1:0:0:0:
375,118,26563,1,0,1:0:0:0:
280,166,26727,1,0,1:0:0:0:
455,177,26892,1,8,1:0:0:0:
322,239,27222,1,0,1:0:0:0:
405,156,27552,1,8,1:0:0:0:
376,127,27881,1,0,1:0:0:0:
316,90,28046,1,0,1:0:0:0:
304,70,28211,1,8,1:0:0:0:
249,77,28541,1,8,1:0:0:0:
235,75,28705,1,0,1:0:0:0:
264,196,28870,1,8,1:0:0:0:
204,98,29035,1,8,1:0:0:0:
197,121,29365,1,12,1:0:0:0:
199,111,29695,1,0,1:0:0:0:
154,146,29859,1,8,1:0:0:0:
163,213,30024,1,0,1:0:0:0:
276,164,30107,1,0,1:0:0:0:
133,216,30189,1,0,1:0:0:0:
179,220,30519,1,0,1:0:0:0:
135,205,30684,1,12,1:0:0:0:
135,205,31013,1,0,1:0:0:0:
144,191,31178,1,8,1:0:0:0:
162,185,31343,1,0,1:0:0:0:
131,156,31425,1,0,1:0:0:0:
156,192,31508,1,0,1:0:0:0:
166,160,31837,1,8,1:0:0:0:
234,124,32167,1,4,1:0:0:0:
256,116,32496,1,0,1:0:0:0:
291,133,32826,1,8,1:0:0:0:
308,127,33156,1,0,1:0:0:0:
337,123,33485,1,0,1:0:0:0:
341,128,33650,1,0,1:0:0:0:
355,112,33815,1,8,1:0:0:0:
345,112,33980,1,0,1:0:0:0:
379,149,34309,1,0,1:0:0:0:
379,149,34474,1,8,1:0:0:0:
381,160,34804,1,12,1:0:0:0:
283,225,35134,1,0,1:0:0:0:
374,152,35463,1,8,1:0:0:0:
384,147,35793,1,0,1:0:0:0:
355,276,35958,1,8,1:0:0:0:
384,147,36040,1,8,1:0:0:0:
353,267,36123,1,8,1:0:0:0:
363,133,36452,1,0,1:0:0:0:
384,161,36617,1,0,1:0:0:0:
415,178,36782,1,8,1:0:0:0:
386,201,36947,1,8,1:0:0:0:
386,179,37276,1,12,1:0:0:0:
106,104,37606,1,0,1:0:0:0:
153,179,37771,1,8,1:0:0:0:
166,190,37936,1,8,1:0:0:0:
153,179,38101,1,0,1:0:0:0:
153,179,38430,1,0,1:0:0:0:
195,219,38595,1,12,1:0:0:0:
171,225,38925,1,0,1:0:0:0:
179,224,39090,1,0,1:0:0:0:
171,225,39254,1,8,1:0:0:0:
162,218,39419,1,0,1:0:0:0:
162,218,39749,1,8,1:0:0:0:
242,105,40079,1,4,1:0:0:0:
256,114,40243,1,4,1:0:0:0:
287,105,40573,1,4,1:0:0:0:
276,132,40903,1,4,1:0:0:0:
276,113,41232,1,12,1:0:0:0:
160,105,41562,1,8,1:0:0:0:
302,218,41644,1,8,1:0:0:0:
166,92,41727,1,8,1:0:0:0:
201,94,41892,1,0,1:0:0:0:
345,229,42057,1,8,1:0:0:0:
248,104,42221,1,0,1:0:0:0:
236,97,42304,1,0,1:0:0:0:
323,125,42386,1,0,1:0:0:0:
289,117,42551,1,8,1:0:0:0:
304,112,42716,1,4,1:0:0:0:
351,87,42881,1,4,1:0:0:0:
328,98,43210,1,4,1:0:0:0:
265,65,43540,1,4,1:0:0:0:
269,74,43870,1,12,1:0:0:0:
293,118,44199,1,0,1:0:0:0:
301,93,44364,1,8,1:0:0:0:
229,48,44529,1,8,1:0:0:0:
265,77,44694,1,0,1:0:0:0:
235,60,44859,1,0,1:0:0:0:
238,101,44941,1,0,1:0:0:0:
195,90,45024,1,0,1:0:0:0:
259,126,45353,1,4,1:0:0:0:
239,129,45518,1,4,1:0:0:0:
273,131,45848,1,4,1:0:0:0:
290,118,46177,1,4,1:0:0:0:
308,115,46507,1,12,1:0:0:0:
290,118,46837,1,8,1:0:0:0:
275,234,46919,1,8,1:0:0:0:
320,107,47002,1,8,1:0:0:0:
216,83,47166,1,0,1:0:0:0:
216,83,47331,1,8,1:0:0:0:
216,83,47496,1,8,1:0:0:0:
340,245,47661,1,0,1:0:0:0:
171,106,47991,1,12,1:0:0:0:
175,128,48210,1,8,1:0:0:0:
175,128,48430,1,8,1:0:0:0:
195,109,48650,1,0,1:0:0:0:
136,112,48870,1,0,1:0:0:0:
157,175,49089,1,0,1:0:0:0:
158,215,49309,1,8,1:0:0:0:
123,224,49529,1,0,1:0:0:0:
158,239,49749,1,0,1:0:0:0:
162,228,49969,1,8,1:0:0:0:
180,221,50298,1,0,1:0:0:0:
175,223,50381,1,0,1:0:0:0:
121,150,50463,1,0,1:0:0:0:
152,141,50628,1,12,1:0:0:0:
182,91,50958,1,8,1:0:0:0:
182,91,51287,1,0,1:0:0:0:
191,108,51452,1,0,1:0:0:0:
222,98,51617,1,8,1:0:0:0:
191,163,51782,1,8,1:0:0:0:
233,101,51947,1,4,1:0:0:0:
267,84,52276,1,0,1:0:0:0:
271,92,52606,1,8,1:0:0:0:
288,117,52771,1,8,1:0:0:0:
248,120,52853,1,8,1:0:0:0:
305,151,52936,1,8,1:0:0:0:
304,97,53100,1,0,1:0:0:0:
314,130,53265,1,12,1:0:0:0:
343,124,53595,1,8,1:0:0:0:
331,123,53925,1,8,1:0:0:0:
398,141,54254,1,0,1:0:0:0:
400,134,54584,1,8,1:0:0:0:
371,154,54749,1,0,1:0:0:0:
363,157,54914,1,8,1:0:0:0:
363,157,55078,1,0,1:0:0:0:
347,225,55161,1,0,1:0:0:0:
398,141,55243,1,0,1:0:0:0:
389,147,55573,1,8,1:0:0:0:
385,168,55738,1,0,1:0:0:0:
411,138,55903,1,12,1:0:0:0:
243,192,56232,1,0,1:0:0:0:
358,171,56562,1,0,1:0:0:0:
382,162,56892,1,8,1:0:0:0:
397,155,57057,1,0,1:0:0:0:
401,143,57221,1,12,1:0:0:0:
314,124,57551,1,8,1:0:0:0:
312,127,57881,1,8,1:0:0:0:
349,259,58046,1,0,1:0:0:0:
375,248,58210,1,8,1:0:0:0:
382,280,58540,1,12,1:0:0:0:
355,302,58705,1,0,1:0:0:0:
324,297,58870,1,8,1:0:0:0:
355,302,59035,1,8,1:0:0:0:
348,313,59199,1,0,1:0:0:0:
347,225,59282,1,0,1:0:0:0:
382,315,59364,1,0,1:0:0:0:
384,278,59529,1,0,1:0:0:0:
235,287,59694,1,8,1:0:0:0:
283,225,60024,1,0,1:0:0:0:
252,328,60188,1,8,1:0:0:0:
272,320,60353,1,8,1:0:0:0:
283,225,60436,1,8,1:0:0:0:
283,225,60518,1,8,1:0:0:0:
202,226,60683,1,8,1:0:0:0:
345,294,60848,1,0,1:0:0:0:
235,233,60930,1,0,1:0:0:0:
283,225,61013,1,0,1:0:0:0:
283,225,61177,1,12,1:0:0:0:
358,288,61507,1,8,1:0:0:0:
377,267,61837,1,0,1:0:0:0:
390,244,62002,1,0,1:0:0:0:
380,170,62166,1,8,1:0:0:0:
255,217,62331,1,0,1:0:0:0:
371,174,62496,1,12,1:0:0:0:
393,170,62826,1,0,1:0:0:0:
410,177,63155,1,8,1:0:0:0:
410,177,63320,1,8,1:0:0:0:
366,137,63403,1,8,1:0:0:0:
375,156,63485,1,8,1:0:0:0:
420,158,63650,1,0,1:0:0:0:
375,148,63815,1,12,1:0:0:0:
387,143,64144,1,0,1:0:0:0:
366,144,64474,1,8,1:0:0:0:
367,153,64804,1,0,1:0:0:0:
396,158,65133,1,8,1:0:0:0:
441,136,65298,1,8,1:0:0:0:
355,167,65463,1,0,1:0:0:0:
353,121,65628,1,8,1:0:0:0:
290,113,65793,1,0,1:0:0:0:
267,119,66122,1,8,1:0:0:0:
232,131,66287,1,0,1:0:0:0:
187,149,66452,1,12,1:0:0:0:
249,232,66782,1,0,1:0:0:0:
179,181,67111,1,8,1:0:0:0:
238,97,67441,1,0,1:0:0:0:
278,110,67606,1,0,1:0:0:0:
278,110,67771,1,12,1:0:0:0:
296,86,68100,1,8,1:0:0:0:
441,93,68430,1,8,1:0:0:0:
442,113,68595,1,0,1:0:0:0:
382,121,68760,1,0,1:0:0:0:
301,105,69089,1,8,1:0:0:0:
277,127,69254,1,0,1:0:0:0:
243,63,69419,1,8,1:0:0:0:
278,107,69584,1,8,1:0:0:0:
197,130,69749,1,0,1:0:0:0:
315,225,69831,1,0,1:0:0:0:
257,98,69914,1,0,1:0:0:0:
158,156,70078,1,8,1:0:0:0:
157,217,70408,1,0,1:0:0:0:
106,228,70573,1,8,1:0:0:0:
347,289,70655,1,8,1:0:0:0:
210,171,70738,1,8,1:0:0:0:
154,103,70903,1,0,1:0:0:0:
236,240,71068,1,0,1:0:0:0:
137,130,71232,1,8,1:0:0:0:
223,225,71397,1,8,1:0:0:0:
226,236,71480,1,8,1:0:0:0:
142,146,71562,1,8,1:0:0:0:
160,98,71727,1,4,1:0:0:0:
199,143,73046,1,4,1:0:0:0:
238,176,73540,1,0,1:0:0:0:
238,176,73622,1,0,1:0:0:0:
238,176,73705,1,0,1:0:0:0:
283,225,73870,1,8,1:0:0:0:
283,225,73952,1,8,1:0:0:0:
280,148,74035,1,8,1:0:0:0:
261,113,74364,1,12,1:0:0:0:
291,136,74528,1,0,1:0:0:0:
291,136,74611,1,0,1:0:0:0:
291,136,74693,1,0,1:0:0:0:
291,136,74858,1,0,1:0:0:0:
274,95,75023,1,8,1:0:0:0:
269,101,75353,1,8,1:0:0:0:
269,101,75517,1,0,1:0:0:0:
262,110,75682,1,8,1:0:0:0:
253,99,76012,1,0,1:0:0:0:
261,127,76342,1,8,1:0:0:0:
268,140,76506,1,0,1:0:0:0:
278,115,76836,1,0,1:0:0:0:
262,115,77001,1,12,1:0:0:0:
170,141,77166,1,0,1:0:0:0:
170,141,77248,1,0,1:0:0:0:
170,141,77331,1,0,1:0:0:0:
170,141,77495,1,0,1:0:0:0:
215,144,77660,1,8,1:0:0:0:
140,199,77990,1,8,1:0:0:0:
194,145,78155,1,8,1:0:0:0:
161,141,78320,1,0,1:0:0:0:
153,157,78649,1,8,1:0:0:0:
135,168,78979,1,8,1:0:0:0:
134,187,79309,1,0,1:0:0:0:
122,195,79473,1,0,1:0:0:0:
261,113,79638,1,12,1:0:0:0:
291,136,79803,1,0,1:0:0:0:
291,136,79885,1,0,1:0:0:0:
291,136,79968,1,0,1:0:0:0:
291,136,80133,1,0,1:0:0:0:
274,95,80298,1,8,1:0:0:0:
269,101,80627,1,0,1:0:0:0:
269,101,80792,1,8,1:0:0:0:
262,110,80957,1,0,1:0:0:0:
253,99,81287,1,8,1:0:0:0:
261,127,81616,1,0,1:0:0:0:
268,140,81781,1,8,1:0:0:0:
256,206,81946,1,8,1:0:0:0:
278,115,82111,1,0,1:0:0:0:
279,133,84583,5,4,1:0:0:0:
279,133,84748,1,12,1:0:0:0:
256,192,84913,8,0,88539,1:0:0:0:
