osu file format v14

[General]
AudioFilename: audio.mp3
AudioLeadIn: 0
PreviewTime: 49900
Countdown: 0
SampleSet: Normal
StackLeniency: 0.7
Mode: 1
LetterboxInBreaks: 0
WidescreenStoryboard: 1

[Editor]
Bookmarks: 29384
DistanceSpacing: 0.8
BeatDivisor: 4
GridSize: 32
TimelineZoom: 2.4

[Metadata]
Title:Haruka Mirai
TitleUnicode:ハルカミライ
Artist:NateWantsToBattle
ArtistUnicode:NateWantsToBattle
Creator:_HeLLFly_
Version:Maruko's Oni
Source:ブラッククローバー
Tags:ron [r] -Maruko- h3oCharles anime op opening 1st first Black Clover english dub cover rock 感覚ピエロ kankaku piero nwtb tv size version male vocal vocalist
BeatmapID:3880609
BeatmapSetID:1884513

[Difficulty]
HPDrainRate:5.5
CircleSize:2
OverallDifficulty:6
ApproachRate:9
SliderMultiplier:1.4
SliderTickRate:1

[Events]
//Background and Video events
0,0,"bg.png",0,-100
Video,-590,"video.mp4"
//Break Periods
//Storyboard Layer 0 (Background)
//Storyboard Layer 1 (Fail)
//Storyboard Layer 2 (Pass)
//Storyboard Layer 3 (Foreground)
//Storyboard Layer 4 (Overlay)
//Storyboard Sound Samples

[TimingPoints]
-4755,329.670329670329,4,1,0,70,1,0
516,-90.9090909090909,4,1,0,80,0,0
13373,-90.9090909090909,4,1,0,70,0,0
13706,329.670329670329,4,1,0,70,1,0
13706,-100,4,1,0,70,0,0
24170,-111.111111111111,4,1,0,70,0,0
29279,-100,4,1,0,70,0,0
29362,-100,4,1,0,80,0,0
32082,-111.111111111111,4,1,0,80,0,0
32167,329.670329670329,4,1,0,70,1,0
32167,-111.111111111111,4,1,0,70,0,0
37191,-100,4,1,0,70,0,0
37273,-100,4,1,0,80,0,0
40079,329.670329670329,4,1,0,80,1,0
40079,-100,4,1,0,80,0,0
50543,-83.3333333333333,4,1,0,80,0,0
50628,-90.9090909090909,4,1,0,90,0,1
60518,-90.9090909090909,4,1,0,90,0,0
61177,-90.9090909090909,4,1,0,90,0,1
71727,-90.9090909090909,4,1,0,90,0,0
71806,-100,4,1,0,90,0,0
73043,-100,4,1,0,80,0,0
74279,-90.9090909090909,4,1,0,80,0,0
74364,329.670329670329,4,1,0,90,1,1
74364,-90.9090909090909,4,1,0,90,0,1
82276,-90.9090909090909,4,1,0,40,0,0
84580,-90.9090909090909,4,1,0,80,0,0
85350,-100,4,1,0,75,0,0
85679,-100,4,1,0,70,0,0
86009,-100,4,1,0,65,0,0
86339,-100,4,1,0,60,0,0
86668,-100,4,1,0,55,0,0
86998,-100,4,1,0,50,0,0
87328,-100,4,1,0,45,0,0
87657,-100,4,1,0,40,0,0
87987,-100,4,1,0,35,0,0
88317,-100,4,1,0,30,0,0

[HitObjects]
256,192,519,5,4,1:0:0:0:
256,192,849,1,8,1:0:0:0:
256,192,1014,1,0,1:0:0:0:
256,192,1179,1,0,1:0:0:0:
256,192,1343,1,8,1:0:0:0:
256,192,1673,1,0,1:0:0:0:
256,192,1838,1,8,1:0:0:0:
256,192,2003,1,0,1:0:0:0:
256,192,2168,1,0,1:0:0:0:
256,192,2332,1,8,1:0:0:0:
256,192,2662,1,12,1:0:0:0:
256,192,2827,1,12,1:0:0:0:
256,192,2992,1,12,1:0:0:0:
256,192,3157,1,0,1:0:0:0:
256,192,3486,1,8,1:0:0:0:
256,192,3651,1,0,1:0:0:0:
256,192,3816,1,0,1:0:0:0:
256,192,3981,1,8,1:0:0:0:
256,192,4310,1,0,1:0:0:0:
256,192,4475,1,8,1:0:0:0:
256,192,4640,1,0,1:0:0:0:
256,192,4805,1,0,1:0:0:0:
256,192,4970,1,8,1:0:0:0:
256,192,5299,1,12,1:0:0:0:
256,192,5464,1,12,1:0:0:0:
256,192,5629,1,12,1:0:0:0:
256,192,5794,1,0,1:0:0:0:
256,192,6124,1,8,1:0:0:0:
256,192,6288,1,0,1:0:0:0:
256,192,6453,1,0,1:0:0:0:
256,192,6618,1,8,1:0:0:0:
256,192,6948,1,0,1:0:0:0:
256,192,7113,1,8,1:0:0:0:
256,192,7277,1,0,1:0:0:0:
256,192,7442,1,0,1:0:0:0:
256,192,7607,1,8,1:0:0:0:
256,192,7937,1,12,1:0:0:0:
256,192,8102,1,12,1:0:0:0:
256,192,8266,1,12,1:0:0:0:
256,192,8431,1,0,1:0:0:0:
256,192,8761,1,8,1:0:0:0:
256,192,8926,1,0,1:0:0:0:
256,192,9091,1,0,1:0:0:0:
256,192,9255,1,8,1:0:0:0:
256,192,9585,1,0,1:0:0:0:
256,192,9750,1,8,1:0:0:0:
256,192,9832,1,8,1:0:0:0:
256,192,9915,1,0,1:0:0:0:
256,192,10080,1,8,1:0:0:0:
256,192,10244,1,8,1:0:0:0:
256,192,10327,1,8,1:0:0:0:
256,192,10409,1,8,1:0:0:0:
256,192,10574,1,0,1:0:0:0:
256,192,10657,1,0,1:0:0:0:
256,192,10739,1,8,1:0:0:0:
256,192,10821,1,8,1:0:0:0:
256,192,10904,1,8,1:0:0:0:
256,192,13376,5,8,1:0:0:0:
256,192,13706,1,4,1:0:0:0:
256,192,14035,1,8,1:0:0:0:
256,192,14200,1,0,1:0:0:0:
256,192,14365,1,0,1:0:0:0:
256,192,14447,1,8,1:0:0:0:
256,192,14530,1,0,1:0:0:0:
256,192,14695,1,8,1:0:0:0:
256,192,14859,1,8,1:0:0:0:
256,192,15024,1,4,1:0:0:0:
256,192,15354,1,8,1:0:0:0:
256,192,15519,1,0,1:0:0:0:
256,192,15684,1,8,1:0:0:0:
256,192,15848,1,8,1:0:0:0:
256,192,16013,1,8,1:0:0:0:
256,192,16343,1,4,1:0:0:0:
256,192,16673,1,0,1:0:0:0:
256,192,16837,1,0,1:0:0:0:
256,192,17002,1,8,1:0:0:0:
256,192,17085,1,0,1:0:0:0:
256,192,17167,1,8,1:0:0:0:
256,192,17332,1,0,1:0:0:0:
256,192,17497,1,0,1:0:0:0:
256,192,17662,1,8,1:0:0:0:
256,192,17991,1,8,1:0:0:0:
256,192,18156,1,0,0:0:0:0:
256,192,18321,1,0,1:0:0:0:
256,192,18486,1,0,1:0:0:0:
256,192,18651,1,8,1:0:0:0:
256,192,18733,1,8,1:0:0:0:
256,192,18815,1,0,1:0:0:0:
256,192,18980,1,12,1:0:0:0:
256,192,19310,1,8,1:0:0:0:
256,192,19475,1,0,1:0:0:0:
256,192,19640,1,0,1:0:0:0:
256,192,19722,1,0,1:0:0:0:
256,192,19804,1,8,1:0:0:0:
256,192,19969,1,0,1:0:0:0:
256,192,20134,1,8,1:0:0:0:
256,192,20299,1,4,1:0:0:0:
256,192,20629,1,8,1:0:0:0:
256,192,20793,1,0,1:0:0:0:
256,192,20958,1,8,1:0:0:0:
256,192,21123,1,8,1:0:0:0:
256,192,21288,1,0,1:0:0:0:
256,192,21618,1,4,1:0:0:0:
256,192,21947,1,8,1:0:0:0:
256,192,22112,1,0,0:0:0:0:
256,192,22277,1,0,1:0:0:0:
256,192,22442,1,8,1:0:0:0:
256,192,22607,1,8,1:0:0:0:
256,192,22689,1,8,1:0:0:0:
256,192,22771,1,0,1:0:0:0:
256,192,22936,1,0,1:0:0:0:
256,192,23101,1,0,1:0:0:0:
256,192,23266,1,8,1:0:0:0:
256,192,23431,1,0,1:0:0:0:
256,192,23513,1,8,1:0:0:0:
256,192,23596,1,8,1:0:0:0:
256,192,23760,1,0,1:0:0:0:
256,192,23843,1,0,1:0:0:0:
256,192,23925,1,0,1:0:0:0:
256,192,24008,1,0,1:0:0:0:
256,192,24090,1,8,1:0:0:0:
256,192,24255,1,4,1:0:0:0:
256,192,24585,1,8,1:0:0:0:
256,192,24914,1,0,1:0:0:0:
256,192,25244,1,8,1:0:0:0:
298,222,25409,1,8,1:0:0:0:
256,192,25574,1,0,1:0:0:0:
298,222,25738,1,0,1:0:0:0:
256,192,25903,1,8,1:0:0:0:
256,192,26068,1,0,1:0:0:0:
256,192,26398,1,0,1:0:0:0:
256,192,26563,1,8,1:0:0:0:
256,192,26727,1,8,1:0:0:0:
256,192,26892,1,0,1:0:0:0:
256,192,27222,1,8,1:0:0:0:
256,192,27552,1,0,1:0:0:0:
256,192,27881,1,8,1:0:0:0:
256,192,28046,1,0,1:0:0:0:
256,192,28211,1,8,1:0:0:0:
256,192,28541,1,0,1:0:0:0:
256,192,28705,1,0,1:0:0:0:
256,192,28870,1,8,1:0:0:0:
256,192,29035,1,0,1:0:0:0:
256,192,29365,1,4,1:0:0:0:
256,192,29695,1,0,1:0:0:0:
256,192,29859,1,8,1:0:0:0:
256,192,30189,1,0,1:0:0:0:
256,192,30354,1,0,1:0:0:0:
256,192,30436,1,0,1:0:0:0:
256,192,30519,1,8,1:0:0:0:
256,192,30684,1,0,1:0:0:0:
256,192,31013,1,0,1:0:0:0:
256,192,31178,1,8,1:0:0:0:
256,192,31260,1,8,1:0:0:0:
256,192,31343,1,0,1:0:0:0:
256,192,31508,1,0,1:0:0:0:
256,192,31673,1,0,1:0:0:0:
256,192,31755,1,0,1:0:0:0:
256,192,31837,1,8,1:0:0:0:
256,192,32167,1,12,1:0:0:0:
256,192,32496,1,0,1:0:0:0:
256,192,32826,1,8,1:0:0:0:
256,192,33156,1,0,1:0:0:0:
256,192,33320,1,0,1:0:0:0:
256,192,33485,1,8,1:0:0:0:
256,192,33650,1,0,1:0:0:0:
256,192,33815,1,0,1:0:0:0:
256,192,33980,1,8,1:0:0:0:
256,192,34309,1,0,1:0:0:0:
256,192,34639,1,8,1:0:0:0:
256,192,34804,1,8,1:0:0:0:
256,192,35134,1,0,1:0:0:0:
256,192,35463,1,8,1:0:0:0:
256,192,35793,1,0,1:0:0:0:
256,192,35958,1,0,1:0:0:0:
256,192,36040,1,0,1:0:0:0:
256,192,36123,1,8,1:0:0:0:
256,192,36452,1,0,1:0:0:0:
256,192,36617,1,0,1:0:0:0:
256,192,36782,1,8,1:0:0:0:
256,192,36947,1,0,1:0:0:0:
256,192,37276,1,12,1:0:0:0:
256,192,37606,1,0,1:0:0:0:
256,192,37771,1,8,1:0:0:0:
256,192,38101,1,0,1:0:0:0:
256,192,38265,1,0,1:0:0:0:
256,192,38348,1,0,1:0:0:0:
256,192,38430,1,8,1:0:0:0:
256,192,38595,1,0,1:0:0:0:
256,192,38925,1,0,1:0:0:0:
256,192,39090,1,8,1:0:0:0:
256,192,39254,1,0,1:0:0:0:
256,192,39419,1,0,1:0:0:0:
256,192,39584,1,8,1:0:0:0:
256,192,39666,1,0,1:0:0:0:
256,192,39749,1,8,1:0:0:0:
256,192,40079,1,4,1:0:0:0:
256,192,40243,1,0,1:0:0:0:
256,192,40408,1,8,1:0:0:0:
256,192,40573,1,4,1:0:0:0:
256,192,40903,1,4,1:0:0:0:
256,192,41068,1,8,1:0:0:0:
256,192,41232,1,4,1:0:0:0:
256,192,41562,1,0,1:0:0:0:
256,192,41644,1,0,1:0:0:0:
256,192,41727,1,8,1:0:0:0:
256,192,41892,1,0,1:0:0:0:
256,192,42057,1,8,1:0:0:0:
256,192,42221,1,0,1:0:0:0:
256,192,42386,1,0,1:0:0:0:
256,192,42551,1,8,1:0:0:0:
256,192,42716,1,4,1:0:0:0:
256,192,42881,1,0,1:0:0:0:
256,192,43046,1,8,1:0:0:0:
256,192,43210,1,4,1:0:0:0:
256,192,43540,1,4,1:0:0:0:
256,192,43705,1,8,1:0:0:0:
256,192,43870,1,4,1:0:0:0:
256,192,44199,1,0,1:0:0:0:
256,192,44282,1,0,1:0:0:0:
256,192,44364,1,8,1:0:0:0:
256,192,44529,1,0,1:0:0:0:
256,192,44694,1,0,1:0:0:0:
256,192,44859,1,8,1:0:0:0:
256,192,44941,5,8,1:0:0:0:
256,192,45024,1,0,1:0:0:0:
256,192,45106,1,0,1:0:0:0:
256,192,45188,1,8,1:0:0:0:
256,192,45353,1,4,1:0:0:0:
256,192,45518,1,0,1:0:0:0:
256,192,45683,1,8,1:0:0:0:
256,192,45848,1,4,1:0:0:0:
256,192,46177,1,4,1:0:0:0:
256,192,46342,1,8,1:0:0:0:
256,192,46507,1,4,1:0:0:0:
256,192,46837,1,0,1:0:0:0:
256,192,46919,1,0,1:0:0:0:
256,192,47002,1,8,1:0:0:0:
256,192,47166,1,0,1:0:0:0:
256,192,47331,1,8,1:0:0:0:
256,192,47496,1,0,1:0:0:0:
256,192,47661,1,0,1:0:0:0:
256,192,47826,1,8,1:0:0:0:
256,192,47908,1,0,1:0:0:0:
256,192,47991,1,8,1:0:0:0:
256,192,48210,1,0,1:0:0:0:
256,192,48430,1,0,1:0:0:0:
256,192,48650,1,8,1:0:0:0:
256,192,48870,1,0,1:0:0:0:
256,192,49089,1,0,1:0:0:0:
256,192,49309,1,8,1:0:0:0:
256,192,49529,1,0,1:0:0:0:
256,192,49749,1,0,1:0:0:0:
256,192,49969,1,8,1:0:0:0:
256,192,50298,1,8,1:0:0:0:
256,192,50381,1,8,1:0:0:0:
256,192,50463,1,8,1:0:0:0:
256,192,50628,1,4,1:0:0:0:
256,192,50958,1,8,1:0:0:0:
256,192,51122,1,0,1:0:0:0:
256,192,51287,1,0,1:0:0:0:
256,192,51452,1,0,1:0:0:0:
256,192,51617,1,8,1:0:0:0:
256,192,51699,1,0,1:0:0:0:
256,192,51782,1,0,1:0:0:0:
256,192,51947,1,12,1:0:0:0:
256,192,52276,1,0,1:0:0:0:
256,192,52441,1,0,1:0:0:0:
256,192,52606,1,8,1:0:0:0:
256,192,52771,1,0,1:0:0:0:
256,192,52853,1,0,1:0:0:0:
256,192,52936,1,8,1:0:0:0:
256,192,53100,1,0,1:0:0:0:
256,192,53265,1,12,1:0:0:0:
256,192,53595,1,8,1:0:0:0:
256,192,53760,1,0,1:0:0:0:
256,192,53925,1,8,1:0:0:0:
256,192,54007,1,0,1:0:0:0:
256,192,54089,1,0,1:0:0:0:
256,192,54254,1,8,1:0:0:0:
256,192,54419,1,0,1:0:0:0:
256,192,54502,1,0,1:0:0:0:
256,192,54584,1,8,1:0:0:0:
256,192,54749,1,0,1:0:0:0:
256,192,54914,1,8,1:0:0:0:
256,192,55243,1,0,1:0:0:0:
256,192,55408,1,0,1:0:0:0:
256,192,55491,1,0,1:0:0:0:
256,192,55573,1,8,1:0:0:0:
256,192,55738,1,8,1:0:0:0:
256,192,55903,1,4,1:0:0:0:
256,192,56232,1,8,1:0:0:0:
256,192,56397,1,0,1:0:0:0:
256,192,56562,1,8,1:0:0:0:
256,192,56644,1,0,1:0:0:0:
256,192,56727,1,8,1:0:0:0:
256,192,56892,1,0,1:0:0:0:
256,192,57057,1,0,1:0:0:0:
256,192,57221,1,12,1:0:0:0:
256,192,57551,1,8,1:0:0:0:
256,192,57716,1,0,1:0:0:0:
256,192,57881,1,8,1:0:0:0:
256,192,57963,1,0,1:0:0:0:
256,192,58046,1,0,1:0:0:0:
256,192,58210,1,8,1:0:0:0:
256,192,58375,1,0,1:0:0:0:
256,192,58540,1,12,1:0:0:0:
256,192,58870,1,8,1:0:0:0:
256,192,59035,1,0,1:0:0:0:
256,192,59199,1,0,1:0:0:0:
256,192,59282,1,8,1:0:0:0:
256,192,59364,1,0,1:0:0:0:
256,192,59529,1,8,1:0:0:0:
256,192,59694,1,0,1:0:0:0:
256,192,60024,1,0,1:0:0:0:
256,192,60188,1,12,1:0:0:0:
256,192,60518,1,8,1:0:0:0:
256,192,60683,1,0,1:0:0:0:
256,192,60765,1,0,1:0:0:0:
256,192,60848,1,8,1:0:0:0:
256,192,60930,1,0,0:0:0:0:
256,192,61013,1,8,1:0:0:0:
256,192,61177,1,4,1:0:0:0:
256,192,61507,1,8,1:0:0:0:
256,192,61672,1,0,1:0:0:0:
256,192,61754,1,0,1:0:0:0:
256,192,61837,1,8,1:0:0:0:
256,192,62002,1,0,1:0:0:0:
256,192,62166,1,8,1:0:0:0:
256,192,62249,1,0,1:0:0:0:
256,192,62331,1,0,1:0:0:0:
256,192,62496,1,12,1:0:0:0:
256,192,62826,1,0,1:0:0:0:
256,192,62991,1,0,1:0:0:0:
256,192,63155,1,8,1:0:0:0:
256,192,63320,1,0,1:0:0:0:
256,192,63403,1,0,1:0:0:0:
256,192,63485,1,8,1:0:0:0:
256,192,63650,1,0,1:0:0:0:
256,192,63815,1,12,1:0:0:0:
256,192,64144,1,8,1:0:0:0:
256,192,64309,1,0,1:0:0:0:
256,192,64474,1,8,1:0:0:0:
256,192,64557,1,0,1:0:0:0:
256,192,64639,1,0,1:0:0:0:
256,192,64804,1,8,1:0:0:0:
256,192,64969,1,0,1:0:0:0:
256,192,65051,1,0,1:0:0:0:
256,192,65133,1,8,1:0:0:0:
256,192,65298,1,0,1:0:0:0:
256,192,65463,1,8,1:0:0:0:
256,192,65793,1,0,1:0:0:0:
256,192,65958,1,0,1:0:0:0:
256,192,66040,1,0,1:0:0:0:
256,192,66122,1,8,1:0:0:0:
256,192,66287,1,8,1:0:0:0:
256,192,66452,1,4,1:0:0:0:
256,192,66782,1,8,1:0:0:0:
256,192,66947,1,0,1:0:0:0:
256,192,67111,1,0,1:0:0:0:
256,192,67194,1,0,1:0:0:0:
256,192,67276,1,8,1:0:0:0:
256,192,67441,1,0,1:0:0:0:
256,192,67606,1,0,1:0:0:0:
256,192,67771,1,12,1:0:0:0:
256,192,68100,1,8,1:0:0:0:
256,192,68265,1,0,1:0:0:0:
256,192,68430,1,8,1:0:0:0:
256,192,68513,1,0,1:0:0:0:
256,192,68595,1,0,1:0:0:0:
256,192,68760,1,8,1:0:0:0:
256,192,68925,1,0,1:0:0:0:
256,192,69089,1,8,1:0:0:0:
256,192,69419,1,8,1:0:0:0:
256,192,69584,1,0,1:0:0:0:
256,192,69749,1,0,1:0:0:0:
256,192,69831,1,8,1:0:0:0:
256,192,69914,1,0,1:0:0:0:
256,192,70078,1,8,1:0:0:0:
256,192,70243,1,0,0:0:0:0:
256,192,70408,1,8,1:0:0:0:
256,192,70738,1,0,1:0:0:0:
256,192,70903,1,8,1:0:0:0:
256,192,70985,1,8,1:0:0:0:
256,192,71068,1,0,1:0:0:0:
256,192,71232,1,8,1:0:0:0:
256,192,71397,1,0,1:0:0:0:
256,192,71480,1,0,1:0:0:0:
256,192,71562,1,0,1:0:0:0:
256,192,71727,1,12,1:0:0:0:
256,192,73046,1,12,1:0:0:0:
256,192,73375,1,0,1:0:0:0:
256,192,73540,1,8,1:0:0:0:
256,192,73622,1,8,1:0:0:0:
256,192,73705,1,8,1:0:0:0:
256,192,73870,1,0,1:0:0:0:
256,192,73952,1,0,1:0:0:0:
256,192,74035,1,8,1:0:0:0:
256,192,74364,1,4,1:0:0:0:
256,192,74528,1,8,1:0:0:0:
256,192,74693,1,0,1:0:0:0:
256,192,74858,1,8,1:0:0:0:
256,192,74940,1,8,1:0:0:0:
256,192,75023,1,0,1:0:0:0:
256,192,75188,1,0,1:0:0:0:
256,192,75353,1,8,1:0:0:0:
256,192,75517,1,0,1:0:0:0:
256,192,75682,1,8,1:0:0:0:
256,192,75847,1,0,1:0:0:0:
256,192,75929,1,0,1:0:0:0:
256,192,76012,1,8,1:0:0:0:
256,192,76177,1,0,1:0:0:0:
256,192,76342,1,8,1:0:0:0:
256,192,76506,1,0,1:0:0:0:
256,192,76589,1,0,1:0:0:0:
256,192,76671,1,8,1:0:0:0:
256,192,77001,1,4,1:0:0:0:
256,192,77166,1,8,1:0:0:0:
256,192,77248,1,0,1:0:0:0:
256,192,77331,1,0,1:0:0:0:
256,192,77495,1,8,1:0:0:0:
256,192,77660,1,0,1:0:0:0:
256,192,77825,1,0,1:0:0:0:
256,192,77907,1,0,1:0:0:0:
256,192,77990,1,8,1:0:0:0:
256,192,78155,1,0,1:0:0:0:
256,192,78320,1,8,1:0:0:0:
256,192,78484,1,8,1:0:0:0:
256,192,78567,1,0,1:0:0:0:
256,192,78649,1,8,1:0:0:0:
256,192,78814,1,0,1:0:0:0:
256,192,78979,1,8,1:0:0:0:
256,192,79144,1,0,0:0:0:0:
256,192,79309,1,8,1:0:0:0:
256,192,79638,1,12,1:0:0:0:
256,192,79803,1,0,1:0:0:0:
256,192,79885,1,0,1:0:0:0:
256,192,79968,1,8,1:0:0:0:
256,192,80133,1,8,1:0:0:0:
256,192,80298,1,0,1:0:0:0:
256,192,80462,1,0,1:0:0:0:
256,192,80545,1,8,1:0:0:0:
256,192,80627,1,8,1:0:0:0:
256,192,80792,1,0,1:0:0:0:
256,192,80957,1,8,1:0:0:0:
256,192,81122,1,0,1:0:0:0:
256,192,81204,1,0,1:0:0:0:
256,192,81287,1,8,1:0:0:0:
256,192,81451,1,0,1:0:0:0:
256,192,81616,1,8,1:0:0:0:
256,192,81781,1,0,1:0:0:0:
256,192,81946,1,8,1:0:0:0:
256,192,82111,1,8,1:0:0:0:
256,192,84583,5,12,1:0:0:0:
256,192,84748,1,4,1:0:0:0:
256,192,84913,12,0,88539,1:0:0:0:
