osu file format v14

[General]
AudioFilename: audio.mp3
AudioLeadIn: 0
PreviewTime: 49900
Countdown: 0
SampleSet: Normal
StackLeniency: 0.7
Mode: 1
LetterboxInBreaks: 0
WidescreenStoryboard: 1

[Editor]
Bookmarks: 29384
DistanceSpacing: 0.8
BeatDivisor: 12
GridSize: 32
TimelineZoom: 2.4

[Metadata]
Title:Haruka Mirai
TitleUnicode:ハルカミライ
Artist:NateWantsToBattle
ArtistUnicode:NateWantsToBattle
Creator:_HeLLFly_
Version:Futsuu
Source:ブラッククローバー
Tags:ron [r] -Maruko- h3oCharles anime op opening 1st first Black Clover english dub cover rock 感覚ピエロ kankaku piero nwtb tv size version male vocal vocalist
BeatmapID:3880608
BeatmapSetID:1884513

[Difficulty]
HPDrainRate:7
CircleSize:2
OverallDifficulty:4
ApproachRate:9
SliderMultiplier:1.4
SliderTickRate:1

[Events]
//Background and Video events
0,0,"bg.png",0,-100
Video,-590,"video.mp4"
//Break Periods
//Storyboard Layer 0 (Background)
//Storyboard Layer 1 (Fail)
//Storyboard Layer 2 (Pass)
//Storyboard Layer 3 (Foreground)
//Storyboard Layer 4 (Overlay)
//Storyboard Sound Samples

[TimingPoints]
-4755,329.670329670329,4,1,0,70,1,0
519,-100,4,1,0,80,0,0
13376,-100,4,1,0,70,0,0
13706,329.670329670329,4,1,0,70,1,0
13706,-100,4,1,0,70,0,0
29367,-100,4,1,0,80,0,0
32167,329.670329670329,4,1,0,70,1,0
32167,-100,4,1,0,70,0,0
37277,-100,4,1,0,80,0,0
40079,329.670329670329,4,1,0,80,1,0
40079,-100,4,1,0,80,0,0
50628,-100,4,1,0,90,0,1
60518,-100,4,1,0,90,0,0
61177,-100,4,1,0,90,0,1
71727,-100,4,1,0,90,0,0
73047,-100,4,1,0,80,0,0
74364,329.670329670329,4,1,0,90,1,1
74365,-100,4,1,0,90,0,1
82276,-100,4,1,0,90,0,0
84585,-100,4,1,0,80,0,0
85354,-100,4,1,0,75,0,0
85684,-100,4,1,0,70,0,0
86014,-100,4,1,0,65,0,0
86343,-100,4,1,0,60,0,0
86673,-100,4,1,0,55,0,0
87003,-100,4,1,0,50,0,0
87332,-100,4,1,0,45,0,0
87662,-100,4,1,0,40,0,0
87992,-100,4,1,0,35,0,0
88321,-100,4,1,0,30,0,0

[HitObjects]
256,192,519,5,4,1:0:0:0:
256,192,849,1,8,1:0:0:0:
256,192,1343,1,8,1:0:0:0:
256,192,1838,1,8,1:0:0:0:
256,192,2332,1,8,1:0:0:0:
256,192,2662,1,0,1:0:0:0:
256,192,2827,1,0,1:0:0:0:
256,192,2992,1,8,1:0:0:0:
256,192,3157,1,4,1:0:0:0:
256,192,3486,1,8,1:0:0:0:
256,192,3981,1,0,1:0:0:0:
256,192,4475,1,8,1:0:0:0:
256,192,4970,1,0,1:0:0:0:
241,197,5794,1,4,1:0:0:0:
256,192,6124,1,8,1:0:0:0:
256,192,6618,1,8,1:0:0:0:
256,192,7113,1,8,1:0:0:0:
256,192,7607,1,8,1:0:0:0:
256,192,7937,1,8,1:0:0:0:
256,192,8102,1,0,1:0:0:0:
256,192,8266,1,0,1:0:0:0:
256,192,8431,1,12,1:0:0:0:
256,192,8761,1,8,1:0:0:0:
256,192,9255,1,8,1:0:0:0:
256,192,9750,1,8,1:0:0:0:
256,192,9915,1,0,1:0:0:0:
256,192,10080,1,8,1:0:0:0:
256,192,10409,1,8,1:0:0:0:
247,195,10574,1,8,1:0:0:0:
247,195,10739,1,0,1:0:0:0:
258,207,10904,1,0,1:0:0:0:
251,197,13376,1,0,1:0:0:0:
256,192,13706,1,12,1:0:0:0:
256,192,14035,1,0,1:0:0:0:
256,192,14200,1,8,1:0:0:0:
256,192,14530,1,8,1:0:0:0:
256,192,14695,1,0,1:0:0:0:
261,182,14859,1,0,1:0:0:0:
256,192,15024,1,12,1:0:0:0:
256,192,15684,1,4,1:0:0:0:
256,192,16343,1,12,1:0:0:0:
256,192,16673,1,0,1:0:0:0:
256,192,16837,1,8,1:0:0:0:
256,192,17167,1,0,1:0:0:0:
256,192,17332,1,8,1:0:0:0:
256,192,17497,1,0,1:0:0:0:
256,192,17662,1,8,1:0:0:0:
250,196,17991,1,0,1:0:0:0:
256,192,18321,1,8,1:0:0:0:
256,192,18486,1,0,1:0:0:0:
256,192,18651,1,8,1:0:0:0:
256,192,18980,1,12,1:0:0:0:
256,192,19310,1,8,1:0:0:0:
256,192,19475,1,0,1:0:0:0:
256,192,19804,1,0,1:0:0:0:
256,192,19969,1,8,1:0:0:0:
256,192,20134,1,8,1:0:0:0:
256,192,20299,1,4,1:0:0:0:
256,192,20958,1,4,1:0:0:0:
256,192,21618,1,12,1:0:0:0:
256,192,21947,1,8,1:0:0:0:
256,192,22112,1,8,1:0:0:0:
256,192,22442,1,0,1:0:0:0:
256,192,22607,1,8,1:0:0:0:
256,192,22771,1,0,1:0:0:0:
256,192,22936,1,0,1:0:0:0:
259,199,23266,1,0,1:0:0:0:
259,199,23431,1,0,1:0:0:0:
256,192,23596,1,8,1:0:0:0:
256,192,23925,1,8,1:0:0:0:
243,204,24090,1,8,1:0:0:0:
256,192,24255,1,4,1:0:0:0:
256,192,24914,1,8,1:0:0:0:
256,192,25409,1,0,1:0:0:0:
256,192,25574,1,8,1:0:0:0:
256,192,25903,1,8,1:0:0:0:
256,192,26068,1,0,1:0:0:0:
256,192,26563,1,0,1:0:0:0:
256,192,26892,1,8,1:0:0:0:
256,192,27552,1,8,1:0:0:0:
256,192,28046,1,0,1:0:0:0:
256,192,28211,1,8,1:0:0:0:
256,192,28541,1,0,1:0:0:0:
256,192,28870,1,8,1:0:0:0:
256,192,29035,1,0,1:0:0:0:
256,192,29365,1,12,1:0:0:0:
256,192,29859,1,8,1:0:0:0:
256,192,30189,1,8,1:0:0:0:
256,192,30519,1,0,1:0:0:0:
256,192,30684,1,12,1:0:0:0:
256,192,31013,1,0,1:0:0:0:
256,192,31178,1,0,1:0:0:0:
256,192,31343,1,8,1:0:0:0:
256,192,31508,1,8,1:0:0:0:
256,192,31837,1,8,1:0:0:0:
256,192,32167,1,4,1:0:0:0:
256,192,32826,1,8,1:0:0:0:
256,192,33320,1,8,1:0:0:0:
256,192,33485,1,0,1:0:0:0:
256,192,33815,1,0,1:0:0:0:
256,192,33980,1,8,1:0:0:0:
256,192,34309,1,0,1:0:0:0:
256,192,34804,1,8,1:0:0:0:
256,192,35463,1,8,1:0:0:0:
256,192,35958,1,0,1:0:0:0:
256,192,36123,1,8,1:0:0:0:
256,192,36452,1,0,1:0:0:0:
256,192,36782,1,8,1:0:0:0:
256,192,36947,1,8,1:0:0:0:
256,192,37276,1,12,1:0:0:0:
256,192,37771,1,8,1:0:0:0:
256,192,38101,1,8,1:0:0:0:
256,192,38430,1,0,1:0:0:0:
256,192,38595,1,12,1:0:0:0:
256,192,38925,1,8,1:0:0:0:
256,192,39090,1,0,1:0:0:0:
252,202,39254,1,8,1:0:0:0:
256,192,39419,1,8,1:0:0:0:
225,202,39749,1,0,1:0:0:0:
249,189,39914,1,0,1:0:0:0:
256,192,40079,1,12,1:0:0:0:
256,192,40573,1,4,1:0:0:0:
256,192,40903,1,4,1:0:0:0:
256,192,41232,1,12,1:0:0:0:
256,192,41727,1,0,1:0:0:0:
256,192,41892,1,8,1:0:0:0:
256,192,42057,1,0,1:0:0:0:
256,192,42716,1,12,1:0:0:0:
256,192,43210,1,4,1:0:0:0:
256,192,43540,1,4,1:0:0:0:
256,192,43870,1,12,1:0:0:0:
256,192,44364,1,8,1:0:0:0:
256,192,44529,1,0,1:0:0:0:
256,192,44694,1,8,1:0:0:0:
256,192,45353,1,12,1:0:0:0:
256,192,45848,1,4,1:0:0:0:
256,192,46177,1,4,1:0:0:0:
256,192,46507,1,12,1:0:0:0:
256,192,47002,1,8,1:0:0:0:
256,192,47166,1,0,1:0:0:0:
256,192,47331,1,8,1:0:0:0:
256,192,47496,1,8,1:0:0:0:
256,192,47661,1,0,1:0:0:0:
256,192,47991,1,12,1:0:0:0:
256,192,48650,1,8,1:0:0:0:
256,224,49309,1,0,1:0:0:0:
256,192,49969,1,8,1:0:0:0:
240,185,50298,1,0,1:0:0:0:
240,185,50463,1,0,1:0:0:0:
256,192,50628,1,12,1:0:0:0:
256,192,50958,1,8,1:0:0:0:
240,201,51287,1,0,1:0:0:0:
256,192,51452,1,0,1:0:0:0:
256,192,51617,1,8,1:0:0:0:
256,192,51947,1,12,1:0:0:0:
256,192,52606,1,8,1:0:0:0:
256,192,52936,1,8,1:0:0:0:
256,192,53100,1,0,1:0:0:0:
256,192,53265,1,12,1:0:0:0:
256,192,53595,1,8,1:0:0:0:
256,192,53925,1,0,1:0:0:0:
256,192,54089,1,8,1:0:0:0:
256,192,54254,1,8,1:0:0:0:
256,192,54584,1,0,1:0:0:0:
256,192,55078,1,0,1:0:0:0:
251,187,55243,1,8,1:0:0:0:
256,192,55573,1,8,1:0:0:0:
256,192,55738,1,0,1:0:0:0:
256,192,55903,1,12,1:0:0:0:
256,192,56562,1,0,1:0:0:0:
256,192,56727,1,0,1:0:0:0:
256,192,56892,1,8,1:0:0:0:
256,192,57221,1,12,1:0:0:0:
246,165,57551,1,0,1:0:0:0:
256,192,57881,1,12,1:0:0:0:
218,167,58210,1,0,1:0:0:0:
256,192,58540,1,12,1:0:0:0:
256,192,59199,1,8,1:0:0:0:
256,192,59529,1,8,1:0:0:0:
256,192,59694,1,0,1:0:0:0:
256,192,60024,1,0,1:0:0:0:
256,192,60188,1,8,1:0:0:0:
256,192,60518,1,8,1:0:0:0:
256,192,61177,1,12,1:0:0:0:
256,192,61507,1,8,1:0:0:0:
240,201,61837,1,0,1:0:0:0:
256,192,62002,1,0,1:0:0:0:
256,192,62166,1,8,1:0:0:0:
256,192,62496,1,4,1:0:0:0:
256,192,63155,1,8,1:0:0:0:
256,192,63485,1,8,1:0:0:0:
256,192,63650,1,8,1:0:0:0:
256,192,63815,1,4,1:0:0:0:
256,192,64144,1,8,1:0:0:0:
256,192,64474,1,0,1:0:0:0:
256,192,64639,1,8,1:0:0:0:
256,192,64804,1,8,1:0:0:0:
256,192,65133,1,0,1:0:0:0:
256,192,65628,1,8,1:0:0:0:
251,187,65793,1,0,1:0:0:0:
256,192,66122,1,0,1:0:0:0:
256,192,66287,1,0,1:0:0:0:
256,192,66452,1,12,1:0:0:0:
256,192,67111,1,8,1:0:0:0:
256,192,67276,1,0,1:0:0:0:
256,192,67441,1,8,1:0:0:0:
256,192,67771,1,12,1:0:0:0:
246,165,68100,1,0,1:0:0:0:
256,192,68430,1,12,1:0:0:0:
218,167,68760,1,8,1:0:0:0:
256,192,69089,1,0,1:0:0:0:
256,192,69749,1,8,1:0:0:0:
256,192,70078,1,0,1:0:0:0:
244,214,70408,1,8,1:0:0:0:
256,192,70573,1,8,1:0:0:0:
256,192,70738,1,0,1:0:0:0:
256,192,71068,1,0,1:0:0:0:
249,223,71397,1,8,1:0:0:0:
247,224,71727,1,12,1:0:0:0:
256,192,73046,1,12,1:0:0:0:
256,192,73540,1,0,1:0:0:0:
256,192,73705,1,8,1:0:0:0:
256,192,74035,1,0,1:0:0:0:
256,192,74364,1,12,1:0:0:0:
256,192,74693,1,0,1:0:0:0:
256,192,75023,1,0,1:0:0:0:
256,192,75188,1,8,1:0:0:0:
256,192,75353,1,8,1:0:0:0:
256,192,75517,1,0,1:0:0:0:
256,192,75682,1,8,1:0:0:0:
256,192,76012,1,8,1:0:0:0:
256,192,76342,1,0,1:0:0:0:
256,192,76506,1,8,1:0:0:0:
256,192,77001,1,8,1:0:0:0:
256,192,77331,1,0,1:0:0:0:
256,192,77660,1,8,1:0:0:0:
256,192,77990,1,8,1:0:0:0:
256,192,78155,1,0,1:0:0:0:
256,192,78320,1,8,1:0:0:0:
256,192,78649,1,0,1:0:0:0:
256,192,78979,1,8,1:0:0:0:
256,192,79638,1,12,1:0:0:0:
256,192,79968,1,0,1:0:0:0:
256,192,80298,1,0,1:0:0:0:
256,192,80462,1,0,1:0:0:0:
256,192,80627,1,8,1:0:0:0:
260,202,80792,1,0,1:0:0:0:
256,192,80957,1,8,1:0:0:0:
256,192,81287,1,8,1:0:0:0:
256,192,81616,1,0,1:0:0:0:
256,192,81781,1,8,1:0:0:0:
256,192,81946,1,8,1:0:0:0:
256,192,82111,1,0,1:0:0:0:
256,192,84583,1,12,1:0:0:0:
256,192,84748,1,12,1:0:0:0:
256,192,85078,8,0,88539,1:0:0:0:
