osu file format v14

[General]
AudioFilename: audio.mp3
AudioLeadIn: 0
PreviewTime: 49946
Countdown: 0
SampleSet: Soft
StackLeniency: 0.4
Mode: 0
LetterboxInBreaks: 0
WidescreenStoryboard: 1

[Editor]
DistanceSpacing: 0.8
BeatDivisor: 4
GridSize: 32
TimelineZoom: 4.299998

[Metadata]
Title:Haruka Mirai
TitleUnicode:ハルカミライ
Artist:NateWantsToBattle
ArtistUnicode:NateWantsToBattle
Creator:Smoke
Version:Nymphe's Insane
Source:ブラッククローバー
Tags:black clover rock english anime nwtb tv size opening op 1 one cover asta Kankaku Piero 感覚ピエロ nymphe Kiyoshi Guarden
BeatmapID:3165847
BeatmapSetID:1549104

[Difficulty]
HPDrainRate:5
CircleSize:4.2
OverallDifficulty:8
ApproachRate:9
SliderMultiplier:1.7
SliderTickRate:1

[Events]
//Background and Video events
0,0,"black clover bg.jpg",0,0
Video,-403,"vid.mp4"
//Break Periods
2,82372,84044
//Storyboard Layer 0 (Background)
//Storyboard Layer 1 (Fail)
//Storyboard Layer 2 (Pass)
//Storyboard Layer 3 (Foreground)
//Storyboard Layer 4 (Overlay)
//Storyboard Sound Samples

[TimingPoints]
-740,329.67032967033,4,2,1,70,1,0
249,-111.111111111111,4,2,1,55,0,0
578,-90.9090909090909,4,2,1,65,0,0
5853,-86.9565217391304,4,2,1,70,0,0
8490,-83.3333333333333,4,2,1,75,0,0
9809,-105.263157894737,4,2,1,80,0,0
11128,-142.857142857143,4,2,1,50,0,0
13435,-90.9090909090907,4,2,1,70,0,0
13683,-166.666666666666,4,2,1,5,0,0
13765,-90.9090909090909,4,2,1,75,0,0
14012,-90.9090909090909,4,2,1,5,0,0
14095,-90.9090909090909,4,2,1,75,0,0
16320,-90.9090909090909,4,2,1,5,0,0
16403,-90.9090909090909,4,2,1,75,0,0
16650,-90.9090909090909,4,2,1,5,0,0
16733,-90.9090909090909,4,2,1,75,0,0
18957,-90.9090909090909,4,2,1,5,0,0
19040,-90.9090909090909,4,2,1,75,0,0
19287,-90.9090909090909,4,2,1,5,0,0
19370,-90.9090909090909,4,2,1,75,0,0
21595,-90.9090909090909,4,2,1,5,0,0
21678,-90.9090909090909,4,2,1,75,0,0
24314,-125,4,2,1,60,0,0
26952,-117.647058823529,4,2,1,65,0,0
28270,-111.111111111111,4,2,1,70,0,0
29342,-333.333333333332,4,2,1,5,0,0
29424,-100,4,2,1,75,0,0
32227,-125,4,2,1,60,0,0
34864,-117.647058823529,4,2,1,65,0,0
36183,-111.111111111111,4,2,1,70,0,0
37336,-100,4,2,1,75,0,0
48051,-86.9565217391304,4,2,1,75,0,0
48216,-86.9565217391304,4,2,1,5,0,0
48270,-95.2380952380952,4,2,1,70,0,0
48435,-95.2380952380952,4,2,1,5,0,0
48490,-105.263157894737,4,2,1,70,0,0
48655,-105.263157894737,4,2,1,5,0,0
48710,-86.9565217391304,4,2,1,75,0,0
48875,-86.9565217391304,4,2,1,5,0,0
48929,-95.2380952380952,4,2,1,75,0,0
49094,-95.2380952380952,4,2,1,5,0,0
49149,-105.263157894737,4,2,1,75,0,0
49314,-105.263157894737,4,2,1,5,0,0
49369,-86.9565217391304,4,2,1,75,0,0
49534,-86.9565217391304,4,2,1,5,0,0
49588,-95.2380952380952,4,2,1,75,0,0
49753,-95.2380952380952,4,2,1,5,0,0
49808,-105.263157894737,4,2,1,75,0,0
49973,-105.263157894737,4,2,1,5,0,0
50029,-111.111111111111,4,2,1,75,0,0
50194,-111.111111111111,4,2,1,50,0,0
50276,-111.111111111111,4,2,1,55,0,0
50358,-111.111111111111,4,2,1,60,0,0
50441,-111.111111111111,4,2,1,65,0,0
50523,-111.111111111111,4,2,1,70,0,0
50606,-111.111111111111,4,2,1,75,0,0
50688,-166.666666666667,4,2,1,80,0,1
50935,-83.3333333333333,4,2,1,5,0,1
51018,-83.3333333333333,4,2,1,80,0,1
52254,-83.3333333333333,4,2,1,5,0,1
52337,-83.3333333333333,4,2,1,80,0,1
53573,-83.3333333333333,4,2,1,5,0,1
53656,-83.3333333333333,4,2,1,80,0,1
54562,-83.3333333333333,4,2,1,5,0,1
54645,-83.3333333333333,4,2,1,80,0,1
56210,-83.3333333333333,4,2,1,5,0,1
56293,-83.3333333333333,4,2,1,80,0,1
57529,-83.3333333333333,4,2,1,5,0,1
57612,-83.3333333333333,4,2,1,80,0,1
58847,-83.3333333333333,4,2,1,5,0,1
58930,-83.3333333333333,4,2,1,80,0,1
60661,-83.3333333333333,4,2,1,45,0,1
60743,-83.3333333333333,4,2,1,50,0,1
60825,-83.3333333333333,4,2,1,55,0,1
60907,-83.3333333333333,4,2,1,60,0,1
60990,-83.3333333333333,4,2,1,65,0,1
61072,-83.3333333333333,4,2,1,70,0,1
61155,-83.3333333333333,4,2,1,75,0,1
61237,-83.3333333333333,4,2,1,80,0,1
61485,-83.3333333333333,4,2,1,5,0,1
61568,-83.3333333333333,4,2,1,80,0,1
62803,-83.3333333333333,4,2,1,5,0,1
62886,-83.3333333333333,4,2,1,80,0,1
64122,-83.3333333333333,4,2,1,5,0,1
64205,-83.3333333333333,4,2,1,80,0,1
65111,-83.3333333333333,4,2,1,5,0,1
65194,-83.3333333333333,4,2,1,80,0,1
66760,-83.3333333333333,4,2,1,5,0,1
66843,-83.3333333333333,4,2,1,80,0,1
68078,-83.3333333333333,4,2,1,5,0,1
68161,-83.3333333333333,4,2,1,80,0,1
69397,-83.3333333333333,4,2,1,5,0,1
69480,-83.3333333333333,4,2,1,80,0,1
71787,-125,4,2,1,70,0,0
73106,-99.9999999999999,4,2,1,75,0,0
73435,-99.9999999999999,4,2,1,45,0,0
73517,-99.9999999999999,4,2,1,50,0,0
73600,-99.9999999999999,4,2,1,55,0,0
73682,-99.9999999999999,4,2,1,65,0,0
73765,-99.9999999999999,4,2,1,75,0,0
74095,-99.9999999999999,4,2,1,80,0,0
74342,-99.9999999999999,4,2,1,5,0,0
74424,-50,4,2,1,85,0,1
75743,-90.9090909090909,4,2,1,85,0,1
76402,-47.6190476190476,4,2,1,85,0,1
78380,-90.9090909090909,4,2,1,85,0,1
79040,-45.4545454545455,4,2,1,85,0,1
81018,-43.4782608695652,4,2,1,85,0,1
82336,-142.857142857143,4,2,1,50,0,0
84644,-263.157894736842,4,2,1,75,0,0
85303,-166.666666666667,4,2,1,65,0,0
85963,-166.666666666667,4,2,1,55,0,0
86622,-166.666666666667,4,2,1,45,0,0
87281,-166.666666666667,4,2,1,32,0,0
87941,-161.290322580645,4,2,1,18,0,0
88270,-200,4,2,1,5,0,0

[Colours]
Combo1 : 150,28,10
Combo2 : 196,183,19
Combo3 : 225,0,0
Combo4 : 117,112,15

[HitObjects]
76,99,249,6,0,B|97:52|97:52|91:41|91:41|57:99,1,114.749996498108,2|2,0:0|0:0,0:0:0:0:
3,135,578,6,0,B|47:100|82:144|64:144|93:182|146:161,1,140.25000428009,6|0,3:1|0:0,0:0:0:0:
137,154,908,1,14,0:0:0:0:
231,278,1073,2,0,P|184:274|166:230,1,93.5000028533936,0|0,3:2|3:2,0:0:0:0:
328,112,1402,1,14,0:0:0:0:
222,43,1567,2,0,P|235:103|249:158,1,93.5000028533936,0|0,3:2|3:2,0:0:0:0:
477,186,1897,6,0,B|427:142|368:200|409:181|356:241|297:196,1,187.000005706787,14|0,0:0|3:2,0:0:0:0:
355,23,2391,2,0,P|407:43|418:90,1,93.5000028533936,14|0,0:0|3:2,0:0:0:0:
349,317,2721,5,14,0:0:0:0:
279,275,2886,1,14,0:0:0:0:
306,202,3051,1,14,0:0:0:0:
148,360,3216,6,0,P|80:351|66:271,1,140.25000428009,6|0,3:1|0:0,0:0:0:0:
70,257,3545,1,14,0:0:0:0:
211,160,3710,2,0,P|191:205|135:213,1,93.5000028533936,0|0,3:2|3:2,0:0:0:0:
21,96,4040,1,14,0:0:0:0:
136,31,4205,2,0,P|125:86|116:139,1,93.5000028533936,0|0,3:2|3:2,0:0:0:0:
296,200,4534,6,0,B|358:187|358:187|413:224|413:224|477:207,1,187.000005706787,14|0,0:0|3:2,0:0:0:0:
447,36,5029,2,0,L|430:133,1,93.5000028533936,14|0,0:0|3:2,0:0:0:0:
329,302,5358,5,14,0:0:0:0:
252,282,5523,1,14,0:0:0:0:
175,262,5688,1,14,0:0:0:0:
132,66,5853,6,0,B|167:48|167:48|207:101|165:150,1,146.62500279665,6|0,3:1|0:0,0:0:0:0:
153,155,6183,1,14,0:0:0:0:
2,259,6347,2,0,P|16:207|71:195,1,97.7500018644333,0|0,3:2|3:2,0:0:0:0:
175,262,6677,1,14,0:0:0:0:
113,383,6842,2,0,P|103:335|94:287,1,97.7500018644333,0|0,3:2|3:2,0:0:0:0:
245,176,7172,6,0,B|288:127|333:171|333:171|358:231|424:207,1,195.500003728867,14|0,0:0|3:2,0:0:0:0:
471,54,7666,2,0,P|425:69|411:117,1,97.7500018644333,14|0,0:0|3:2,0:0:0:0:
438,305,7996,5,14,0:0:0:0:
499,256,8161,1,14,0:0:0:0:
490,176,8325,1,14,0:0:0:0:
318,335,8490,6,0,B|277:336|250:302|250:302|199:306|183:348,1,152.999995330811,6|0,3:1|0:0,0:0:0:0:
177,356,8820,1,14,0:0:0:0:
323,241,8985,2,0,P|345:196|317:154,1,101.999996887207,0|0,3:2|3:2,0:0:0:0:
188,49,9314,1,14,0:0:0:0:
104,161,9479,2,0,P|158:144|216:129,1,101.999996887207,0|0,3:2|3:2,0:0:0:0:
331,10,9809,5,2,3:2:0:0:
336,21,9891,1,0,3:2:0:0:
340,31,9974,1,0,3:2:0:0:
475,151,10139,2,0,P|483:111|450:75,1,80.7499978437424,8|8,0:0|0:0,0:0:0:0:
440,70,10386,1,8,0:0:0:0:
428,67,10468,1,0,3:2:0:0:
363,186,10633,1,8,0:0:0:0:
361,199,10716,1,8,0:0:0:0:
358,211,10798,2,0,L|375:268,3,40.3749989218712,8|8|8|8,0:0|0:0|0:0|0:0,0:0:0:0:
364,275,11128,5,2,0:0:0:0:
55,365,13435,6,0,B|20:335|46:285|46:285|34:322|65:349,1,140.25000428009,10|0,0:0|0:0,0:0:0:0:
121,300,13765,6,0,B|163:265|202:315|178:303|211:354|274:318,1,140.25000428009,6|0,3:1|0:0,0:0:0:0:
245,328,14095,2,0,P|277:283|255:248,1,93.5000028533936,10|0,0:0|0:0,0:0:0:0:
117,165,14424,1,2,3:2:0:0:
117,165,14589,1,2,3:2:0:0:
208,107,14754,2,0,P|197:156|189:209,1,93.5000028533936,10|0,0:0|0:0,0:0:0:0:
349,323,15084,6,0,B|395:284|449:319|449:319|413:346,1,140.25000428009,6|0,3:1|0:0,0:0:0:0:
423,337,15413,2,0,L|433:215,1,93.5000028533936,10|0,0:0|0:0,0:0:0:0:
316,134,15743,2,0,P|317:184|367:207,1,93.5000028533936,6|2,3:1|3:2,0:0:0:0:
489,114,16073,6,0,B|527:68|490:32|490:32|506:61|480:94,1,140.25000428009,10|0,0:0|0:0,0:0:0:0:
407,73,16402,6,0,B|361:90|329:47|352:35|326:0|271:19,1,140.25000428009,6|0,3:1|0:0,0:0:0:0:
294,15,16732,2,0,L|411:-3,1,93.5000028533936,10|0,0:0|0:0,0:0:0:0:
269,105,17062,1,2,3:2:0:0:
269,105,17227,1,2,3:2:0:0:
179,0,17391,2,0,P|158:36|182:78,1,93.5000028533936,10|0,0:0|0:0,0:0:0:0:
147,293,17721,6,0,B|104:277|104:277|56:300|56:300|10:279,1,140.25000428009,6|0,3:1|0:0,0:0:0:0:
18,282,18051,2,0,L|35:388,1,93.5000028533936,10|0,0:0|0:0,0:0:0:0:
85,204,18380,2,0,P|115:160|98:118,1,93.5000028533936,2|2,3:2|3:2,0:0:0:0:
8,0,18710,6,0,B|-5:46|37:78|37:78|15:45|37:20,1,140.25000428009,10|0,0:0|0:0,0:0:0:0:
116,33,19040,6,0,B|167:59|214:21|214:21|175:-2,1,140.25000428009,6|0,3:1|0:0,0:0:0:0:
183,3,19369,2,0,L|200:112,1,93.5000028533936,10|0,0:0|0:0,0:0:0:0:
178,223,19699,1,2,3:2:0:0:
178,223,19864,1,2,3:2:0:0:
292,141,20029,2,0,L|274:250,1,93.5000028533936,10|0,0:0|0:0,0:0:0:0:
368,361,20358,6,0,B|402:322|437:346|437:346|462:384|514:367,1,140.25000428009,6|0,3:1|0:0,0:0:0:0:
489,372,20688,2,0,P|517:325|500:292,1,93.5000028533936,10|0,0:0|0:0,0:0:0:0:
396,164,21018,2,0,P|405:215|414:273,1,93.5000028533936,6|2,3:1|3:2,0:0:0:0:
499,97,21347,6,0,B|460:86|463:24|463:24|454:59|418:64,1,140.25000428009,10|0,0:0|0:0,0:0:0:0:
368,12,21677,6,0,B|299:41|326:106|326:106|359:70,1,140.25000428009,6|0,3:1|0:0,0:0:0:0:
341,89,22007,2,0,L|234:61,1,93.5000028533936,10|2,0:0|0:0,0:0:0:0:
184,117,22336,1,0,3:2:0:0:
85,28,22501,1,8,0:0:0:0:
85,28,22584,1,8,0:0:0:0:
85,28,22666,2,0,L|96:83,1,46.7500014266968,10|8,0:0|0:0,0:0:0:0:
28,127,22831,6,0,P|5:176|30:227,1,93.5000028533936,2|0,3:2|0:0,0:0:0:0:
21,333,23161,1,2,3:2:0:0:
116,222,23325,2,0,P|169:236|219:247,1,93.5000028533936,10|8,0:0|0:0,0:0:0:0:
217,255,23573,1,8,0:0:0:0:
227,263,23655,1,8,0:0:0:0:
324,344,23820,1,0,3:3:0:0:
335,341,23902,1,0,3:3:0:0:
347,338,23985,2,0,L|399:350,3,46.7500014266968,2|0|0|0,3:3|3:3|3:3|3:3,0:0:0:0:
466,379,24314,6,0,B|423:354|423:354|456:251,1,136,6|0,3:1|3:2,0:0:0:0:
507,71,24974,2,0,B|479:36|437:58|437:58|421:89|383:86,1,136,2|0,3:2|3:2,0:0:0:0:
308,38,25468,1,2,0:0:0:0:
308,38,25633,6,0,P|315:83|321:123,1,68,2|2,3:2|0:0,0:0:0:0:
238,91,25963,2,0,P|245:136|251:176,1,68,2|2,3:2|0:0,0:0:0:0:
54,189,26292,6,0,P|47:234|41:274,1,68,0|2,3:2|0:0,0:0:0:0:
124,242,26622,2,0,P|117:287|111:327,1,68,2|2,3:2|0:0,0:0:0:0:
209,353,26952,6,0,B|258:346|258:346|298:380|298:380|357:368,1,144.500002756119,6|0,3:2|3:2,0:0:0:0:
512,205,27611,2,0,B|463:212|463:212|423:178|423:178|364:190,1,144.500002756119,6|4,3:2|3:2,0:0:0:0:
273,234,28106,1,2,0:0:0:0:
273,234,28270,6,0,B|252:195|252:195|266:152,1,76.4999976654053,6|0,3:2|0:0,0:0:0:0:
378,67,28600,2,0,B|354:104|354:104|310:114,1,76.4999976654053,6|2,3:2|0:0,0:0:0:0:
201,116,28930,1,12,0:0:0:0:
296,31,29095,2,0,B|234:26|234:26|235:29|235:29|168:23,1,114.749996498108,2|0,3:2|0:0,0:0:0:0:
90,2,29424,6,0,B|147:22|147:22|110:152,1,170,6|2,3:1|3:2,0:0:0:0:
0,236,29919,2,0,P|10:188|46:173,1,85,8|2,0:0|0:0,0:0:0:0:
107,332,30249,2,0,P|98:284|89:232,1,85,2|0,3:2|3:2,0:0:0:0:
32,381,30578,1,8,0:0:0:0:
188,266,30743,6,0,B|212:227|264:250|264:250|286:305|351:282,1,170,6|2,3:1|3:2,0:0:0:0:
247,361,31238,1,8,0:0:0:0:
437,260,31402,2,0,B|397:234|397:234|329:281|383:353,1,170,6|0,3:1|3:2,0:0:0:0:
320,190,31897,2,0,P|287:158|303:107,1,85,10|0,0:0|0:0,0:0:0:0:
510,132,32227,6,0,B|468:121|468:121|428:147|428:147|370:132,1,136,6|0,3:1|3:2,0:0:0:0:
165,27,32886,2,0,B|210:-6|210:-6|315:23,1,136,2|0,3:2|3:2,0:0:0:0:
363,66,33380,1,2,0:0:0:0:
363,66,33545,6,0,L|381:-15,1,68,2|2,3:2|0:0,0:0:0:0:
434,129,33875,2,0,L|452:48,1,68,2|2,3:2|0:0,0:0:0:0:
244,170,34205,6,0,L|226:89,1,68,0|2,3:2|0:0,0:0:0:0:
173,233,34535,2,0,L|155:152,1,68,0|0,3:2|0:0,0:0:0:0:
70,355,34864,6,0,B|44:333|44:333|102:293|150:335,1,144.500002756119,6|0,3:2|3:2,0:0:0:0:
399,335,35523,2,0,B|425:357|425:357|367:397|319:355,1,144.500002756119,6|4,3:2|3:2,0:0:0:0:
263,304,36018,5,10,0:0:0:0:
263,304,36100,1,8,0:0:0:0:
263,304,36183,2,0,P|242:259|257:223,1,76.4999976654053,14|0,3:2|0:0,0:0:0:0:
373,127,36512,1,0,3:3:0:0:
373,127,36595,1,0,3:3:0:0:
373,127,36677,1,0,3:3:0:0:
252,67,36842,1,12,0:0:0:0:
333,250,37007,2,0,B|386:237|386:237|392:241|392:241|443:227,1,114.749996498108,6|0,3:2|0:0,0:0:0:0:
512,207,37336,6,0,B|482:251|482:251|461:124,1,170,6|2,3:1|3:2,0:0:0:0:
512,1,37831,2,0,P|496:41|441:51,1,85,8|2,0:0|0:0,0:0:0:0:
279,50,38161,2,0,P|325:30|365:8,1,85,2|0,3:2|3:2,0:0:0:0:
375,121,38490,1,8,0:0:0:0:
247,194,38655,6,0,B|190:218|158:169|181:152|144:107|87:144,1,170,6|2,3:1|3:2,0:0:0:0:
164,276,39150,1,8,0:0:0:0:
294,124,39314,2,0,P|280:175|280:306,1,170,6|0,3:1|3:2,0:0:0:0:
331,345,39727,1,0,3:2:0:0:
337,353,39809,2,0,P|381:363|414:335,1,85,10|2,0:0|0:0,0:0:0:0:
493,206,40139,5,6,3:2:0:0:
493,206,40303,2,0,P|465:166|473:127,1,85,6|8,3:2|0:0,0:0:0:0:
512,0,40633,2,0,B|477:-19|452:6|459:18|436:44|399:29,1,127.5,6|0,3:2|0:0,0:0:0:0:
384,16,40963,1,6,3:2:0:0:
303,99,41128,1,8,0:0:0:0:
202,8,41292,6,0,P|247:15|297:19,1,85,6|0,3:2|0:0,0:0:0:0:
110,142,41622,1,0,3:2:0:0:
110,142,41705,1,0,3:2:0:0:
110,142,41787,1,12,0:0:0:0:
49,12,41952,1,2,3:2:0:0:
212,105,42117,2,0,P|195:151|186:198,1,85,12|0,0:0|3:2,0:0:0:0:
47,342,42446,6,0,P|83:313|131:325,1,85,8|8,0:0|0:0,0:0:0:0:
184,356,42694,1,8,0:0:0:0:
194,371,42776,2,0,P|235:373|266:346,1,85,6|6,3:2|3:2,0:0:0:0:
379,253,43106,1,8,0:0:0:0:
303,157,43270,2,0,B|264:183|264:183|293:276,1,127.5,6|0,3:2|0:0,0:0:0:0:
306,278,43600,1,6,3:2:0:0:
381,339,43765,1,8,0:0:0:0:
482,228,43930,6,0,P|497:187|473:155,1,85,6|0,3:2|0:0,0:0:0:0:
363,77,44260,1,0,3:2:0:0:
363,77,44342,1,0,3:2:0:0:
363,77,44424,1,12,0:0:0:0:
483,18,44589,1,2,3:2:0:0:
400,164,44754,2,0,P|360:179|314:157,1,85,4|0,3:3|3:2,0:0:0:0:
266,114,45001,1,0,3:2:0:0:
258,101,45084,2,0,L|267:49,3,42.5,8|0|0|0,3:3|3:2|3:2|3:2,0:0:0:0:
205,16,45413,5,6,3:2:0:0:
205,16,45578,2,0,P|162:-5|116:17,1,85,6|8,3:2|0:0,0:0:0:0:
5,136,45908,2,0,B|-25:159|-25:159|46:202|90:156,1,127.5,6|0,3:2|0:0,0:0:0:0:
84,177,46238,1,6,3:2:0:0:
43,67,46402,1,8,0:0:0:0:
178,150,46567,6,0,P|171:193|162:244,1,85,6|0,3:2|0:0,0:0:0:0:
239,372,46897,1,0,3:2:0:0:
239,372,46979,1,0,3:2:0:0:
239,372,47062,1,12,0:0:0:0:
108,311,47227,1,2,3:2:0:0:
265,202,47391,2,0,P|272:245|281:296,1,85,12|2,0:0|3:2,0:0:0:0:
178,150,47721,1,8,0:0:0:0:
307,65,47886,1,8,0:0:0:0:
307,65,47968,1,8,0:0:0:0:
307,65,48051,6,0,P|356:68|385:116,1,97.7500018644333,6|0,3:2|0:0,0:0:0:0:
380,60,48270,2,0,P|401:103|381:155,1,89.2499972763062,6|0,3:2|0:0,0:0:0:0:
429,123,48490,1,6,3:2:0:0:
214,329,48710,6,0,P|263:326|292:278,1,97.7500018644333,14|0,3:2|0:0,0:0:0:0:
287,334,48930,2,0,P|308:290|288:239,1,89.2499972763062,6|0,3:2|0:0,0:0:0:0:
336,271,49149,1,6,3:2:0:0:
122,166,49369,6,0,P|73:169|44:217,1,97.7500018644333,14|0,3:2|0:0,0:0:0:0:
49,161,49589,2,0,P|27:204|48:256,1,89.2499972763062,14|0,3:2|0:0,0:0:0:0:
0,224,49808,1,14,3:2:0:0:
149,76,50029,5,14,3:2:0:0:
182,45,50111,1,0,0:0:0:0:
227,45,50194,1,8,0:0:0:0:
265,82,50276,1,8,0:0:0:0:
252,101,50358,69,8,0:0:0:0:
275,153,50441,1,8,0:0:0:0:
333,165,50523,1,8,0:0:0:0:
371,118,50606,1,8,0:0:0:0:
364,101,50688,6,0,L|374:189,1,76.4999976654053,6|0,3:1|0:0,0:0:0:0:
472,232,51018,2,0,B|405:208|405:208|349:256|349:256|268:229,1,203.999993774414,10|0,0:0|3:2,0:0:0:0:
126,152,51512,1,0,3:2:0:0:
205,336,51677,2,0,L|192:234,1,101.999996887207,10|2,0:0|0:0,0:0:0:0:
66,43,52007,6,0,B|109:15|144:48|144:48|164:92|231:75,1,152.999995330811,6|0,3:1|0:0,0:0:0:0:
46,33,52336,2,0,B|15:76|15:76|42:132,1,101.999996887207,8|0,0:0|0:0,0:0:0:0:
117,312,52666,1,6,3:1:0:0:
0,234,52831,1,0,3:2:0:0:
117,144,52996,2,0,B|148:187|148:187|121:243,1,101.999996887207,8|2,0:0|0:0,0:0:0:0:
254,336,53325,6,0,B|284:293|360:322|360:322|323:364,1,152.999995330811,6|0,3:1|0:0,0:0:0:0:
335,349,53655,2,0,L|341:231,1,101.999996887207,10|0,0:0|0:0,0:0:0:0:
462,134,53985,2,0,P|452:185|403:201,1,101.999996887207,2|0,3:2|3:2,0:0:0:0:
247,81,54314,2,0,B|319:95|319:95|312:101|312:101|383:115,1,152.999995330811,8|0,0:0|0:0,0:0:0:0:
239,68,54644,6,0,B|205:44|167:75|167:75|152:123|97:103,1,152.999995330811,6|0,3:1|0:0,0:0:0:0:
109,106,54974,2,0,P|71:72|99:26,1,101.999996887207,8|2,0:0|0:0,0:0:0:0:
229,165,55303,2,0,P|217:219|207:281,1,101.999996887207,2|0,3:2|3:2,0:0:0:0:
266,384,55633,1,10,0:0:0:0:
115,318,55798,1,2,0:0:0:0:
343,243,55963,6,0,B|380:251|409:224|409:224|471:229|453:286,1,152.999995330811,6|0,3:1|0:0,0:0:0:0:
332,250,56292,2,0,B|306:199|306:199|334:153,1,101.999996887207,8|0,0:0|0:0,0:0:0:0:
430,42,56622,2,0,P|421:109|415:158,1,101.999996887207,2|0,3:2|3:2,0:0:0:0:
351,2,56952,1,10,0:0:0:0:
512,79,57117,1,2,0:0:0:0:
329,160,57281,6,0,B|268:191|268:191|188:156,1,152.999995330811,6|0,3:1|0:0,0:0:0:0:
334,149,57611,2,0,L|352:265,1,101.999996887207,10|0,0:0|0:0,0:0:0:0:
419,379,57941,1,6,3:1:0:0:
265,290,58106,1,0,3:2:0:0:
443,194,58270,2,0,L|425:310,1,101.999996887207,10|2,0:0|0:0,0:0:0:0:
230,363,58600,6,0,B|179:343|179:343|126:369|126:369|72:343,1,152.999995330811,6|0,3:1|0:0,0:0:0:0:
90,352,58930,2,0,P|61:307|91:272,1,101.999996887207,8|0,0:0|0:0,0:0:0:0:
248,143,59260,1,6,3:1:0:0:
171,268,59424,1,0,3:2:0:0:
25,165,59589,1,8,0:0:0:0:
136,0,59754,6,0,L|99:217,1,203.999993774414,6|0,3:1|3:2,0:0:0:0:
230,363,60249,2,0,P|286:374|316:330,1,101.999996887207,12|0,0:0|0:0,0:0:0:0:
408,188,60578,5,2,3:2:0:0:
357,163,60661,5,8,0:0:0:0:
320,198,60743,5,8,0:0:0:0:
296,188,60825,5,8,0:0:0:0:
280,192,60908,6,0,L|226:210,1,50.9999984436036,8|8,0:0|0:0,0:0:0:0:
164,162,61073,2,0,L|115:145,1,50.9999984436036,8|8,0:0|0:0,0:0:0:0:
28,133,61238,6,0,L|213:92,1,152.999995330811,6|0,3:1|0:0,0:0:0:0:
15,120,61567,2,0,B|-8:168|-8:168|22:207,1,101.999996887207,10|0,0:0|0:0,0:0:0:0:
131,347,61897,2,0,P|137:288|143:226,1,101.999996887207,0|0,3:2|3:2,0:0:0:0:
213,383,62227,1,10,0:0:0:0:
44,319,62391,1,2,0:0:0:0:
230,217,62556,6,0,B|275:189|308:224|308:224|335:267|389:239,1,152.999995330811,6|0,3:1|0:0,0:0:0:0:
364,248,62886,2,0,P|402:204|384:169,1,101.999996887207,8|0,0:0|0:0,0:0:0:0:
270,23,63216,2,0,P|278:76|287:135,1,101.999996887207,6|0,3:1|3:2,0:0:0:0:
353,0,63545,1,8,0:0:0:0:
185,69,63710,1,2,0:0:0:0:
385,170,63875,6,0,P|440:178|488:88,1,152.999995330811,6|0,3:1|0:0,0:0:0:0:
367,154,64205,2,0,L|384:276,1,101.999996887207,10|0,0:0|0:0,0:0:0:0:
338,374,64534,1,2,3:2:0:0:
468,312,64699,1,0,3:2:0:0:
290,239,64864,2,0,B|212:261|212:261|220:267|220:267|150:285,1,152.999995330811,8|0,0:0|0:0,0:0:0:0:
86,328,65194,6,0,B|120:293|162:325|162:325|175:372|241:364,1,152.999995330811,6|0,3:1|0:0,0:0:0:0:
75,335,65523,2,0,P|38:300|52:253,1,101.999996887207,8|2,0:0|0:0,0:0:0:0:
149,106,65853,2,0,P|143:152|138:221,1,101.999996887207,2|0,3:2|3:2,0:0:0:0:
216,45,66183,1,10,0:0:0:0:
52,117,66347,1,2,0:0:0:0:
239,203,66512,6,0,B|292:197|292:197|321:154|321:154|389:148,1,152.999995330811,6|0,3:1|0:0,0:0:0:0:
232,190,66842,2,0,B|195:235|195:235|220:279,1,101.999996887207,8|0,0:0|0:0,0:0:0:0:
355,379,67172,2,0,P|348:328|340:270,1,101.999996887207,2|0,3:2|3:2,0:0:0:0:
368,149,67501,1,10,0:0:0:0:
491,249,67666,1,2,0:0:0:0:
419,58,67831,6,0,L|406:244,1,152.999995330811,6|0,3:1|0:0,0:0:0:0:
426,46,68161,2,0,P|380:22|335:46,1,101.999996887207,10|0,0:0|0:0,0:0:0:0:
182,208,68490,1,6,3:1:0:0:
325,148,68655,1,0,3:2:0:0:
199,9,68820,2,0,P|205:62|211:120,1,101.999996887207,10|2,0:0|0:0,0:0:0:0:
275,310,69150,6,0,B|234:283|202:314|202:314|181:358|129:338,1,152.999995330811,6|0,3:1|0:0,0:0:0:0:
142,342,69479,2,0,P|104:302|124:260,1,101.999996887207,8|0,0:0|0:0,0:0:0:0:
164,73,69809,1,0,3:2:0:0:
20,177,69974,1,0,3:2:0:0:
223,222,70139,2,0,P|261:182|241:140,1,101.999996887207,8|0,0:0|0:0,0:0:0:0:
61,3,70468,6,0,P|74:64|101:169,1,152.999995330811,14|0,0:0|0:0,0:0:0:0:
93,234,70798,2,0,L|142:215,1,50.9999984436036,0|0,3:2|3:2,0:0:0:0:
236,58,70963,5,0,1:0:0:0:
236,58,71045,1,0,1:0:0:0:
236,58,71128,2,0,L|296:49,3,50.9999984436036,10|0|0|0,3:3|3:2|3:2|3:2,0:0:0:0:
390,155,71457,5,10,3:3:0:0:
439,127,71540,5,0,3:2:0:0:
478,152,71622,5,2,3:2:0:0:
498,145,71705,5,0,3:2:0:0:
512,154,71787,6,0,P|246:100|-9:6,1,544,4|4,3:2|3:2,0:0:0:0:
2,12,73435,5,8,0:0:0:0:
2,12,73518,1,8,0:0:0:0:
2,12,73600,2,0,L|9:77,2,42.5,8|8|8,0:0|0:0|0:0,0:0:0:0:
91,101,73930,5,8,3:3:0:0:
91,101,74012,1,8,3:3:0:0:
91,101,74095,2,0,P|108:147|79:189,1,85,14|0,0:0|0:0,0:0:0:0:
34,329,74424,6,0,B|89:313|89:313|141:343|141:343|204:324,3,170,6|2|10|2,3:1|0:0|0:0|3:2,0:0:0:0:
394,227,75084,2,0,B|338:211|338:211|286:241|286:241|223:222,3,170,10|2|10|2,0:0|3:2|0:0|3:2,0:0:0:0:
192,49,75743,6,0,P|146:29|95:46,1,93.5000028533936,14|0,0:0|3:2,0:0:0:0:
50,92,75990,1,0,3:2:0:0:
42,104,76073,2,0,L|63:206,1,93.5000028533936,10|0,0:0|3:2,0:0:0:0:
166,356,76402,6,0,L|-36:313,1,178.499994552612,14|2,0:0|3:2,0:0:0:0:
205,149,76732,2,0,L|414:102,1,178.499994552612,12|2,0:0|3:2,0:0:0:0:
425,383,77062,6,0,B|451:340|419:300|398:317|356:277|388:221,3,178.499994552612,12|2|10|2,0:0|3:2|0:0|3:2,0:0:0:0:
247,0,77721,2,0,B|273:43|241:83|220:66|181:108|211:165,3,178.499994552612,10|2|10|2,0:0|3:2|0:0|3:2,0:0:0:0:
130,366,78380,6,0,P|77:377|45:340,1,93.5000028533936,14|0,0:0|3:2,0:0:0:0:
25,284,78628,1,0,3:2:0:0:
20,270,78710,2,0,B|12:223|12:223|51:180,1,93.5000028533936,10|0,0:0|3:2,0:0:0:0:
242,68,79040,6,0,B|162:12|162:12|67:37,1,187.000005706787,14|0,0:0|3:2,0:0:0:0:
304,299,79369,2,0,B|401:324|401:324|474:272,1,187.000005706787,12|0,0:0|3:2,0:0:0:0:
124,138,79699,6,0,B|98:197|98:197|140:253|140:253|114:322,3,187.000005706787,12|2|10|2,0:0|3:2|0:0|3:2,0:0:0:0:
388,167,80358,2,0,B|369:114|369:114|408:60|408:60|379:-20,3,187.000005706787,10|2|10|2,0:0|3:2|0:0|3:2,0:0:0:0:
493,363,81018,6,0,B|443:316|443:316|307:353,1,195.500003728867,14|2,0:0|3:2,0:0:0:0:
52,292,81347,2,0,B|102:339|102:339|238:302,1,195.500003728867,14|2,0:0|3:2,0:0:0:0:
253,78,81677,5,14,0:0:0:0:
179,192,81842,1,2,3:2:0:0:
294,265,82007,1,14,0:0:0:0:
367,151,82172,1,2,3:2:0:0:
176,23,84644,5,14,3:2:0:0:
413,116,84809,2,0,B|357:95|359:23|359:23|340:233|340:233|332:294|282:319|230:320|185:293|158:252|163:193|211:139|273:163,1,678.299991719971,14|0,3:2|0:0,0:0:0:0:
