osu file format v14

[General]
AudioFilename: audio.mp3
AudioLeadIn: 0
PreviewTime: 49946
Countdown: 0
SampleSet: Soft
StackLeniency: 0.5
Mode: 0
LetterboxInBreaks: 0
WidescreenStoryboard: 1

[Editor]
DistanceSpacing: 1
BeatDivisor: 6
GridSize: 32
TimelineZoom: 1.8

[Metadata]
Title:Haruka Mirai
TitleUnicode:ハルカミライ
Artist:NateWantsToBattle
ArtistUnicode:NateWantsToBattle
Creator:Smoke
Version:Normal
Source:ブラッククローバー
Tags:black clover rock english anime nwtb tv size opening op 1 one cover asta Kankaku Piero 感覚ピエロ nymphe Kiyoshi Guarden
BeatmapID:3165846
BeatmapSetID:1549104

[Difficulty]
HPDrainRate:4
CircleSize:3.2
OverallDifficulty:4.5
ApproachRate:5.5
SliderMultiplier:0.999999999999999
SliderTickRate:1

[Events]
//Background and Video events
0,0,"black clover bg.jpg",0,0
Video,-403,"vid.mp4"
//Break Periods
//Storyboard Layer 0 (Background)
//Storyboard Layer 1 (Fail)
//Storyboard Layer 2 (Pass)
//Storyboard Layer 3 (Foreground)
//Storyboard Layer 4 (Overlay)
//Storyboard Sound Samples

[TimingPoints]
-740,329.67032967033,4,2,1,70,1,0
249,-100,4,2,1,55,0,0
578,-90.9090909090909,4,2,1,65,0,0
5853,-90.9090909090909,4,2,1,70,0,0
8490,-90.9090909090909,4,2,1,75,0,0
9809,-90.9090909090909,4,2,1,80,0,0
11128,-111.111111111111,4,2,1,50,0,0
13435,-99.9999999999999,4,2,1,70,0,0
13683,-99.9999999999999,4,2,1,5,0,0
13765,-90.9090909090909,4,2,1,75,0,0
24314,-111.111111111111,4,2,1,60,0,0
26952,-107.52688172043,4,2,1,65,0,0
28270,-104.166666666667,4,2,1,70,0,0
29342,-104.166666666667,4,2,1,5,0,0
29424,-95.2380952380952,4,2,1,75,0,0
32227,-111.111111111111,4,2,1,60,0,0
34864,-107.52688172043,4,2,1,65,0,0
36183,-104.166666666667,4,2,1,70,0,0
37336,-95.2380952380952,4,2,1,75,0,0
48270,-95.2380952380952,4,2,1,70,0,0
48435,-95.2380952380952,4,2,1,5,0,0
48490,-95.2380952380952,4,2,1,70,0,0
48655,-95.2380952380952,4,2,1,5,0,0
48710,-95.2380952380952,4,2,1,75,0,0
48875,-95.2380952380952,4,2,1,5,0,0
48929,-95.2380952380952,4,2,1,75,0,0
49094,-95.2380952380952,4,2,1,5,0,0
49149,-95.2380952380952,4,2,1,75,0,0
49314,-95.2380952380952,4,2,1,5,0,0
49369,-95.2380952380952,4,2,1,75,0,0
49534,-95.2380952380952,4,2,1,5,0,0
49588,-95.2380952380952,4,2,1,75,0,0
49753,-95.2380952380952,4,2,1,5,0,0
49808,-95.2380952380952,4,2,1,75,0,0
49973,-95.2380952380952,4,2,1,5,0,0
50029,-95.2380952380952,4,2,1,75,0,0
50194,-95.2380952380952,4,2,1,50,0,0
50276,-95.2380952380952,4,2,1,55,0,0
50358,-95.2380952380952,4,2,1,60,0,0
50441,-95.2380952380952,4,2,1,65,0,0
50523,-95.2380952380952,4,2,1,70,0,0
50606,-95.2380952380952,4,2,1,75,0,0
50688,-90.9090909090909,4,2,1,80,0,1
50935,-90.9090909090909,4,2,1,5,0,1
51018,-90.9090909090909,4,2,1,80,0,1
52254,-90.9090909090909,4,2,1,5,0,1
52337,-90.9090909090909,4,2,1,80,0,1
53573,-90.9090909090909,4,2,1,5,0,1
53656,-90.9090909090909,4,2,1,80,0,1
54562,-90.9090909090909,4,2,1,5,0,1
54645,-90.9090909090909,4,2,1,80,0,1
56210,-90.9090909090909,4,2,1,5,0,1
56293,-90.9090909090909,4,2,1,80,0,1
57529,-90.9090909090909,4,2,1,5,0,1
57612,-90.9090909090909,4,2,1,80,0,1
58847,-90.9090909090909,4,2,1,5,0,1
58930,-90.9090909090909,4,2,1,80,0,1
60743,-90.9090909090909,4,2,1,50,0,1
60825,-90.9090909090909,4,2,1,55,0,1
60907,-90.9090909090909,4,2,1,60,0,1
60990,-90.9090909090909,4,2,1,65,0,1
61072,-90.9090909090909,4,2,1,70,0,1
61155,-90.9090909090909,4,2,1,75,0,1
61237,-90.9090909090909,4,2,1,80,0,1
61485,-90.9090909090909,4,2,1,5,0,1
61568,-90.9090909090909,4,2,1,80,0,1
62803,-90.9090909090909,4,2,1,5,0,1
62886,-90.9090909090909,4,2,1,80,0,1
64122,-90.9090909090909,4,2,1,5,0,1
64205,-90.9090909090909,4,2,1,80,0,1
65111,-90.9090909090909,4,2,1,5,0,1
65194,-90.9090909090909,4,2,1,80,0,1
66760,-90.9090909090909,4,2,1,5,0,1
66843,-90.9090909090909,4,2,1,80,0,1
68078,-90.9090909090909,4,2,1,5,0,1
68161,-90.9090909090909,4,2,1,80,0,1
69397,-90.9090909090909,4,2,1,5,0,1
69480,-90.9090909090909,4,2,1,80,0,1
71787,-111.111111111111,4,2,1,70,0,0
73106,-100,4,2,1,75,0,0
73435,-100,4,2,1,45,0,0
73517,-100,4,2,1,50,0,0
73600,-100,4,2,1,55,0,0
73682,-100,4,2,1,65,0,0
73765,-100,4,2,1,75,0,0
74095,-100,4,2,1,80,0,0
74342,-100,4,2,1,5,0,0
74424,-90.9090909090909,4,2,1,85,0,1
82336,-111.111111111111,4,2,1,50,0,0
84644,-100,4,2,1,75,0,0
85303,-100,4,2,1,65,0,0
85963,-100,4,2,1,55,0,0
86622,-100,4,2,1,45,0,0
87281,-100,4,2,1,32,0,0
87941,-100,4,2,1,18,0,0
88270,-100,4,2,1,5,0,0

[Colours]
Combo1 : 150,28,10
Combo2 : 196,183,19
Combo3 : 225,0,0
Combo4 : 117,112,15

[HitObjects]
447,347,578,5,6,3:1:0:0:
367,271,908,2,0,P|381:217|395:157,1,110.000003356934,14|0,0:0|3:2,0:0:0:0:
408,111,1402,1,14,0:0:0:0:
318,47,1732,1,0,3:2:0:0:
318,47,1897,2,0,B|259:57|275:73|213:85,1,110.000003356934,14|0,0:0|3:2,0:0:0:0:
171,50,2391,1,14,0:0:0:0:
80,112,2721,1,14,0:0:0:0:
80,112,2886,2,0,L|63:174,1,55.0000016784668,14|14,0:0|0:0,0:0:0:0:
52,218,3216,5,6,3:1:0:0:
120,303,3545,2,0,P|166:272|231:281,1,110.000003356934,14|0,0:0|3:2,0:0:0:0:
264,305,4040,1,14,0:0:0:0:
362,364,4369,1,0,3:2:0:0:
362,364,4534,2,0,P|377:313|398:249,1,110.000003356934,14|0,0:0|3:2,0:0:0:0:
437,224,5029,1,14,0:0:0:0:
360,153,5358,1,14,0:0:0:0:
360,153,5523,2,0,L|298:170,1,55.0000016784668,14|14,0:0|0:0,0:0:0:0:
268,206,5853,6,0,P|238:197|196:188,1,55.0000016784668,6|0,3:1|3:2,0:0:0:0:
169,159,6183,2,0,P|116:175|53:192,1,110.000003356934,14|0,0:0|3:2,0:0:0:0:
16,160,6677,1,14,0:0:0:0:
55,59,7007,1,0,3:2:0:0:
55,59,7172,2,0,P|51:32|29:5,2,55.0000016784668,14|0|0,0:0|3:2|3:2,0:0:0:0:
107,76,7666,1,14,0:0:0:0:
209,29,7996,1,14,0:0:0:0:
209,29,8161,2,0,P|234:37|269:44,1,55.0000016784668,14|14,0:0|0:0,0:0:0:0:
294,87,8490,6,0,P|326:79|363:72,1,55.0000016784668,6|0,3:1|3:2,0:0:0:0:
401,62,8820,2,0,P|407:41|438:16,2,55.0000016784668,14|0|0,0:0|3:2|3:2,0:0:0:0:
442,98,9314,1,14,0:0:0:0:
380,189,9644,1,0,3:2:0:0:
380,189,9809,6,0,P|392:220|421:308,1,110.000003356934,2|8,3:2|0:0,0:0:0:0:
381,335,10303,1,8,0:0:0:0:
381,335,10468,2,0,P|355:327|314:317,1,55.0000016784668,0|8,3:2|0:0,0:0:0:0:
285,284,10798,2,0,P|258:293|216:304,1,55.0000016784668,8|8,0:0|0:0,0:0:0:0:
190,316,11128,5,2,0:0:0:0:
59,282,11622,1,2,0:0:0:0:
93,151,12117,1,2,0:0:0:0:
225,185,12611,1,2,0:0:0:0:
333,105,13106,1,2,0:0:0:0:
273,24,13435,1,10,0:0:0:0:
175,74,13765,6,0,P|150:66|108:56,1,55.0000016784668,6|0,3:1|0:0,0:0:0:0:
68,45,14095,2,0,P|28:92|36:147,1,110.000003356934,10|2,0:0|3:2,0:0:0:0:
58,191,14589,1,2,3:2:0:0:
58,191,14754,1,10,0:0:0:0:
12,291,15084,2,0,P|45:298|71:307,1,55.0000016784668,6|0,3:1|0:0,0:0:0:0:
114,329,15413,1,10,0:0:0:0:
211,380,15743,2,0,P|244:373|270:364,1,55.0000016784668,6|2,3:1|3:2,0:0:0:0:
313,342,16072,1,10,0:0:0:0:
357,241,16402,6,0,P|328:236|301:217,1,55.0000016784668,6|0,3:1|0:0,0:0:0:0:
273,178,16732,2,0,B|287:124|287:124|282:120|282:120|298:55,1,110.000003356934,10|2,0:0|3:2,0:0:0:0:
341,44,17226,1,2,3:2:0:0:
341,44,17391,1,10,0:0:0:0:
436,98,17721,2,0,P|469:91|495:82,2,55.0000016784668,6|0|10,3:1|0:0|0:0,0:0:0:0:
459,205,18380,2,0,P|492:212|518:221,2,55.0000016784668,2|2|10,3:2|3:2|0:0,0:0:0:0:
372,273,19040,6,0,P|340:281|314:310,1,55.0000016784668,6|0,3:1|0:0,0:0:0:0:
285,334,19369,2,0,B|226:336|244:307|176:311,1,110.000003356934,10|2,0:0|3:2,0:0:0:0:
134,340,19864,1,2,3:2:0:0:
134,340,20029,1,10,0:0:0:0:
57,261,20358,2,0,P|71:238|75:202,1,55.0000016784668,6|0,3:1|0:0,0:0:0:0:
45,164,20688,1,10,0:0:0:0:
134,99,21018,2,0,P|120:76|116:40,1,55.0000016784668,6|2,3:1|3:2,0:0:0:0:
146,2,21348,1,10,0:0:0:0:
253,23,21677,6,0,B|300:33|300:33|309:51|309:51|353:60,1,110.000003356934,6|10,3:1|0:0,0:0:0:0:
398,33,22172,1,2,0:0:0:0:
472,113,22501,1,8,0:0:0:0:
472,113,22666,2,0,P|472:149|455:172,1,55.0000016784668,10|2,0:0|3:2,0:0:0:0:
371,226,23161,1,2,3:2:0:0:
371,226,23325,2,0,P|315:216|253:207,1,110.000003356934,10|8,0:0|0:0,0:0:0:0:
225,175,23820,1,0,3:3:0:0:
225,175,23985,2,0,P|194:186|159:197,1,55.0000016784668,2|0,3:3|3:3,0:0:0:0:
136,166,24314,6,0,P|81:181|62:207,1,89.999997253418,6|0,3:1|3:2,0:0:0:0:
23,287,24974,2,0,P|78:302|97:328,1,89.999997253418,2|0,3:2|3:2,0:0:0:0:
170,378,25633,1,2,3:2:0:0:
239,320,25963,1,2,3:2:0:0:
316,364,26292,2,0,P|360:353|405:343,1,89.999997253418,0|2,3:2|3:2,0:0:0:0:
440,316,26787,1,2,0:0:0:0:
440,316,26952,6,0,B|416:274|416:274|441:218,1,93.0000029090881,6|0,3:2|3:2,0:0:0:0:
504,172,27611,2,0,B|522:131|522:131|498:89,1,93.0000029090881,6|4,3:2|3:2,0:0:0:0:
463,67,28106,1,2,0:0:0:0:
463,67,28270,1,6,3:2:0:0:
373,100,28600,1,6,3:2:0:0:
301,44,28930,1,12,0:0:0:0:
301,44,29095,1,2,3:2:0:0:
208,93,29424,6,0,P|151:61|100:70,1,104.999996795654,6|2,3:1|3:2,0:0:0:0:
71,96,29919,1,8,0:0:0:0:
6,179,30249,2,0,P|18:208|28:237,1,52.4999983978271,2|0,3:2|3:2,0:0:0:0:
74,258,30578,1,8,0:0:0:0:
74,258,30743,2,0,B|110:245|110:245|117:222|117:222|159:209,1,104.999996795654,6|2,3:1|3:2,0:0:0:0:
211,195,31238,1,8,0:0:0:0:
211,195,31402,2,0,B|255:221|255:221|317:205,1,104.999996795654,6|0,3:1|3:2,0:0:0:0:
357,191,31897,1,10,0:0:0:0:
415,122,32227,6,0,P|446:156|437:211,1,89.999997253418,6|0,3:1|3:2,0:0:0:0:
397,274,32886,2,0,P|366:308|375:363,1,89.999997253418,2|0,3:2|3:2,0:0:0:0:
283,382,33545,1,2,3:2:0:0:
211,327,33875,1,2,3:2:0:0:
254,248,34205,2,0,P|244:207|231:152,1,89.999997253418,0|0,3:2|3:2,0:0:0:0:
288,86,34864,6,0,B|247:60|247:60|188:77,1,93.0000029090881,6|0,3:2|3:2,0:0:0:0:
142,141,35523,2,0,B|99:153|99:153|58:127,1,93.0000029090881,6|4,3:2|3:2,0:0:0:0:
19,149,36018,1,10,0:0:0:0:
19,149,36183,1,14,3:2:0:0:
54,238,36512,2,0,P|46:265|37:297,1,48.000001171875,0|0,3:3|3:3,0:0:0:0:
31,334,36842,1,12,0:0:0:0:
31,334,37007,1,6,3:2:0:0:
132,306,37336,6,0,B|191:313|176:337|234:341,1,104.999996795654,6|2,3:1|3:2,0:0:0:0:
273,370,37831,1,8,0:0:0:0:
338,288,38161,2,0,P|370:299|411:311,1,52.4999983978271,2|0,3:2|3:2,0:0:0:0:
442,323,38490,1,8,0:0:0:0:
442,323,38655,2,0,B|470:275|470:275|449:209,1,104.999996795654,6|2,3:1|3:2,0:0:0:0:
419,197,39150,1,8,0:0:0:0:
419,197,39314,2,0,B|404:149|404:149|432:101,1,104.999996795654,6|0,3:1|3:2,0:0:0:0:
461,58,39809,1,10,0:0:0:0:
374,8,40139,5,6,3:2:0:0:
374,8,40303,2,0,P|342:9|318:25,1,52.4999983978271,6|8,3:2|0:0,0:0:0:0:
287,55,40633,1,6,3:2:0:0:
204,118,40963,2,0,P|180:110|144:101,1,52.4999983978271,6|8,3:2|0:0,0:0:0:0:
119,63,41292,2,0,P|60:65|33:109,1,104.999996795654,6|0,3:2|3:2,0:0:0:0:
20,149,41787,1,12,0:0:0:0:
71,240,42117,1,12,0:0:0:0:
171,209,42446,2,0,P|195:217|221:223,1,52.4999983978271,8|8,0:0|0:0,0:0:0:0:
264,262,42776,5,6,3:2:0:0:
264,262,42941,2,0,P|293:251|316:246,1,52.4999983978271,6|8,3:2|0:0,0:0:0:0:
364,233,43270,1,6,3:2:0:0:
311,141,43600,2,0,P|311:119|330:89,1,52.4999983978271,6|8,3:2|0:0,0:0:0:0:
364,58,43930,2,0,B|414:71|414:71|416:78|416:78|472:91,1,104.999996795654,6|0,3:2|3:2,0:0:0:0:
498,125,44424,1,12,0:0:0:0:
436,210,44754,2,0,P|445:238|452:267,1,52.4999983978271,4|0,3:3|3:2,0:0:0:0:
490,294,45084,1,8,3:3:0:0:
403,353,45413,5,6,3:2:0:0:
403,353,45578,2,0,P|377:346|347:341,1,52.4999983978271,6|8,3:2|0:0,0:0:0:0:
300,329,45908,1,6,3:2:0:0:
202,369,46238,2,0,P|190:341|179:316,1,52.4999983978271,6|8,3:2|0:0,0:0:0:0:
142,285,46567,2,0,B|152:248|152:248|172:237|172:237|183:195,1,104.999996795654,6|0,3:2|3:2,0:0:0:0:
226,164,47062,2,0,P|218:139|210:106,1,52.4999983978271,12|2,0:0|3:2,0:0:0:0:
195,63,47391,1,12,0:0:0:0:
107,4,47721,2,0,P|86:28|84:63,1,52.4999983978271,8|8,0:0|0:0,0:0:0:0:
66,98,48051,6,0,P|34:104|-3:116,2,69.9999978637695,6|6|6,3:2|3:2|3:2,0:0:0:0:
122,156,48710,2,0,P|154:162|191:174,2,69.9999978637695,14|6|6,3:2|3:2|3:2,0:0:0:0:
71,219,49369,2,0,P|39:225|2:237,2,69.9999978637695,14|14|14,3:2|3:2|3:2,0:0:0:0:
133,271,50029,1,14,3:2:0:0:
212,339,50358,2,0,P|243:330|284:320,1,52.4999983978271,8|8,0:0|0:0,0:0:0:0:
311,350,50688,5,6,3:1:0:0:
410,303,51018,2,0,P|453:234|406:157,1,165.0000050354,10|0,0:0|3:2,0:0:0:0:
372,137,51677,2,0,P|341:147|309:156,1,55.0000016784668,10|2,0:0|0:0,0:0:0:0:
282,194,52007,6,0,B|242:182|242:182|221:194|221:194|158:177,1,110.000003356934,6|8,3:1|0:0,0:0:0:0:
85,241,52666,2,0,P|81:212|54:187,1,55.0000016784668,6|0,3:1|3:2,0:0:0:0:
21,158,52996,1,8,0:0:0:0:
84,67,53325,6,0,B|136:58|136:58|142:62|142:62|198:53,1,110.000003356934,6|10,3:1|0:0,0:0:0:0:
289,2,53985,2,0,P|317:11|354:21,1,55.0000016784668,2|0,3:2|3:2,0:0:0:0:
393,36,54314,1,8,0:0:0:0:
334,129,54644,6,0,P|320:181|362:239,1,110.000003356934,6|8,3:1|0:0,0:0:0:0:
397,259,55139,1,2,0:0:0:0:
397,259,55303,2,0,P|399:295|382:329,1,55.0000016784668,2|0,3:2|3:2,0:0:0:0:
348,345,55633,2,0,P|318:336|292:330,1,55.0000016784668,10|2,0:0|0:0,0:0:0:0:
246,304,55963,6,0,B|181:313|203:335|134:343,1,110.000003356934,6|8,3:1|0:0,0:0:0:0:
57,273,56622,2,0,P|55:248|72:210,1,55.0000016784668,2|0,3:2|3:2,0:0:0:0:
109,187,56952,2,0,P|111:162|94:124,1,55.0000016784668,10|2,0:0|0:0,0:0:0:0:
76,84,57281,6,0,P|114:40|179:48,1,110.000003356934,6|10,3:1|0:0,0:0:0:0:
253,102,57941,2,0,P|281:91|308:83,1,55.0000016784668,6|0,3:1|3:2,0:0:0:0:
342,44,58270,1,10,0:0:0:0:
342,44,58435,6,0,P|372:51|402:56,1,55.0000016784668,2|6,0:0|3:1,0:0:0:0:
440,22,58765,2,0,P|489:62|493:128,1,110.000003356934,2|0,0:0|0:0,0:0:0:0:
464,149,59260,2,0,P|434:156|398:169,2,55.0000016784668,6|0|8,3:1|3:2|0:0,0:0:0:0:
498,191,59754,1,6,3:1:0:0:
415,262,60084,1,0,3:2:0:0:
415,262,60249,1,12,0:0:0:0:
472,355,60578,2,0,P|448:371|405:373,1,55.0000016784668,2|8,3:2|0:0,0:0:0:0:
371,354,60908,2,0,P|347:338|304:336,1,55.0000016784668,8|8,0:0|0:0,0:0:0:0:
272,359,61238,5,6,3:1:0:0:
187,289,61567,2,0,B|95:298|128:343|26:357,1,165.0000050354,10|0,0:0|3:2,0:0:0:0:
0,314,62227,2,0,P|8:287|17:250,1,55.0000016784668,10|2,0:0|0:0,0:0:0:0:
60,230,62556,6,0,B|45:181|45:181|38:181|38:181|20:125,1,110.000003356934,6|8,3:1|0:0,0:0:0:0:
97,50,63216,2,0,P|129:52|163:73,1,55.0000016784668,6|0,3:1|3:2,0:0:0:0:
195,92,63545,1,8,0:0:0:0:
280,161,63875,6,0,P|322:135|394:147,1,110.000003356934,6|10,3:1|0:0,0:0:0:0:
439,233,64535,2,0,P|410:239|374:252,1,55.0000016784668,2|0,3:2|3:2,0:0:0:0:
345,284,64864,1,8,0:0:0:0:
264,358,65194,6,0,P|251:304|236:248,1,110.000003356934,6|8,3:1|0:0,0:0:0:0:
192,227,65689,1,2,0:0:0:0:
192,227,65853,2,0,P|190:191|207:157,1,55.0000016784668,2|0,3:2|3:2,0:0:0:0:
236,135,66183,2,0,P|238:99|221:65,1,55.0000016784668,10|2,0:0|0:0,0:0:0:0:
192,43,66513,6,0,B|127:52|149:74|80:82,1,110.000003356934,6|8,3:1|0:0,0:0:0:0:
40,178,67172,2,0,P|48:209|55:241,1,55.0000016784668,2|0,3:2|3:2,0:0:0:0:
101,257,67501,2,0,P|93:288|86:320,1,55.0000016784668,10|2,0:0|0:0,0:0:0:0:
118,356,67831,6,0,B|167:341|167:341|173:346|173:346|224:331,1,110.000003356934,6|10,3:1|0:0,0:0:0:0:
294,248,68491,2,0,P|322:259|349:267,1,55.0000016784668,6|0,3:1|3:2,0:0:0:0:
390,307,68820,1,10,0:0:0:0:
390,307,68985,6,0,P|420:299|450:295,1,55.0000016784668,2|6,0:0|3:1,0:0:0:0:
482,256,69315,2,0,P|467:205|455:146,1,110.000003356934,2|0,0:0|0:0,0:0:0:0:
409,118,69810,2,0,P|419:87|427:51,1,55.0000016784668,0|0,3:2|3:2,0:0:0:0:
441,12,70139,1,8,0:0:0:0:
332,29,70468,6,0,B|283:37|283:37|279:45|279:45|216:56,1,110.000003356934,14|0,0:0|3:2,0:0:0:0:
180,39,70963,1,0,1:0:0:0:
180,39,71128,2,0,P|159:64|155:105,1,55.0000016784668,10|0,3:3|3:2,0:0:0:0:
116,125,71457,2,0,P|127:155|160:179,1,55.0000016784668,10|2,3:3|3:2,0:0:0:0:
179,198,71787,5,4,3:2:0:0:
179,198,73106,6,0,P|228:187|297:177,1,99.9999999999999,4|8,3:2|0:0,0:0:0:0:
315,146,73600,1,8,0:0:0:0:
315,146,73765,2,0,P|343:156|375:165,1,50,8|8,0:0|3:3,0:0:0:0:
409,179,74095,1,14,0:0:0:0:
471,269,74424,6,0,P|469:305|451:332,1,55.0000016784668,6|2,3:1|0:0,0:0:0:0:
420,359,74754,1,10,0:0:0:0:
326,301,75084,2,0,P|294:309|253:318,1,55.0000016784668,10|2,0:0|3:2,0:0:0:0:
233,353,75413,2,0,P|201:345|160:336,1,55.0000016784668,10|2,0:0|3:2,0:0:0:0:
129,363,75743,5,14,0:0:0:0:
53,282,76073,1,10,0:0:0:0:
134,207,76402,2,0,P|136:183|116:140,1,55.0000016784668,14|2,0:0|3:2,0:0:0:0:
79,125,76732,2,0,L|97:58,1,55.0000016784668,12|2,0:0|3:2,0:0:0:0:
131,39,77062,6,0,P|156:46|188:55,1,55.0000016784668,12|2,0:0|3:2,0:0:0:0:
237,65,77391,1,10,0:0:0:0:
318,139,77721,2,0,P|347:131|373:126,1,55.0000016784668,10|2,0:0|3:2,0:0:0:0:
410,87,78051,2,0,P|439:94|465:100,1,55.0000016784668,10|2,0:0|3:2,0:0:0:0:
493,146,78380,5,14,0:0:0:0:
416,224,78710,1,10,0:0:0:0:
478,314,79040,2,0,P|453:329|416:335,1,55.0000016784668,14|0,0:0|3:2,0:0:0:0:
380,362,79369,2,0,P|354:347|330:318,1,55.0000016784668,12|0,0:0|3:2,0:0:0:0:
297,290,79699,6,0,P|270:298|232:309,1,55.0000016784668,12|2,0:0|3:2,0:0:0:0:
193,327,80029,1,10,0:0:0:0:
106,258,80358,2,0,P|116:231|125:199,1,55.0000016784668,10|2,0:0|3:2,0:0:0:0:
142,153,80688,1,10,0:0:0:0:
185,51,81018,6,0,P|214:39|253:44,1,55.0000016784668,14|2,0:0|3:2,0:0:0:0:
285,12,81347,2,0,P|309:31|325:67,1,55.0000016784668,14|2,0:0|3:2,0:0:0:0:
368,79,81677,2,0,P|363:110|340:141,1,55.0000016784668,14|2,0:0|3:2,0:0:0:0:
350,185,82007,2,0,P|320:197|281:192,1,55.0000016784668,14|0,0:0|3:2,0:0:0:0:
261,223,82336,5,2,0:0:0:0:
130,189,82831,1,2,0:0:0:0:
96,320,83325,1,2,0:0:0:0:
227,354,83820,1,2,0:0:0:0:
261,223,84314,1,2,0:0:0:0:
343,288,84644,5,14,3:2:0:0:
343,288,84809,1,14,3:2:0:0:
256,192,84974,12,0,88270,0:0:0:0:
