osu file format v14

[General]
AudioFilename: audio.mp3
AudioLeadIn: 0
PreviewTime: 49946
Countdown: 0
SampleSet: Soft
StackLeniency: 0.4
Mode: 0
LetterboxInBreaks: 0
WidescreenStoryboard: 1

[Editor]
DistanceSpacing: 1.4
BeatDivisor: 4
GridSize: 32
TimelineZoom: 1.8

[Metadata]
Title:Haruka Mirai
TitleUnicode:ハルカミライ
Artist:NateWantsToBattle
ArtistUnicode:NateWantsToBattle
Creator:Smoke
Version:Hard
Source:ブラッククローバー
Tags:black clover rock english anime nwtb tv size opening op 1 one cover asta Kankaku Piero 感覚ピエロ nymphe Kiyoshi Guarden
BeatmapID:3165845
BeatmapSetID:1549104

[Difficulty]
HPDrainRate:4.6
CircleSize:3.5
OverallDifficulty:6.5
ApproachRate:8
SliderMultiplier:1.3
SliderTickRate:1

[Events]
//Background and Video events
0,0,"black clover bg.jpg",0,0
Video,-403,"vid.mp4"
//Break Periods
//Storyboard Layer 0 (Background)
//Storyboard Layer 1 (Fail)
//Storyboard Layer 2 (Pass)
//Storyboard Layer 3 (Foreground)
//Storyboard Layer 4 (Overlay)
//Storyboard Sound Samples

[TimingPoints]
-740,329.67032967033,4,2,1,70,1,0
249,-100,4,2,1,55,0,0
496,-100,4,2,1,55,0,0
578,-100,4,2,1,65,0,0
5853,-95.2380952380952,4,2,1,70,0,0
8490,-90.9090909090909,4,2,1,75,0,0
9809,-86.9565217391304,4,2,1,80,0,0
11128,-111.111111111111,4,2,1,50,0,0
13435,-99.9999999999999,4,2,1,70,0,0
13683,-99.9999999999999,4,2,1,5,0,0
13765,-90.9090909090909,4,2,1,75,0,0
24314,-111.111111111111,4,2,1,60,0,0
26952,-107.52688172043,4,2,1,65,0,0
28270,-104.166666666667,4,2,1,70,0,0
29342,-104.166666666667,4,2,1,5,0,0
29424,-95.2380952380952,4,2,1,75,0,0
32227,-111.111111111111,4,2,1,60,0,0
34864,-107.52688172043,4,2,1,65,0,0
36183,-104.166666666667,4,2,1,70,0,0
37336,-95.2380952380952,4,2,1,75,0,0
48270,-95.2380952380952,4,2,1,70,0,0
48435,-95.2380952380952,4,2,1,5,0,0
48490,-95.2380952380952,4,2,1,70,0,0
48655,-95.2380952380952,4,2,1,5,0,0
48710,-95.2380952380952,4,2,1,75,0,0
48875,-95.2380952380952,4,2,1,5,0,0
48929,-95.2380952380952,4,2,1,75,0,0
49094,-95.2380952380952,4,2,1,5,0,0
49149,-95.2380952380952,4,2,1,75,0,0
49314,-95.2380952380952,4,2,1,5,0,0
49369,-95.2380952380952,4,2,1,75,0,0
49534,-95.2380952380952,4,2,1,5,0,0
49588,-95.2380952380952,4,2,1,75,0,0
49753,-95.2380952380952,4,2,1,5,0,0
49808,-95.2380952380952,4,2,1,75,0,0
49973,-95.2380952380952,4,2,1,5,0,0
50029,-95.2380952380952,4,2,1,75,0,0
50194,-95.2380952380952,4,2,1,50,0,0
50276,-95.2380952380952,4,2,1,55,0,0
50358,-95.2380952380952,4,2,1,60,0,0
50441,-95.2380952380952,4,2,1,65,0,0
50523,-95.2380952380952,4,2,1,70,0,0
50606,-95.2380952380952,4,2,1,75,0,0
50688,-90.9090909090909,4,2,1,80,0,1
50935,-90.9090909090909,4,2,1,5,0,1
51018,-90.9090909090909,4,2,1,80,0,1
52254,-90.9090909090909,4,2,1,5,0,1
52337,-90.9090909090909,4,2,1,80,0,1
53573,-90.9090909090909,4,2,1,5,0,1
53656,-90.9090909090909,4,2,1,80,0,1
54562,-90.9090909090909,4,2,1,5,0,1
54645,-90.9090909090909,4,2,1,80,0,1
56210,-90.9090909090909,4,2,1,5,0,1
56293,-90.9090909090909,4,2,1,80,0,1
57529,-90.9090909090909,4,2,1,5,0,1
57612,-90.9090909090909,4,2,1,80,0,1
58847,-90.9090909090909,4,2,1,5,0,1
58930,-90.9090909090909,4,2,1,80,0,1
60743,-90.9090909090909,4,2,1,50,0,1
60825,-90.9090909090909,4,2,1,55,0,1
60907,-90.9090909090909,4,2,1,60,0,1
60990,-90.9090909090909,4,2,1,65,0,1
61072,-90.9090909090909,4,2,1,70,0,1
61155,-90.9090909090909,4,2,1,75,0,1
61237,-90.9090909090909,4,2,1,80,0,1
61485,-90.9090909090909,4,2,1,5,0,1
61568,-90.9090909090909,4,2,1,80,0,1
62803,-90.9090909090909,4,2,1,5,0,1
62886,-90.9090909090909,4,2,1,80,0,1
64122,-90.9090909090909,4,2,1,5,0,1
64205,-90.9090909090909,4,2,1,80,0,1
65111,-90.9090909090909,4,2,1,5,0,1
65194,-90.9090909090909,4,2,1,80,0,1
66760,-90.9090909090909,4,2,1,5,0,1
66843,-90.9090909090909,4,2,1,80,0,1
68078,-90.9090909090909,4,2,1,5,0,1
68161,-90.9090909090909,4,2,1,80,0,1
69397,-90.9090909090909,4,2,1,5,0,1
69480,-90.9090909090909,4,2,1,80,0,1
71787,-111.111111111111,4,2,1,70,0,0
73106,-100,4,2,1,75,0,0
73435,-100,4,2,1,45,0,0
73517,-100,4,2,1,50,0,0
73600,-100,4,2,1,55,0,0
73682,-100,4,2,1,65,0,0
73765,-100,4,2,1,75,0,0
74095,-100,4,2,1,80,0,0
74342,-100,4,2,1,5,0,0
74424,-86.9565217391304,4,2,1,85,0,1
82336,-111.111111111111,4,2,1,50,0,0
84644,-100,4,2,1,75,0,0
85303,-100,4,2,1,65,0,0
85963,-100,4,2,1,55,0,0
86622,-100,4,2,1,45,0,0
87281,-100,4,2,1,32,0,0
87941,-100,4,2,1,18,0,0
88270,-100,4,2,1,5,0,0

[Colours]
Combo1 : 150,28,10
Combo2 : 196,183,19
Combo3 : 225,0,0
Combo4 : 117,112,15

[HitObjects]
39,353,249,6,0,P|82:327|151:342,1,97.5,2|2,0:0|0:0,0:0:0:0:
155,293,578,6,0,P|143:260|127:224,1,65,6|0,3:1|0:0,0:0:0:0:
94,153,908,1,14,0:0:0:0:
94,153,1073,2,0,P|120:127|158:126,1,65,0|0,3:2|3:2,0:0:0:0:
226,79,1402,2,0,P|236:45|247:17,2,65,14|0|0,0:0|3:2|3:2,0:0:0:0:
291,150,1897,1,14,0:0:0:0:
291,150,2062,2,0,P|317:176|356:178,1,65,0|0,3:2|3:2,0:0:0:0:
422,134,2391,2,0,P|432:167|442:197,1,65,14|0,0:0|3:2,0:0:0:0:
506,260,2721,1,14,0:0:0:0:
423,297,2886,1,14,0:0:0:0:
336,324,3051,1,14,0:0:0:0:
271,260,3216,6,0,P|241:249|194:240,1,65,6|0,3:1|3:2,0:0:0:0:
135,294,3545,1,14,0:0:0:0:
135,294,3710,2,0,P|125:261|110:220,1,65,0|0,3:2|3:2,0:0:0:0:
77,148,4040,2,0,P|43:147|12:162,2,65,14|0|0,0:0|3:2|3:2,0:0:0:0:
155,99,4534,1,14,0:0:0:0:
155,99,4699,2,0,P|165:66|181:27,1,65,0|0,3:2|3:2,0:0:0:0:
262,5,5029,2,0,P|296:4|329:23,1,65,14|0,0:0|3:2,0:0:0:0:
389,79,5358,1,14,0:0:0:0:
332,150,5523,1,14,0:0:0:0:
398,212,5688,1,14,0:0:0:0:
347,293,5853,6,0,P|309:299|266:310,1,68.2499979171754,6|0,3:1|3:2,0:0:0:0:
208,369,6183,1,14,0:0:0:0:
208,369,6347,2,0,P|188:344|183:300,1,68.2499979171754,0|0,3:2|3:2,0:0:0:0:
94,280,6678,1,14,0:0:0:0:
94,280,6842,2,0,P|114:255|119:211,1,68.2499979171754,0|0,3:2|3:2,0:0:0:0:
209,178,7172,1,14,0:0:0:0:
209,178,7336,2,0,P|189:153|184:109,1,68.2499979171754,0|0,3:2|3:2,0:0:0:0:
97,85,7666,2,0,P|117:60|122:16,1,68.2499979171754,14|0,0:0|3:2,0:0:0:0:
216,1,7996,1,14,0:0:0:0:
301,43,8161,1,14,0:0:0:0:
389,78,8325,1,14,0:0:0:0:
327,156,8490,6,0,P|337:190|346:224,1,71.5000021820069,6|0,3:1|3:2,0:0:0:0:
437,279,8820,1,14,0:0:0:0:
437,279,8985,2,0,P|423:317|411:355,1,71.5000021820069,0|0,3:2|3:2,0:0:0:0:
322,382,9314,1,14,0:0:0:0:
322,382,9479,2,0,P|311:344|296:306,1,71.5000021820069,0|0,3:2|3:2,0:0:0:0:
204,268,9809,6,0,P|183:274|163:282,2,37.3750007128716,2|0|0,3:2|3:2|3:2,0:0:0:0:
287,203,10139,2,0,P|294:172|306:125,1,74.7500014257431,8|8,0:0|0:0,0:0:0:0:
323,83,10386,1,8,0:0:0:0:
323,83,10468,1,0,3:2:0:0:
242,34,10633,1,8,0:0:0:0:
242,34,10716,1,8,0:0:0:0:
242,34,10798,2,0,P|222:40|200:46,3,37.3750007128716,8|8|8|8,0:0|0:0|0:0|0:0,0:0:0:0:
174,71,11128,6,0,P|145:63|97:54,2,58.4999982147217,2|0|0,0:0|0:0|0:0,0:0:0:0:
153,150,11622,2,0,P|124:142|76:133,2,58.4999982147217,2|0|0,0:0|0:0|0:0,0:0:0:0:
203,215,12117,2,0,P|232:207|280:198,2,58.4999982147217,2|0|0,0:0|0:0|0:0,0:0:0:0:
224,294,12611,2,0,P|253:286|301:277,2,58.4999982147217,2|0|0,0:0|0:0|0:0,0:0:0:0:
163,350,13106,2,0,P|134:342|86:333,1,58.4999982147217,2|0,0:0|0:0,0:0:0:0:
37,276,13435,2,0,P|67:245|52:170,1,97.5,10|0,0:0|0:0,0:0:0:0:
33,155,13765,6,0,P|43:120|51:79,1,71.5000021820069,6|0,3:1|0:0,0:0:0:0:
134,30,14095,2,0,P|160:49|216:50,1,71.5000021820069,10|0,0:0|0:0,0:0:0:0:
286,7,14424,1,2,3:2:0:0:
286,7,14589,1,2,3:2:0:0:
359,75,14754,2,0,P|369:110|377:151,1,71.5000021820069,10|0,0:0|0:0,0:0:0:0:
279,225,15084,6,0,P|221:184|152:191,1,143.000004364014,6|10,3:1|0:0,0:0:0:0:
66,242,15578,1,0,0:0:0:0:
127,321,15743,2,0,P|161:309|204:298,1,71.5000021820069,6|2,3:1|3:2,0:0:0:0:
277,359,16073,1,10,0:0:0:0:
454,266,16402,6,0,P|443:233|428:177,1,71.5000021820069,6|0,3:1|0:0,0:0:0:0:
492,115,16732,2,0,P|502:82|518:26,1,71.5000021820069,10|0,0:0|0:0,0:0:0:0:
426,5,17062,1,2,3:2:0:0:
426,5,17227,1,2,3:2:0:0:
348,67,17391,2,0,P|307:68|271:43,1,71.5000021820069,10|0,0:0|0:0,0:0:0:0:
189,11,17721,6,0,P|178:48|161:98,1,71.5000021820069,6|0,3:1|0:0,0:0:0:0:
83,135,18051,1,10,0:0:0:0:
237,270,18380,1,2,3:2:0:0:
237,270,18545,1,2,3:2:0:0:
156,329,18710,2,0,P|145:294|134:260,1,71.5000021820069,10|0,0:0|0:0,0:0:0:0:
222,166,19040,6,0,P|258:166|300:195,1,71.5000021820069,6|0,3:1|0:0,0:0:0:0:
367,244,19369,2,0,P|377:211|388:175,1,71.5000021820069,10|0,0:0|0:0,0:0:0:0:
472,120,19699,1,2,3:2:0:0:
472,120,19864,1,2,3:2:0:0:
403,47,20029,2,0,P|370:57|334:68,1,71.5000021820069,10|0,0:0|0:0,0:0:0:0:
230,6,20358,6,0,B|169:20|169:20|164:28|164:28|87:48,1,143.000004364014,6|10,3:1|0:0,0:0:0:0:
33,125,20853,1,0,0:0:0:0:
108,190,21018,2,0,P|111:229|87:266,1,71.5000021820069,6|2,3:1|3:2,0:0:0:0:
4,294,21347,1,10,0:0:0:0:
185,379,21677,6,0,P|200:316|223:229,1,143.000004364014,6|10,3:1|0:0,0:0:0:0:
306,189,22172,2,0,P|294:155|281:102,1,71.5000021820069,2|0,0:0|3:2,0:0:0:0:
349,46,22501,1,8,0:0:0:0:
349,46,22584,1,8,0:0:0:0:
349,46,22666,1,10,0:0:0:0:
434,97,22831,2,0,P|461:142|438:227,1,143.000004364014,2|2,3:2|3:2,0:0:0:0:
493,309,23325,2,0,P|456:318|417:329,1,71.5000021820069,10|8,0:0|0:0,0:0:0:0:
394,369,23573,1,8,0:0:0:0:
394,369,23655,1,8,0:0:0:0:
320,318,23820,1,0,3:3:0:0:
320,318,23902,1,0,3:3:0:0:
320,318,23985,2,0,P|298:324|273:332,3,35.7500010910034,2|0|0|0,3:3|3:3|3:3|3:3,0:0:0:0:
254,353,24314,6,0,B|188:347|205:372|137:362,1,116.999996429443,6|0,3:1|3:2,0:0:0:0:
32,236,24974,2,0,B|98:230|81:255|149:245,1,116.999996429443,2|0,3:2|3:2,0:0:0:0:
208,190,25468,1,2,0:0:0:0:
208,190,25633,2,0,P|207:159|179:128,2,58.4999982147217,2|2|2,3:2|0:0|3:2,0:0:0:0:
275,237,26128,2,0,P|316:222|349:154,1,116.999996429443,2|2,0:0|0:0,0:0:0:0:
388,88,26622,2,0,P|360:79|333:67,1,58.4999982147217,2|2,3:2|0:0,0:0:0:0:
270,9,26952,6,0,P|208:27|152:43,1,120.900003781815,6|0,3:2|3:2,0:0:0:0:
32,160,27611,2,0,P|93:178|150:194,1,120.900003781815,6|4,3:2|3:2,0:0:0:0:
204,264,28106,1,2,0:0:0:0:
204,264,28270,2,0,P|215:293|225:323,1,62.4000015234375,6|0,3:2|0:0,0:0:0:0:
298,371,28600,2,0,P|307:341|318:312,1,62.4000015234375,6|2,3:2|0:0,0:0:0:0:
388,258,28930,1,12,0:0:0:0:
325,196,29095,1,2,3:2:0:0:
476,44,29424,6,0,B|453:63|428:53|428:53|411:72|411:72|381:63|356:84,1,136.499995834351,6|2,3:1|3:2,0:0:0:0:
270,39,29919,2,0,P|239:27|193:34,1,68.2499979171754,8|2,0:0|0:0,0:0:0:0:
131,91,30249,2,0,P|142:125|155:167,1,68.2499979171754,2|0,3:2|3:2,0:0:0:0:
232,206,30578,1,8,0:0:0:0:
173,301,30743,6,0,P|118:258|35:273,1,136.499995834351,6|2,3:1|3:2,0:0:0:0:
0,183,31238,1,8,0:0:0:0:
82,92,31402,6,0,B|145:73|145:73|153:78|153:78|224:59,1,136.499995834351,6|0,3:1|3:2,0:0:0:0:
253,87,31814,1,0,3:2:0:0:
253,87,31897,2,0,P|287:102|324:98,1,68.2499979171754,10|0,0:0|0:0,0:0:0:0:
398,28,32227,6,0,P|454:23|511:71,1,116.999996429443,6|0,3:1|3:2,0:0:0:0:
417,196,32886,2,0,P|361:191|304:239,1,116.999996429443,2|0,3:2|3:2,0:0:0:0:
341,305,33380,1,2,0:0:0:0:
341,305,33545,2,0,P|351:334|361:370,2,58.4999982147217,2|2|2,3:2|0:0|3:2,0:0:0:0:
312,223,34040,2,0,P|320:194|329:167,1,58.4999982147217,2|0,0:0|3:2,0:0:0:0:
398,122,34369,2,0,P|389:93|380:66,2,58.4999982147217,2|0|0,0:0|3:2|0:0,0:0:0:0:
329,167,34864,6,0,B|279:133|279:133|211:150,1,120.900003781815,6|0,3:2|3:2,0:0:0:0:
88,40,35523,2,0,B|146:25|146:25|196:59,1,120.900003781815,6|4,3:2|3:2,0:0:0:0:
140,123,36018,1,10,0:0:0:0:
140,123,36100,1,8,0:0:0:0:
140,123,36183,2,0,P|120:149|124:199,1,62.4000015234375,14|0,3:2|0:0,0:0:0:0:
79,256,36512,2,0,P|100:260|125:269,3,31.2000007617188,0|0|0|0,3:3|3:3|3:3|3:3,0:0:0:0:
131,301,36842,1,12,0:0:0:0:
193,240,37007,1,6,3:2:0:0:
382,364,37336,6,0,B|375:336|345:328|345:328|379:291|354:231,1,136.499995834351,6|2,3:1|3:2,0:0:0:0:
439,195,37831,2,0,P|448:163|461:130,1,68.2499979171754,8|2,0:0|0:0,0:0:0:0:
406,50,38161,2,0,P|373:48|326:80,1,68.2499979171754,2|0,3:2|3:2,0:0:0:0:
261,115,38490,1,8,0:0:0:0:
183,30,38655,6,0,B|105:36|134:64|46:71,1,136.499995834351,6|2,3:1|3:2,0:0:0:0:
0,157,39150,1,8,0:0:0:0:
90,242,39314,2,0,P|139:228|219:266,1,136.499995834351,6|0,3:1|3:2,0:0:0:0:
263,245,39727,1,0,3:2:0:0:
263,245,39809,2,0,P|274:202|287:162,1,68.2499979171754,10|2,0:0|0:0,0:0:0:0:
229,99,40139,5,6,3:2:0:0:
229,99,40303,2,0,P|242:67|280:47,1,68.2499979171754,6|8,3:2|0:0,0:0:0:0:
365,39,40633,2,0,P|397:52|417:90,1,68.2499979171754,6|0,3:2|0:0,0:0:0:0:
426,173,40963,2,0,P|415:206|377:226,1,68.2499979171754,6|8,3:2|0:0,0:0:0:0:
436,305,41292,6,0,P|383:271|308:282,1,136.499995834351,6|0,3:2|3:2,0:0:0:0:
287,322,41705,1,0,3:2:0:0:
287,322,41787,2,0,P|249:329|213:340,1,68.2499979171754,12|2,0:0|3:2,0:0:0:0:
147,274,42117,2,0,P|156:241|162:207,1,68.2499979171754,12|0,0:0|3:2,0:0:0:0:
96,138,42446,1,8,0:0:0:0:
177,87,42611,2,0,P|202:93|231:99,1,34.1249989585877,8|8,0:0|0:0,0:0:0:0:
272,156,42776,5,6,3:2:0:0:
272,156,42941,2,0,P|308:145|340:139,1,68.2499979171754,6|8,3:2|0:0,0:0:0:0:
413,197,43270,2,0,P|421:160|432:129,1,68.2499979171754,6|0,3:2|0:0,0:0:0:0:
510,76,43600,2,0,P|482:50|461:25,1,68.2499979171754,6|8,3:2|0:0,0:0:0:0:
355,44,43930,6,0,P|297:29|214:10,1,136.499995834351,6|0,3:2|3:2,0:0:0:0:
182,34,44342,1,0,3:2:0:0:
182,34,44424,2,0,P|156:58|114:59,1,68.2499979171754,12|2,0:0|3:2,0:0:0:0:
32,32,44754,1,4,3:3:0:0:
66,135,44919,1,0,3:2:0:0:
66,135,45001,1,0,3:2:0:0:
66,135,45084,2,0,P|60:155|53:184,3,34.1249989585877,8|0|0|0,3:3|3:2|3:2|3:2,0:0:0:0:
4,228,45413,5,6,3:2:0:0:
4,228,45578,2,0,P|14:264|21:300,1,68.2499979171754,6|8,3:2|0:0,0:0:0:0:
106,335,45908,2,0,P|112:301|122:268,1,68.2499979171754,6|0,3:2|0:0,0:0:0:0:
199,212,46238,2,0,P|205:245|215:278,1,68.2499979171754,6|8,3:2|0:0,0:0:0:0:
319,314,46567,6,0,P|367:271|449:286,1,136.499995834351,6|0,3:2|3:2,0:0:0:0:
485,292,46979,1,0,3:2:0:0:
485,292,47062,2,0,P|499:265|496:217,1,68.2499979171754,12|2,0:0|3:2,0:0:0:0:
433,158,47391,2,0,P|419:131|422:83,1,68.2499979171754,12|2,0:0|3:2,0:0:0:0:
351,25,47721,1,8,0:0:0:0:
269,87,47886,1,8,0:0:0:0:
269,87,47968,1,8,0:0:0:0:
269,87,48051,6,0,P|257:42|242:-8,2,90.9999972229005,6|6|6,3:2|3:2|3:2,0:0:0:0:
180,179,48710,2,0,P|162:233|153:274,2,90.9999972229005,14|6|6,3:2|3:2|3:2,0:0:0:0:
84,94,49369,1,14,3:2:0:0:
8,196,49589,1,14,3:2:0:0:
47,317,49809,1,14,3:2:0:0:
169,353,50029,6,0,P|213:338|259:325,1,68.2499979171754,14|8,3:2|0:0,0:0:0:0:
305,267,50358,1,8,0:0:0:0:
305,267,50441,1,8,0:0:0:0:
305,267,50523,1,8,0:0:0:0:
305,267,50606,1,8,0:0:0:0:
305,267,50688,6,0,P|340:278|376:285,1,71.5000021820069,6|0,3:1|0:0,0:0:0:0:
454,346,51018,2,0,P|513:280|475:165,1,214.500006546021,10|0,0:0|3:2,0:0:0:0:
395,114,51677,1,10,0:0:0:0:
395,114,51842,1,2,0:0:0:0:
289,168,52007,6,0,B|269:145|232:143|232:143|204:178|150:168,1,143.000004364014,6|8,3:1|0:0,0:0:0:0:
7,40,52666,2,0,P|43:60|85:59,1,71.5000021820069,6|0,3:1|3:2,0:0:0:0:
164,20,52996,2,0,P|200:0|242:1,1,71.5000021820069,8|2,0:0|0:0,0:0:0:0:
308,60,53325,2,0,B|350:47|350:47|371:57|371:57|419:42,1,107.25000327301,6|0,3:1|0:0,0:0:0:0:
455,64,53655,1,10,0:0:0:0:
338,227,53985,1,2,3:2:0:0:
338,227,54150,1,0,3:2:0:0:
424,275,54314,2,0,P|444:309|441:349,1,71.5000021820069,8|0,0:0|0:0,0:0:0:0:
353,383,54644,6,0,P|288:364|212:347,1,143.000004364014,6|8,3:1|0:0,0:0:0:0:
122,382,55139,1,2,0:0:0:0:
122,382,55303,2,0,P|112:350|94:302,1,71.5000021820069,2|0,3:2|3:2,0:0:0:0:
20,251,55633,1,10,0:0:0:0:
89,178,55798,1,2,0:0:0:0:
29,77,55963,6,0,P|66:34|150:42,1,143.000004364014,6|8,3:1|0:0,0:0:0:0:
287,182,56622,2,0,P|328:166|366:156,1,71.5000021820069,2|0,3:2|3:2,0:0:0:0:
447,197,56952,1,10,0:0:0:0:
511,120,57117,1,2,0:0:0:0:
435,30,57281,6,0,P|385:22|325:66,1,107.25000327301,6|0,3:1|0:0,0:0:0:0:
297,78,57611,2,0,P|256:62|218:52,1,71.5000021820069,10|0,0:0|0:0,0:0:0:0:
157,124,57941,2,0,P|176:155|177:193,1,71.5000021820069,6|0,3:1|3:2,0:0:0:0:
111,264,58270,1,10,0:0:0:0:
111,264,58435,6,0,P|91:293|88:329,1,71.5000021820069,2|6,0:0|3:1,0:0:0:0:
173,381,58765,2,0,P|247:359|319:343,1,143.000004364014,2|0,0:0|0:0,0:0:0:0:
425,384,59260,2,0,P|433:350|447:305,2,71.5000021820069,6|0|8,3:1|3:2|0:0,0:0:0:0:
366,256,59754,2,0,P|351:209|393:122,1,143.000004364014,6|0,3:1|3:2,0:0:0:0:
472,180,60249,1,12,0:0:0:0:
332,37,60578,2,0,P|295:46|251:57,1,71.5000021820069,2|8,3:2|0:0,0:0:0:0:
198,131,60908,1,8,0:0:0:0:
198,131,60990,1,8,0:0:0:0:
198,131,61073,1,8,0:0:0:0:
198,131,61155,1,8,0:0:0:0:
198,131,61238,6,0,P|220:158|219:204,1,71.5000021820069,6|0,3:1|0:0,0:0:0:0:
319,219,61567,2,0,P|207:243|89:272,1,214.500006546021,10|0,0:0|3:2,0:0:0:0:
37,205,62227,1,10,0:0:0:0:
37,205,62391,1,2,0:0:0:0:
86,99,62556,6,0,B|156:112|156:112|160:121|160:121|227:133,1,143.000004364014,6|8,3:1|0:0,0:0:0:0:
396,33,63216,2,0,P|416:69|415:111,1,71.5000021820069,6|0,3:1|3:2,0:0:0:0:
490,168,63546,2,0,P|470:204|471:246,1,71.5000021820069,8|2,0:0|0:0,0:0:0:0:
510,344,63875,6,0,B|449:345|469:367|399:365,1,107.25000327301,6|0,3:1|0:0,0:0:0:0:
366,334,64205,1,10,0:0:0:0:
174,383,64535,1,2,3:2:0:0:
174,383,64700,1,0,3:2:0:0:
242,311,64864,2,0,P|240:275|221:245,1,71.5000021820069,8|0,0:0|0:0,0:0:0:0:
145,179,65194,6,0,P|75:163|6:143,1,143.000004364014,6|8,3:1|0:0,0:0:0:0:
50,55,65689,1,2,0:0:0:0:
50,55,65853,2,0,P|82:46|130:29,1,71.5000021820069,2|0,3:2|3:2,0:0:0:0:
214,2,66183,1,10,0:0:0:0:
286,71,66348,1,2,0:0:0:0:
391,25,66513,6,0,B|431:71|431:71|400:154,1,143.000004364014,6|8,3:1|0:0,0:0:0:0:
320,203,67007,1,0,0:0:0:0:
320,203,67172,2,0,P|279:187|241:177,1,71.5000021820069,2|0,3:2|3:2,0:0:0:0:
155,150,67502,1,10,0:0:0:0:
229,82,67667,1,2,0:0:0:0:
137,8,67831,6,0,P|87:0|27:44,1,107.25000327301,6|0,3:1|0:0,0:0:0:0:
19,72,68161,2,0,P|35:113|45:151,1,71.5000021820069,10|0,0:0|0:0,0:0:0:0:
121,202,68491,2,0,P|102:233|101:271,1,71.5000021820069,6|0,3:1|3:2,0:0:0:0:
179,336,68820,1,10,0:0:0:0:
179,336,68985,6,0,P|208:316|244:313,1,71.5000021820069,2|6,0:0|3:1,0:0:0:0:
333,357,69315,2,0,P|348:287|369:218,1,143.000004364014,2|0,0:0|0:0,0:0:0:0:
459,175,69809,2,0,P|448:143|436:94,1,71.5000021820069,0|0,3:2|3:2,0:0:0:0:
501,27,70139,1,8,0:0:0:0:
306,115,70468,6,0,B|226:105|258:75|143:63,1,143.000004364014,14|0,0:0|3:2,0:0:0:0:
93,129,70963,1,0,1:0:0:0:
93,129,71045,1,0,1:0:0:0:
93,129,71128,2,0,P|102:156|108:182,3,35.7500010910034,10|0|0|0,3:3|3:2|3:2|3:2,0:0:0:0:
138,198,71457,2,0,P|129:225|123:251,3,35.7500010910034,10|0|2|0,3:3|3:2|3:2|3:2,0:0:0:0:
117,272,71787,5,4,3:2:0:0:
117,272,73106,6,0,L|254:293,1,130,4|8,3:2|0:0,0:0:0:0:
322,340,73600,2,0,P|329:359|338:385,2,32.5,8|8|8,0:0|0:0|0:0,0:0:0:0:
410,305,73930,1,8,3:3:0:0:
410,305,74012,1,8,3:3:0:0:
410,305,74095,2,0,P|434:280|425:198,1,97.5,14|0,0:0|0:0,0:0:0:0:
406,178,74424,6,0,P|422:128|433:90,1,74.7500014257431,6|2,3:1|0:0,0:0:0:0:
359,26,74754,1,10,0:0:0:0:
279,91,74919,1,2,3:2:0:0:
279,91,75001,1,0,3:2:0:0:
279,91,75084,2,0,P|238:95|194:63,1,74.7500014257431,10|2,0:0|3:2,0:0:0:0:
132,9,75413,2,0,P|91:5|47:37,1,74.7500014257431,10|2,0:0|3:2,0:0:0:0:
8,110,75743,6,0,P|21:150|32:193,1,74.7500014257431,14|0,0:0|3:2,0:0:0:0:
75,216,75990,1,0,3:2:0:0:
75,216,76073,2,0,P|61:258|53:291,1,74.7500014257431,10|0,0:0|3:2,0:0:0:0:
135,361,76402,1,14,0:0:0:0:
227,306,76567,1,2,3:2:0:0:
227,306,76650,1,0,3:2:0:0:
227,306,76732,2,0,P|216:271|201:220,1,74.7500014257431,12|2,0:0|3:2,0:0:0:0:
273,153,77062,5,12,0:0:0:0:
373,209,77227,1,2,3:2:0:0:
373,209,77309,1,0,3:2:0:0:
373,209,77391,2,0,P|411:207|445:179,1,74.7500014257431,10|2,0:0|3:2,0:0:0:0:
497,97,77721,2,0,P|459:95|425:67,1,74.7500014257431,10|2,0:0|3:2,0:0:0:0:
398,39,77968,1,0,3:2:0:0:
398,39,78051,2,0,P|361:53|317:68,1,74.7500014257431,10|2,0:0|3:2,0:0:0:0:
233,18,78380,6,0,P|207:50|205:94,1,74.7500014257431,14|0,0:0|3:2,0:0:0:0:
118,145,78710,2,0,P|144:177|146:221,1,74.7500014257431,10|0,0:0|3:2,0:0:0:0:
84,294,79040,1,14,0:0:0:0:
84,294,79205,1,0,3:2:0:0:
155,377,79369,1,12,0:0:0:0:
155,377,79534,1,0,3:2:0:0:
245,323,79699,6,0,P|285:323|326:348,1,74.7500014257431,12|2,0:0|3:2,0:0:0:0:
359,376,79946,1,0,3:2:0:0:
359,376,80029,2,0,P|395:374|432:343,1,74.7500014257431,10|2,0:0|3:2,0:0:0:0:
489,269,80358,1,10,0:0:0:0:
412,213,80523,1,2,3:2:0:0:
412,213,80606,1,0,3:2:0:0:
412,213,80688,2,0,P|374:223|330:234,1,74.7500014257431,10|2,0:0|3:2,0:0:0:0:
254,168,81018,5,14,0:0:0:0:
254,168,81183,1,2,3:2:0:0:
317,86,81347,1,14,0:0:0:0:
317,86,81512,1,2,3:2:0:0:
226,33,81677,2,0,P|191:44|149:56,1,74.7500014257431,14|2,0:0|3:2,0:0:0:0:
94,141,82007,2,0,P|105:176|117:218,1,74.7500014257431,14|0,0:0|3:2,0:0:0:0:
181,261,82336,6,0,P|173:290|164:338,2,58.4999982147217,2|0|0,0:0|0:0|0:0,0:0:0:0:
260,282,82831,2,0,P|252:311|243:359,2,58.4999982147217,2|0|0,0:0|0:0|0:0,0:0:0:0:
325,232,83325,2,0,P|317:203|308:155,2,58.4999982147217,2|0|0,0:0|0:0|0:0,0:0:0:0:
404,211,83820,2,0,P|396:181|387:133,2,58.4999982147217,2|0|0,0:0|0:0|0:0,0:0:0:0:
460,272,84314,2,0,P|452:301|443:349,1,58.4999982147217,2|0,0:0|0:0,0:0:0:0:
370,380,84644,1,14,3:2:0:0:
301,319,84809,1,14,3:2:0:0:
256,192,84974,12,0,88270,0:0:0:0:
