osu file format v14

[General]
AudioFilename: audio.mp3
AudioLeadIn: 0
PreviewTime: 49946
Countdown: 0
SampleSet: Soft
StackLeniency: 0.4
Mode: 0
LetterboxInBreaks: 0
WidescreenStoryboard: 0

[Editor]
DistanceSpacing: 1.1
BeatDivisor: 4
GridSize: 32
TimelineZoom: 1.8

[Metadata]
Title:Haruka Mirai
TitleUnicode:ハルカミライ
Artist:NateWantsToBattle
ArtistUnicode:NateWantsToBattle
Creator:Smoke
Version:Future
Source:ブラッククローバー
Tags:black clover rock english anime nwtb tv size opening op 1 one cover asta Kankaku Piero 感覚ピエロ nymphe Kiyoshi Guarden
BeatmapID:3165844
BeatmapSetID:1549104

[Difficulty]
HPDrainRate:5.8
CircleSize:3.8
OverallDifficulty:8.8
ApproachRate:9.2
SliderMultiplier:1.8
SliderTickRate:1

[Events]
//Background and Video events
0,0,"black clover bg.jpg",0,0
Video,-403,"vid.mp4"
//Break Periods
//Storyboard Layer 0 (Background)
//Storyboard Layer 1 (Fail)
//Storyboard Layer 2 (Pass)
//Storyboard Layer 3 (Foreground)
//Storyboard Layer 4 (Overlay)
//Storyboard Sound Samples

[TimingPoints]
-740,329.67032967033,4,2,1,70,1,0
249,-142.857142857143,4,2,1,55,0,0
578,-90.9090909090909,4,2,1,65,0,0
5853,-86.9565217391304,4,2,1,70,0,0
8490,-83.3333333333333,4,2,1,75,0,0
9809,-80,4,2,1,80,0,0
11128,-142.857142857143,4,2,1,50,0,0
13435,-166.666666666666,4,2,1,70,0,0
13683,-166.666666666666,4,2,1,5,0,0
13765,-90.9090909090909,4,2,1,75,0,0
14012,-90.9090909090909,4,2,1,5,0,0
14095,-90.9090909090909,4,2,1,75,0,0
16320,-90.9090909090909,4,2,1,5,0,0
16403,-90.9090909090909,4,2,1,75,0,0
16650,-90.9090909090909,4,2,1,5,0,0
16733,-90.9090909090909,4,2,1,75,0,0
18957,-90.9090909090909,4,2,1,5,0,0
19040,-90.9090909090909,4,2,1,75,0,0
19287,-90.9090909090909,4,2,1,5,0,0
19370,-90.9090909090909,4,2,1,75,0,0
21595,-90.9090909090909,4,2,1,5,0,0
21678,-90.9090909090909,4,2,1,75,0,0
24314,-125,4,2,1,60,0,0
26952,-117.647058823529,4,2,1,65,0,0
28270,-111.111111111111,4,2,1,70,0,0
29095,-333.333333333332,4,2,1,70,0,0
29342,-333.333333333332,4,2,1,5,0,0
29424,-90.9090909090909,4,2,1,75,0,0
32227,-125,4,2,1,60,0,0
34864,-117.647058823529,4,2,1,65,0,0
36183,-111.111111111111,4,2,1,70,0,0
37336,-90.9090909090909,4,2,1,75,0,0
48051,-86.9565217391304,4,2,1,75,0,0
48216,-86.9565217391304,4,2,1,5,0,0
48270,-95.2380952380952,4,2,1,70,0,0
48435,-95.2380952380952,4,2,1,5,0,0
48490,-105.263157894737,4,2,1,70,0,0
48655,-105.263157894737,4,2,1,5,0,0
48710,-86.9565217391304,4,2,1,75,0,0
48875,-86.9565217391304,4,2,1,5,0,0
48929,-95.2380952380952,4,2,1,75,0,0
49094,-95.2380952380952,4,2,1,5,0,0
49149,-105.263157894737,4,2,1,75,0,0
49314,-105.263157894737,4,2,1,5,0,0
49369,-86.9565217391304,4,2,1,75,0,0
49534,-86.9565217391304,4,2,1,5,0,0
49588,-95.2380952380952,4,2,1,75,0,0
49753,-95.2380952380952,4,2,1,5,0,0
49808,-105.263157894737,4,2,1,75,0,0
49973,-105.263157894737,4,2,1,5,0,0
50029,-111.111111111111,4,2,1,75,0,0
50194,-111.111111111111,4,2,1,50,0,0
50276,-111.111111111111,4,2,1,55,0,0
50358,-111.111111111111,4,2,1,60,0,0
50441,-111.111111111111,4,2,1,65,0,0
50523,-111.111111111111,4,2,1,70,0,0
50606,-111.111111111111,4,2,1,75,0,0
50688,-83.3333333333333,4,2,1,80,0,1
50935,-83.3333333333333,4,2,1,5,0,1
51018,-83.3333333333333,4,2,1,80,0,1
52254,-83.3333333333333,4,2,1,5,0,1
52337,-83.3333333333333,4,2,1,80,0,1
53573,-83.3333333333333,4,2,1,5,0,1
53656,-83.3333333333333,4,2,1,80,0,1
54562,-83.3333333333333,4,2,1,5,0,1
54645,-83.3333333333333,4,2,1,80,0,1
56210,-83.3333333333333,4,2,1,5,0,1
56293,-83.3333333333333,4,2,1,80,0,1
57529,-83.3333333333333,4,2,1,5,0,1
57612,-83.3333333333333,4,2,1,80,0,1
58847,-83.3333333333333,4,2,1,5,0,1
58930,-83.3333333333333,4,2,1,80,0,1
60743,-83.3333333333333,4,2,1,50,0,1
60825,-83.3333333333333,4,2,1,55,0,1
60907,-83.3333333333333,4,2,1,60,0,1
60990,-83.3333333333333,4,2,1,65,0,1
61072,-83.3333333333333,4,2,1,70,0,1
61155,-83.3333333333333,4,2,1,75,0,1
61237,-83.3333333333333,4,2,1,80,0,1
61485,-83.3333333333333,4,2,1,5,0,1
61568,-83.3333333333333,4,2,1,80,0,1
62803,-83.3333333333333,4,2,1,5,0,1
62886,-83.3333333333333,4,2,1,80,0,1
64122,-83.3333333333333,4,2,1,5,0,1
64205,-83.3333333333333,4,2,1,80,0,1
65111,-83.3333333333333,4,2,1,5,0,1
65194,-83.3333333333333,4,2,1,80,0,1
66760,-83.3333333333333,4,2,1,5,0,1
66843,-83.3333333333333,4,2,1,80,0,1
68078,-83.3333333333333,4,2,1,5,0,1
68161,-83.3333333333333,4,2,1,80,0,1
69397,-83.3333333333333,4,2,1,5,0,1
69480,-83.3333333333333,4,2,1,80,0,1
71787,-111.111111111111,4,2,1,70,0,0
73106,-99.9999999999999,4,2,1,75,0,0
73435,-99.9999999999999,4,2,1,45,0,0
73517,-99.9999999999999,4,2,1,50,0,0
73600,-99.9999999999999,4,2,1,55,0,0
73682,-99.9999999999999,4,2,1,65,0,0
73765,-99.9999999999999,4,2,1,75,0,0
74095,-62.5,4,2,1,80,0,0
74342,-62.5,4,2,1,5,0,0
74424,-80,4,2,1,85,0,1
76979,-80,4,2,1,5,0,1
77061,-80,4,2,1,85,0,1
79287,-80,4,2,1,5,0,1
79369,-80,4,2,1,85,0,1
79617,-80,4,2,1,5,0,1
79699,-80,4,2,1,85,0,1
82336,-142.857142857143,4,2,1,50,0,0
84644,-166.666666666667,4,2,1,75,0,0
85303,-166.666666666667,4,2,1,65,0,0
85963,-166.666666666667,4,2,1,55,0,0
86622,-166.666666666667,4,2,1,45,0,0
87281,-166.666666666667,4,2,1,32,0,0
87941,-166.666666666667,4,2,1,18,0,0
88270,-166.666666666667,4,2,1,5,0,0

[Colours]
Combo1 : 150,28,10
Combo2 : 196,183,19
Combo3 : 225,0,0
Combo4 : 117,112,15

[HitObjects]
75,203,249,6,0,P|107:212|148:225,1,62.9999980773926,2|2,0:0|0:0,0:0:0:0:
201,285,496,1,2,0:0:0:0:
201,285,578,6,0,P|241:263|301:273,1,99.0000030212403,6|0,3:1|0:0,0:0:0:0:
482,121,908,5,14,0:0:0:0:
411,175,1073,1,0,3:2:0:0:
324,155,1238,1,0,3:2:0:0:
125,9,1402,5,14,0:0:0:0:
207,43,1567,1,0,3:2:0:0:
233,127,1732,1,0,3:2:0:0:
204,374,1897,5,14,0:0:0:0:
192,285,2062,1,0,3:2:0:0:
253,220,2227,1,0,3:2:0:0:
482,120,2391,5,14,0:0:0:0:
411,175,2556,1,0,3:2:0:0:
199,7,2721,5,14,0:0:0:0:
411,175,2886,1,14,0:0:0:0:
211,337,3051,1,14,0:0:0:0:
253,220,3216,6,0,P|266:172|282:125,1,99.0000030212403,6|0,3:1|3:2,0:0:0:0:
106,355,3545,5,14,0:0:0:0:
78,270,3710,1,0,3:2:0:0:
49,185,3875,1,0,3:2:0:0:
240,13,4040,5,14,0:0:0:0:
212,97,4205,1,0,3:2:0:0:
183,183,4370,1,0,3:2:0:0:
368,361,4534,5,14,0:0:0:0:
340,276,4699,1,0,3:2:0:0:
311,191,4864,1,0,3:2:0:0:
491,59,5029,5,14,0:0:0:0:
459,143,5194,1,0,3:2:0:0:
222,48,5358,5,14,0:0:0:0:
401,211,5523,1,14,0:0:0:0:
176,309,5688,1,14,0:0:0:0:
284,209,5853,6,0,P|227:195|175:183,1,103.500001974106,6|0,3:1|3:2,0:0:0:0:
13,39,6183,5,14,0:0:0:0:
86,109,6347,1,0,3:2:0:0:
118,10,6512,1,0,3:2:0:0:
0,303,6677,5,14,0:0:0:0:
73,233,6841,1,0,3:2:0:0:
105,332,7006,1,0,3:2:0:0:
359,179,7172,5,14,0:0:0:0:
254,208,7336,1,0,3:2:0:0:
286,109,7501,1,0,3:2:0:0:
465,331,7666,5,14,0:0:0:0:
512,238,7831,1,0,3:2:0:0:
311,356,7996,5,14,0:0:0:0:
181,115,8161,1,14,0:0:0:0:
98,383,8325,1,14,0:0:0:0:
280,247,8490,6,0,P|337:263|395:277,1,107.999996704102,6|0,3:1|3:2,0:0:0:0:
496,41,8820,5,14,0:0:0:0:
376,76,8985,1,0,3:2:0:0:
508,38,9150,1,0,3:2:0:0:
168,125,9314,5,14,0:0:0:0:
293,160,9479,1,0,3:2:0:0:
156,122,9644,1,0,3:2:0:0:
364,303,9809,5,2,3:2:0:0:
364,303,9891,1,0,3:2:0:0:
364,303,9974,1,0,3:2:0:0:
111,384,10139,2,0,P|100:327|86:274,1,112.5,8|8,0:0|0:0,0:0:0:0:
59,244,10386,1,8,0:0:0:0:
59,244,10468,1,0,3:2:0:0:
255,89,10634,1,8,0:0:0:0:
216,112,10716,1,8,0:0:0:0:
171,113,10798,1,8,0:0:0:0:
131,90,10881,1,8,0:0:0:0:
88,75,10963,1,8,0:0:0:0:
44,86,11046,1,8,0:0:0:0:
17,119,11128,6,0,P|9:148|-1:181,2,62.9999980773926,2|0|0,0:0|0:0|0:0,0:0:0:0:
99,195,11622,2,0,P|91:224|81:257,2,62.9999980773926,2|0|0,0:0|0:0|0:0,0:0:0:0:
239,248,12117,2,0,P|247:277|257:310,2,62.9999980773926,2|0|0,0:0|0:0|0:0,0:0:0:0:
157,324,12611,2,0,P|165:353|175:386,2,62.9999980773926,2|0|0,0:0|0:0|0:0,0:0:0:0:
341,255,13106,2,0,P|376:264|408:271,1,62.9999980773926,2|0,0:0|0:0,0:0:0:0:
220,122,13435,2,0,P|215:93|224:120,1,80.9999975280763,10|0,0:0|0:0,0:0:0:0:
445,56,13765,6,0,P|372:62|310:23,1,148.50000453186,6|0,3:1|0:0,0:0:0:0:
304,33,14095,2,0,P|318:83|335:142,1,99.0000030212403,10|0,0:0|0:0,0:0:0:0:
261,353,14424,1,2,3:2:0:0:
350,303,14589,1,2,3:2:0:0:
500,382,14754,1,10,0:0:0:0:
398,218,14919,1,0,0:0:0:0:
169,325,15084,6,0,P|117:310|50:296,1,99.0000030212403,6|0,3:1|0:0,0:0:0:0:
217,111,15413,2,0,P|165:96|99:80,1,99.0000030212403,10|0,0:0|0:0,0:0:0:0:
314,23,15743,1,6,3:1:0:0:
387,116,15908,1,2,3:2:0:0:
236,252,16073,2,0,P|302:245|371:295,1,148.50000453186,10|0,0:0|0:0,0:0:0:0:
512,381,16402,6,0,B|481:312|481:312|415:375,1,148.50000453186,6|0,3:1|0:0,0:0:0:0:
367,290,16732,2,0,P|383:247|401:198,1,99.0000030212403,10|0,0:0|0:0,0:0:0:0:
278,35,17062,1,2,3:2:0:0:
379,74,17227,1,2,3:2:0:0:
161,214,17391,1,10,0:0:0:0:
367,290,17556,1,0,0:0:0:0:
134,384,17721,6,0,P|122:340|104:282,1,99.0000030212403,6|0,3:1|0:0,0:0:0:0:
286,138,18051,2,0,B|240:153|240:153|182:119,1,99.0000030212403,10|0,0:0|0:0,0:0:0:0:
36,28,18380,1,2,3:2:0:0:
139,0,18545,1,2,3:2:0:0:
0,167,18710,2,0,P|77:162|141:225,1,148.50000453186,10|0,0:0|0:0,0:0:0:0:
202,279,19040,6,0,B|240:261|274:283|274:283|279:243|331:230,1,148.50000453186,6|0,3:1|0:0,0:0:0:0:
382,150,19369,2,0,P|337:142|284:131,1,99.0000030212403,10|0,0:0|0:0,0:0:0:0:
457,369,19699,1,2,3:2:0:0:
361,313,19864,1,2,3:2:0:0:
512,107,20029,1,10,0:0:0:0:
335,20,20194,1,0,0:0:0:0:
512,206,20358,6,0,P|464:224|445:288,1,99.0000030212403,6|0,3:1|0:0,0:0:0:0:
265,359,20688,2,0,P|241:321|188:308,1,99.0000030212403,10|0,0:0|0:0,0:0:0:0:
16,363,21018,1,6,3:1:0:0:
103,269,21183,1,2,3:2:0:0:
0,126,21347,2,0,B|38:121|53:81|53:81|87:99|132:73,1,148.50000453186,10|0,0:0|0:0,0:0:0:0:
280,207,21677,6,0,P|241:178|160:186,1,99.0000030212403,6|0,3:1|0:0,0:0:0:0:
450,92,22007,1,10,0:0:0:0:
369,11,22172,2,0,P|353:66|333:125,1,99.0000030212403,2|0,0:0|3:2,0:0:0:0:
512,258,22501,1,8,0:0:0:0:
466,239,22583,1,8,0:0:0:0:
417,242,22665,1,10,0:0:0:0:
373,265,22748,1,8,0:0:0:0:
344,304,22831,6,0,P|294:318|233:337,1,99.0000030212403,2|0,3:2|0:0,0:0:0:0:
159,284,23161,1,2,3:2:0:0:
383,131,23325,2,0,P|333:117|271:98,1,99.0000030212403,10|8,0:0|0:0,0:0:0:0:
254,94,23573,1,8,0:0:0:0:
254,94,23655,1,8,0:0:0:0:
55,194,23820,1,0,3:3:0:0:
18,180,23902,1,0,3:3:0:0:
0,145,23985,1,2,3:3:0:0:
30,120,24067,1,0,3:3:0:0:
69,117,24150,1,0,3:3:0:0:
105,132,24232,1,0,3:3:0:0:
131,166,24314,6,0,B|177:159|210:191|180:194|215:227|261:219,1,144,6|0,3:1|3:2,0:0:0:0:
479,312,24974,2,0,B|433:305|400:337|430:340|395:373|349:365,1,144,2|0,3:2|3:2,0:0:0:0:
287,307,25468,1,2,0:0:0:0:
389,210,25633,2,0,P|377:173|364:124,2,72,2|2|2,3:2|0:0|3:2,0:0:0:0:
491,92,26128,2,0,P|459:71|411:73,1,72,2|0,0:0|3:2,0:0:0:0:
359,10,26457,1,2,0:0:0:0:
249,105,26622,2,0,P|217:84|169:86,1,72,2|2,3:2|0:0,0:0:0:0:
81,240,26952,6,0,B|64:167|64:167|58:166|58:166|42:96,1,153.000002918243,6|0,3:2|3:2,0:0:0:0:
366,21,27611,2,0,B|349:94|349:94|343:95|343:95|327:164,1,153.000002918243,6|4,3:2|3:2,0:0:0:0:
378,240,28106,1,2,0:0:0:0:
251,370,28270,2,0,P|229:337|235:277,1,80.9999975280763,6|0,3:2|0:0,0:0:0:0:
54,323,28600,2,0,P|76:290|70:230,1,80.9999975280763,6|2,3:2|0:0,0:0:0:0:
261,52,28930,1,12,0:0:0:0:
177,13,29095,6,0,P|172:33|163:60,1,40.4999987640381,2|0,3:2|0:0,0:0:0:0:
378,240,29424,6,0,B|410:229|411:190|411:190|347:138|283:206,1,198.000006042481,6|2,3:1|3:2,0:0:0:0:
75,79,29919,1,8,0:0:0:0:
159,177,30084,1,2,0:0:0:0:
30,290,30249,2,0,P|15:337|0:384,1,99.0000030212403,2|0,3:2|3:2,0:0:0:0:
267,300,30578,1,8,0:0:0:0:
0,128,30743,6,0,B|56:142|104:107|70:93|125:57|178:68,1,198.000006042481,6|2,3:1|3:2,0:0:0:0:
261,17,31238,1,8,0:0:0:0:
491,154,31402,2,0,P|446:147|391:188,1,99.0000030212403,6|2,3:1|0:0,0:0:0:0:
250,325,31732,1,0,3:2:0:0:
253,315,31814,1,0,3:2:0:0:
256,305,31897,2,0,P|243:252|229:196,1,99.0000030212403,10|0,0:0|0:0,0:0:0:0:
33,343,32227,6,0,P|102:332|169:387,1,144,6|0,3:1|3:2,0:0:0:0:
383,277,32886,2,0,P|313:266|255:305,1,144,2|0,3:2|3:2,0:0:0:0:
183,242,33380,1,2,0:0:0:0:
310,144,33545,2,0,L|379:163,2,72,2|2|2,3:2|0:0|3:2,0:0:0:0:
249,63,34040,2,0,L|318:43,1,72,2|0,0:0|3:2,0:0:0:0:
149,130,34369,2,0,L|218:149,1,72,2|0,0:0|3:2,0:0:0:0:
45,26,34699,1,2,0:0:0:0:
45,26,34781,1,2,0:0:0:0:
45,26,34864,6,0,B|66:24|86:12|86:12|49:56|46:115,1,153.000002918243,6|0,3:2|3:2,0:0:0:0:
153,331,35523,2,0,B|174:333|194:345|194:345|157:301|154:245,1,153.000002918243,6|4,3:2|3:2,0:0:0:0:
376,90,36018,1,10,0:0:0:0:
376,90,36100,1,8,0:0:0:0:
376,90,36183,6,0,P|343:120|296:123,1,80.9999975280763,14|0,3:2|0:0,0:0:0:0:
417,290,36512,1,0,3:3:0:0:
387,262,36594,1,0,3:3:0:0:
349,248,36676,1,0,3:3:0:0:
309,248,36759,1,0,3:3:0:0:
272,264,36841,1,12,0:0:0:0:
74,71,37007,1,6,3:2:0:0:
82,81,37336,6,0,B|181:56|228:44|228:44|209:27|177:29,1,198.000006042481,6|2,3:1|3:2,0:0:0:0:
10,186,37831,1,8,0:0:0:0:
125,262,37996,1,2,0:0:0:0:
3,384,38161,2,0,P|14:335|28:288,1,99.0000030212403,2|0,3:2|3:2,0:0:0:0:
131,166,38490,1,8,0:0:0:0:
374,323,38655,6,0,P|297:300|198:385,1,198.000006042481,6|2,3:1|3:2,0:0:0:0:
440,246,39150,1,8,0:0:0:0:
253,62,39314,6,0,P|327:122|421:101,1,198.000006042481,6|0,3:1|3:2,0:0:0:0:
421,101,39727,1,0,3:2:0:0:
421,101,39809,1,10,0:0:0:0:
352,21,39974,1,2,0:0:0:0:
155,246,40139,5,6,3:2:0:0:
40,66,40303,1,6,3:2:0:0:
136,30,40468,1,8,0:0:0:0:
5,192,40633,2,0,P|45:166|110:172,1,99.0000030212403,6|0,3:2|0:0,0:0:0:0:
226,371,40963,2,0,P|223:323|261:270,1,99.0000030212403,6|8,3:2|0:0,0:0:0:0:
498,309,41292,6,0,P|455:287|463:154,1,198.000006042481,6|0,3:2|3:2,0:0:0:0:
460,155,41705,1,0,3:2:0:0:
460,155,41787,5,12,0:0:0:0:
281,34,41952,1,2,3:2:0:0:
375,1,42117,5,12,0:0:0:0:
209,231,42281,1,0,3:2:0:0:
133,164,42446,5,8,0:0:0:0:
244,370,42611,1,8,0:0:0:0:
247,360,42694,1,8,0:0:0:0:
250,350,42776,5,6,3:2:0:0:
10,384,42941,1,6,3:2:0:0:
99,305,43106,1,8,0:0:0:0:
29,133,43270,2,0,P|15:181|-2:230,1,99.0000030212403,6|0,3:2|0:0,0:0:0:0:
221,69,43600,2,0,P|234:116|250:163,1,99.0000030212403,6|8,3:2|0:0,0:0:0:0:
469,0,43930,6,0,P|433:108|408:195,1,198.000006042481,6|0,3:2|3:2,0:0:0:0:
409,188,44342,1,0,3:2:0:0:
409,188,44424,1,12,0:0:0:0:
495,262,44589,1,2,3:2:0:0:
319,378,44754,1,4,3:3:0:0:
245,311,44919,1,0,3:2:0:0:
206,285,45001,1,0,3:2:0:0:
166,282,45084,1,8,3:3:0:0:
133,293,45166,1,0,3:2:0:0:
110,313,45249,1,0,3:2:0:0:
88,322,45331,1,0,3:2:0:0:
73,316,45413,5,6,3:2:0:0:
199,133,45578,1,6,3:2:0:0:
120,67,45743,1,8,0:0:0:0:
354,9,45908,2,0,P|315:39|300:85,1,99.0000030212403,6|0,3:2|0:0,0:0:0:0:
504,213,46238,2,0,P|489:168|441:133,1,99.0000030212403,6|8,3:2|0:0,0:0:0:0:
175,296,46567,6,0,P|265:267|335:331,1,198.000006042481,6|0,3:2|3:2,0:0:0:0:
334,330,46979,1,0,3:2:0:0:
334,330,47062,5,12,0:0:0:0:
88,378,47227,1,2,3:2:0:0:
16,315,47391,5,12,0:0:0:0:
228,177,47556,1,2,3:2:0:0:
151,123,47721,5,8,0:0:0:0:
319,305,47886,1,8,0:0:0:0:
322,295,47968,1,8,0:0:0:0:
325,285,48051,6,0,P|381:273|426:265,1,103.500001974106,6|0,3:2|0:0,0:0:0:0:
421,254,48270,2,0,P|375:262|329:273,1,94.499997116089,6|0,3:2|0:0,0:0:0:0:
333,261,48490,2,0,P|389:249|424:244,1,85.4999977169037,6|0,3:2|0:0,0:0:0:0:
171,168,48710,6,0,P|115:156|70:148,1,103.500001974106,14|0,3:2|0:0,0:0:0:0:
75,137,48930,2,0,P|121:145|176:157,1,94.499997116089,6|0,3:2|0:0,0:0:0:0:
164,144,49150,2,0,P|108:132|73:127,1,85.4999977169037,6|0,3:2|0:0,0:0:0:0:
313,67,49369,6,0,P|369:55|414:47,1,103.500001974106,14|0,3:2|0:0,0:0:0:0:
409,36,49589,2,0,P|363:44|317:55,1,94.499997116089,14|0,3:2|0:0,0:0:0:0:
321,43,49809,2,0,P|377:31|412:26,1,85.4999977169037,14|0,3:2|0:0,0:0:0:0:
244,355,50029,6,0,P|238:321|230:271,1,80.9999975280763,14|8,3:2|0:0,0:0:0:0:
225,267,50276,5,8,0:0:0:0:
236,252,50358,5,8,0:0:0:0:
224,227,50441,5,8,0:0:0:0:
248,192,50523,5,8,0:0:0:0:
218,146,50606,5,8,0:0:0:0:
266,86,50688,6,0,B|324:73|359:100|327:112|378:144|443:120,1,161.999995056153,6|0,3:1|0:0,0:0:0:0:
254,72,51018,2,0,P|121:47|77:223,1,323.999990112305,10|0,0:0|3:2,0:0:0:0:
252,338,51677,1,10,0:0:0:0:
0,384,51842,1,2,0:0:0:0:
193,219,52007,6,0,P|164:310|138:392,1,161.999995056153,6|0,3:1|0:0,0:0:0:0:
144,374,52336,2,0,P|127:316|111:266,1,107.999996704102,8|0,0:0|0:0,0:0:0:0:
436,177,52666,6,0,P|384:194|333:208,1,107.999996704102,6|0,3:1|3:2,0:0:0:0:
476,99,52996,1,8,0:0:0:0:
306,292,53161,1,2,0:0:0:0:
149,135,53325,6,0,B|97:121|57:145|84:161|43:182|-7:171,1,161.999995056153,6|0,3:1|0:0,0:0:0:0:
156,149,53655,2,0,P|211:162|264:175,1,107.999996704102,10|0,0:0|0:0,0:0:0:0:
461,36,53985,1,2,3:2:0:0:
385,128,54150,1,0,3:2:0:0:
508,310,54314,2,0,P|418:300|357:369,1,161.999995056153,8|0,0:0|0:0,0:0:0:0:
367,343,54644,6,0,P|351:287|333:223,1,107.999996704102,6|0,3:1|0:0,0:0:0:0:
151,337,54974,1,8,0:0:0:0:
199,258,55139,1,2,0:0:0:0:
53,162,55303,1,2,3:2:0:0:
159,131,55468,1,0,3:2:0:0:
0,0,55633,1,10,0:0:0:0:
231,62,55798,1,2,0:0:0:0:
10,305,55963,6,0,B|-15:292|-13:263|-13:263|41:222|92:278,1,161.999995056153,6|0,3:1|0:0,0:0:0:0:
86,271,56292,2,0,P|61:217|72:157,1,107.999996704102,8|0,0:0|0:0,0:0:0:0:
333,99,56622,2,0,P|283:81|231:62,1,107.999996704102,2|0,3:2|3:2,0:0:0:0:
404,32,56952,1,10,0:0:0:0:
186,145,57117,1,2,0:0:0:0:
477,125,57281,6,0,B|423:120|388:150|417:161|380:189|329:187,1,161.999995056153,6|0,3:1|0:0,0:0:0:0:
491,119,57611,2,0,P|522:165|498:210,1,107.999996704102,10|0,0:0|0:0,0:0:0:0:
236,301,57941,6,0,P|289:315|340:332,1,107.999996704102,6|0,3:1|3:2,0:0:0:0:
176,377,58270,1,10,0:0:0:0:
414,268,58435,1,2,0:0:0:0:
240,65,58600,6,0,B|209:92|182:80|182:80|164:107|164:107|124:99|102:118,1,161.999995056153,6|0,3:1|0:0,0:0:0:0:
101,118,58930,2,0,P|68:74|81:13,1,107.999996704102,8|0,0:0|0:0,0:0:0:0:
8,267,59260,5,6,3:1:0:0:
141,317,59424,1,0,3:2:0:0:
52,352,59589,1,8,0:0:0:0:
342,95,59754,6,0,B|327:57|284:50|284:50|221:111|278:174,1,215.999993408203,6|0,3:1|3:2,0:0:0:0:
452,336,60249,2,0,P|406:304|346:312,1,107.999996704102,12|0,0:0|0:0,0:0:0:0:
512,122,60578,1,2,3:2:0:0:
426,188,60743,5,8,0:0:0:0:
416,182,60825,5,8,0:0:0:0:
396,190,60908,5,8,0:0:0:0:
362,172,60990,5,8,0:0:0:0:
315,199,61073,5,8,0:0:0:0:
241,168,61155,5,8,0:0:0:0:
161,214,61238,6,0,B|91:199|91:199|82:203|82:203|2:188,1,161.999995056153,6|0,3:1|0:0,0:0:0:0:
170,228,61567,2,0,P|282:202|494:157,1,323.999990112305,10|0,0:0|3:2,0:0:0:0:
225,116,62227,1,10,0:0:0:0:
411,75,62391,1,2,0:0:0:0:
312,382,62556,6,0,P|331:310|354:212,1,161.999995056153,6|0,3:1|0:0,0:0:0:0:
351,224,62886,2,0,P|310:257|246:252,1,107.999996704102,8|0,0:0|0:0,0:0:0:0:
61,104,63216,6,0,B|109:120|109:120|154:85,1,107.999996704102,6|0,3:1|3:2,0:0:0:0:
15,24,63545,1,8,0:0:0:0:
184,179,63710,1,2,0:0:0:0:
371,69,63875,6,0,B|425:64|460:94|431:105|468:133|519:131,1,161.999995056153,6|0,3:1|0:0,0:0:0:0:
360,62,64205,2,0,P|315:80|295:146,1,107.999996704102,10|0,0:0|0:0,0:0:0:0:
418,331,64534,1,2,3:2:0:0:
331,274,64699,1,0,3:2:0:0:
146,361,64864,2,0,P|78:317|-3:338,1,161.999995056153,8|0,0:0|0:0,0:0:0:0:
2,333,65194,6,0,P|19:284|36:227,1,107.999996704102,6|0,3:1|0:0,0:0:0:0:
230,310,65523,1,8,0:0:0:0:
190,215,65688,1,2,0:0:0:0:
384,79,65853,1,2,3:2:0:0:
292,38,66018,1,0,3:2:0:0:
403,212,66183,1,10,0:0:0:0:
186,110,66347,1,2,0:0:0:0:
499,0,66512,6,0,B|481:23|493:62|493:62|468:83|468:83|482:108|458:142,1,161.999995056153,6|0,3:1|0:0,0:0:0:0:
458,142,66842,2,0,P|409:120|342:148,1,107.999996704102,8|0,0:0|0:0,0:0:0:0:
101,297,67172,2,0,B|133:256|133:256|121:202,1,107.999996704102,2|0,3:2|3:2,0:0:0:0:
185,345,67501,1,10,0:0:0:0:
34,175,67666,1,2,0:0:0:0:
255,33,67831,6,0,B|333:50|333:50|336:57|336:57|410:73,1,161.999995056153,6|0,3:1|0:0,0:0:0:0:
243,24,68161,2,0,P|214:57|229:128,1,107.999996704102,10|0,0:0|0:0,0:0:0:0:
416,297,68490,6,0,P|401:244|385:193,1,107.999996704102,6|0,3:1|3:2,0:0:0:0:
340,358,68820,1,10,0:0:0:0:
479,169,68985,1,2,0:0:0:0:
232,270,69150,6,0,P|154:248|49:223,1,161.999995056153,6|0,3:1|0:0,0:0:0:0:
75,228,69479,2,0,P|41:276|54:337,1,107.999996704102,8|0,0:0|0:0,0:0:0:0:
0,67,69809,1,0,3:2:0:0:
81,123,69974,1,0,3:2:0:0:
224,48,70139,2,0,P|278:45|327:86,1,107.999996704102,8|0,0:0|0:0,0:0:0:0:
318,384,70468,6,0,B|281:373|273:328|273:328|321:314|323:249,1,161.999995056153,14|0,0:0|0:0,0:0:0:0:
321,263,70798,2,0,P|314:241|307:211,1,53.9999983520508,0|0,3:2|3:2,0:0:0:0:
496,99,70963,1,0,1:0:0:0:
489,90,71045,1,0,1:0:0:0:
482,81,71128,5,10,3:3:0:0:
489,38,71210,1,0,3:2:0:0:
461,5,71292,1,0,3:2:0:0:
418,0,71375,1,0,3:2:0:0:
380,23,71458,5,10,3:3:0:0:
348,31,71540,1,0,3:2:0:0:
317,24,71622,1,2,3:2:0:0:
293,2,71705,1,0,3:2:0:0:
221,35,71787,5,4,3:2:0:0:
209,30,73106,6,0,P|229:99|249:181,1,135,4|0,3:2|0:0,0:0:0:0:
252,168,73435,1,8,0:0:0:0:
245,194,73518,1,8,0:0:0:0:
264,228,73600,1,8,0:0:0:0:
239,276,73683,1,8,0:0:0:0:
266,332,73765,2,0,P|299:342|331:351,1,45,8|0,0:0|0:0,0:0:0:0:
59,384,73930,5,8,3:3:0:0:
102,372,74012,1,8,3:3:0:0:
148,358,74095,2,0,P|97:312|124:176,1,216,14|0,0:0|0:0,0:0:0:0:
126,173,74424,5,6,3:1:0:0:
30,12,74589,1,2,0:0:0:0:
120,51,74754,5,10,0:0:0:0:
0,228,74919,1,2,3:2:0:0:
12,270,75001,1,0,3:2:0:0:
22,313,75084,5,10,0:0:0:0:
247,375,75249,1,2,3:2:0:0:
184,300,75413,5,10,0:0:0:0:
381,149,75578,1,2,3:2:0:0:
326,232,75743,5,14,0:0:0:0:
174,44,75908,1,0,3:2:0:0:
206,22,75990,1,0,3:2:0:0:
244,31,76073,5,10,0:0:0:0:
118,222,76238,1,0,3:2:0:0:
179,299,76402,5,14,0:0:0:0:
76,94,76567,2,0,P|68:126|62:152,1,56.25,2|0,3:2|3:2,0:0:0:0:
276,319,76732,5,12,0:0:0:0:
402,76,76897,2,0,P|409:108|416:134,1,56.25,2|0,3:2|0:0,0:0:0:0:
492,185,77062,5,12,0:0:0:0:
316,123,77227,1,2,3:2:0:0:
273,134,77309,1,0,3:2:0:0:
229,147,77391,5,10,0:0:0:0:
38,35,77556,1,2,3:2:0:0:
102,117,77721,5,10,0:0:0:0:
11,308,77886,1,2,3:2:0:0:
44,278,77968,1,0,3:2:0:0:
87,292,78051,5,10,0:0:0:0:
311,383,78216,1,2,3:2:0:0:
257,299,78380,5,14,0:0:0:0:
487,127,78545,1,0,3:2:0:0:
444,115,78628,1,0,3:2:0:0:
401,105,78710,5,10,0:0:0:0:
195,52,78875,1,0,3:2:0:0:
437,222,79040,5,14,0:0:0:0:
123,292,79205,2,0,P|155:284|192:274,1,56.25,0|0,3:2|0:0,0:0:0:0:
451,232,79369,5,12,0:0:0:0:
110,163,79534,2,0,P|137:169|164:176,1,56.25,0|0,3:2|0:0,0:0:0:0:
379,315,79699,5,12,0:0:0:0:
108,372,79864,1,2,3:2:0:0:
137,336,79946,1,0,3:2:0:0:
124,293,80029,5,10,0:0:0:0:
0,127,80194,1,2,3:2:0:0:
33,221,80358,5,10,0:0:0:0:
254,49,80523,1,2,3:2:0:0:
211,35,80606,1,0,3:2:0:0:
168,21,80688,5,10,0:0:0:0:
358,81,80853,1,2,3:2:0:0:
104,337,81018,5,14,0:0:0:0:
0,127,81183,1,2,3:2:0:0:
203,334,81347,5,14,0:0:0:0:
154,66,81512,1,2,3:2:0:0:
299,348,81677,5,14,0:0:0:0:
327,41,81842,1,2,3:2:0:0:
388,384,82007,5,14,0:0:0:0:
507,55,82172,1,0,3:2:0:0:
409,100,82336,6,0,P|422:137|431:174,2,62.9999980773926,2|0|0,0:0|0:0|0:0,0:0:0:0:
330,176,82831,2,0,P|321:207|310:236,2,62.9999980773926,2|0|0,0:0|0:0|0:0,0:0:0:0:
141,279,83325,2,0,P|128:242|119:205,2,62.9999980773926,2|0|0,0:0|0:0|0:0,0:0:0:0:
220,203,83820,2,0,P|229:172|240:143,2,62.9999980773926,2|0|0,0:0|0:0|0:0,0:0:0:0:
58,324,84314,2,0,P|29:311|0:300,1,62.9999980773926,2|0,0:0|0:0,0:0:0:0:
93,81,84644,5,14,3:2:0:0:
209,367,84809,2,0,B|257:321|333:336|333:336|393:326|398:281|399:198|280:180|226:290|294:336|333:336|333:336|428:350|501:230|502:156|373:133|379:71|391:2|391:2|408:51|466:93|466:93|383:31|309:66,1,1133.99996539307,14|0,3:2|0:0,0:0:0:0:
