osu file format v14

[General]
AudioFilename: audio.mp3
AudioLeadIn: 0
PreviewTime: 49946
Countdown: 0
SampleSet: Soft
StackLeniency: 0.5
Mode: 0
LetterboxInBreaks: 0
WidescreenStoryboard: 1

[Editor]
DistanceSpacing: 1
BeatDivisor: 4
GridSize: 32
TimelineZoom: 1.8

[Metadata]
Title:Haruka Mirai
TitleUnicode:ハルカミライ
Artist:NateWantsToBattle
ArtistUnicode:NateWantsToBattle
Creator:Smoke
Version:Easy
Source:ブラッククローバー
Tags:black clover rock english anime nwtb tv size opening op 1 one cover asta Kankaku Piero 感覚ピエロ nymphe Kiyoshi Guarden
BeatmapID:3165885
BeatmapSetID:1549104

[Difficulty]
HPDrainRate:3
CircleSize:3
OverallDifficulty:3
ApproachRate:4
SliderMultiplier:0.899999999999999
SliderTickRate:1

[Events]
//Background and Video events
0,0,"black clover bg.jpg",0,0
Video,-403,"vid.mp4"
//Break Periods
2,11328,12115
2,82207,83324
//Storyboard Layer 0 (Background)
//Storyboard Layer 1 (Fail)
//Storyboard Layer 2 (Pass)
//Storyboard Layer 3 (Foreground)
//Storyboard Layer 4 (Overlay)
//Storyboard Sound Samples

[TimingPoints]
-740,329.67032967033,4,2,1,70,1,0
249,-100,4,2,1,55,0,0
578,-100,4,2,1,65,0,0
5853,-100,4,2,1,70,0,0
8490,-100,4,2,1,75,0,0
9809,-100,4,2,1,80,0,0
11128,-100,4,2,1,50,0,0
13435,-100,4,2,1,70,0,0
13683,-100,4,2,1,5,0,0
13765,-100,4,2,1,75,0,0
14012,-100,4,2,1,75,0,0
14095,-100,4,2,1,75,0,0
16320,-100,4,2,1,75,0,0
16403,-100,4,2,1,75,0,0
16650,-100,4,2,1,75,0,0
16733,-100,4,2,1,75,0,0
18957,-100,4,2,1,75,0,0
19040,-100,4,2,1,75,0,0
19287,-100,4,2,1,75,0,0
19370,-100,4,2,1,75,0,0
21595,-100,4,2,1,75,0,0
21678,-100,4,2,1,75,0,0
24314,-100,4,2,1,60,0,0
26952,-100,4,2,1,65,0,0
28270,-100,4,2,1,70,0,0
29342,-100,4,2,1,5,0,0
29424,-100,4,2,1,75,0,0
32227,-100,4,2,1,60,0,0
34864,-100,4,2,1,65,0,0
36183,-100,4,2,1,70,0,0
37336,-100,4,2,1,75,0,0
48216,-100,4,2,1,75,0,0
48270,-100,4,2,1,70,0,0
48435,-100,4,2,1,5,0,0
48490,-100,4,2,1,70,0,0
48655,-100,4,2,1,5,0,0
48710,-100,4,2,1,75,0,0
48875,-100,4,2,1,5,0,0
48929,-100,4,2,1,75,0,0
49094,-100,4,2,1,5,0,0
49149,-100,4,2,1,75,0,0
49314,-100,4,2,1,5,0,0
49369,-100,4,2,1,75,0,0
49534,-100,4,2,1,5,0,0
49588,-100,4,2,1,75,0,0
49753,-100,4,2,1,5,0,0
49808,-100,4,2,1,75,0,0
49973,-100,4,2,1,5,0,0
50029,-100,4,2,1,75,0,0
50194,-100,4,2,1,50,0,0
50276,-100,4,2,1,55,0,0
50358,-100,4,2,1,60,0,0
50441,-100,4,2,1,65,0,0
50523,-100,4,2,1,70,0,0
50606,-100,4,2,1,75,0,0
50688,-100,4,2,1,80,0,1
50935,-100,4,2,1,5,0,1
51018,-100,4,2,1,80,0,1
52254,-100,4,2,1,5,0,1
52337,-100,4,2,1,80,0,1
53573,-100,4,2,1,5,0,1
53656,-100,4,2,1,80,0,1
54562,-100,4,2,1,5,0,1
54645,-100,4,2,1,80,0,1
56210,-100,4,2,1,5,0,1
56293,-100,4,2,1,80,0,1
57529,-100,4,2,1,5,0,1
57612,-100,4,2,1,80,0,1
58847,-100,4,2,1,5,0,1
58930,-100,4,2,1,80,0,1
60743,-100,4,2,1,50,0,1
60825,-100,4,2,1,55,0,1
60907,-100,4,2,1,60,0,1
60990,-100,4,2,1,65,0,1
61072,-100,4,2,1,70,0,1
61155,-100,4,2,1,75,0,1
61237,-100,4,2,1,80,0,1
61485,-100,4,2,1,5,0,1
61568,-100,4,2,1,80,0,1
62803,-100,4,2,1,5,0,1
62886,-100,4,2,1,80,0,1
64122,-100,4,2,1,5,0,1
64205,-100,4,2,1,80,0,1
65111,-100,4,2,1,5,0,1
65194,-100,4,2,1,80,0,1
66760,-100,4,2,1,5,0,1
66843,-100,4,2,1,80,0,1
68078,-100,4,2,1,5,0,1
68161,-100,4,2,1,80,0,1
69397,-100,4,2,1,5,0,1
69480,-100,4,2,1,80,0,1
71787,-100,4,2,1,70,0,0
73106,-100,4,2,1,75,0,0
73435,-100,4,2,1,45,0,0
73517,-100,4,2,1,50,0,0
73600,-100,4,2,1,55,0,0
73682,-100,4,2,1,65,0,0
73765,-100,4,2,1,75,0,0
74095,-100,4,2,1,80,0,0
74342,-100,4,2,1,5,0,0
74424,-100,4,2,1,85,0,1
82336,-100,4,2,1,50,0,0
84644,-100,4,2,1,75,0,0
85303,-100,4,2,1,65,0,0
85963,-100,4,2,1,55,0,0
86622,-100,4,2,1,45,0,0
87281,-100,4,2,1,32,0,0
87941,-100,4,2,1,18,0,0
88270,-100,4,2,1,5,0,0

[Colours]
Combo1 : 150,28,10
Combo2 : 196,183,19
Combo3 : 225,0,0
Combo4 : 117,112,15

[HitObjects]
72,321,578,5,6,3:1:0:0:
140,263,908,2,0,L|229:284,1,89.9999999999999,14|0,0:0|3:2,0:0:0:0:
270,296,1402,1,14,0:0:0:0:
379,374,1897,2,0,P|408:332|402:277,1,89.9999999999999,14|0,0:0|3:2,0:0:0:0:
383,256,2391,1,14,0:0:0:0:
454,201,2721,2,0,L|428:99,1,89.9999999999999,14|14,0:0|0:0,0:0:0:0:
420,70,3216,5,6,3:1:0:0:
340,111,3545,2,0,L|243:88,1,89.9999999999999,14|0,0:0|3:2,0:0:0:0:
210,74,4040,1,14,0:0:0:0:
91,9,4534,2,0,P|49:18|16:68,1,89.9999999999999,14|0,0:0|3:2,0:0:0:0:
37,94,5029,1,14,0:0:0:0:
80,172,5358,2,0,L|54:264,1,89.9999999999999,14|14,0:0|0:0,0:0:0:0:
87,290,5853,5,6,3:1:0:0:
165,246,6183,2,0,L|254:270,1,89.9999999999999,14|0,0:0|3:2,0:0:0:0:
285,299,6677,2,0,L|378:278,1,89.9999999999999,14|0,0:0|3:2,0:0:0:0:
416,268,7172,1,14,0:0:0:0:
491,156,7666,1,14,0:0:0:0:
422,97,7996,2,0,B|378:109|378:109|331:86,1,89.9999999999999,14|14,0:0|0:0,0:0:0:0:
302,62,8490,5,6,3:1:0:0:
239,127,8820,2,0,P|231:178|260:221,1,89.9999999999999,14|0,0:0|3:2,0:0:0:0:
281,240,9314,2,0,P|289:291|260:334,1,89.9999999999999,14|0,0:0|3:2,0:0:0:0:
244,359,9809,1,2,3:2:0:0:
170,306,10139,2,0,L|78:330,1,89.9999999999999,8|0,0:0|3:2,0:0:0:0:
19,264,10798,1,8,0:0:0:0:
58,183,11128,1,2,0:0:0:0:
58,183,13435,5,10,0:0:0:0:
12,104,13765,6,0,P|49:75|107:80,1,89.9999999999999,6|10,3:1|0:0,0:0:0:0:
166,121,14424,1,2,3:2:0:0:
242,73,14754,1,10,0:0:0:0:
319,119,15084,2,0,P|344:159|340:211,1,89.9999999999999,6|10,3:1|0:0,0:0:0:0:
283,267,15743,2,0,P|258:307|262:359,1,89.9999999999999,6|10,3:1|0:0,0:0:0:0:
341,383,16402,6,0,L|434:355,1,89.9999999999999,6|10,3:1|0:0,0:0:0:0:
487,289,17062,1,2,3:2:0:0:
436,214,17391,1,10,0:0:0:0:
489,141,17721,2,0,P|487:100|440:58,2,89.9999999999999,6|10|2,3:1|0:0|3:2,0:0:0:0:
436,214,18710,1,10,0:0:0:0:
362,161,19040,6,0,B|312:165|327:186|267:192,1,89.9999999999999,6|10,3:1|0:0,0:0:0:0:
208,247,19699,1,2,3:2:0:0:
261,319,20029,1,10,0:0:0:0:
188,371,20358,2,0,L|100:347,1,89.9999999999999,6|10,3:1|0:0,0:0:0:0:
45,276,21018,2,0,L|69:188,1,89.9999999999999,6|10,3:1|0:0,0:0:0:0:
15,116,21677,6,0,P|61:80|103:86,1,89.9999999999999,6|10,3:1|0:0,0:0:0:0:
130,102,22172,1,2,0:0:0:0:
190,35,22501,1,8,0:0:0:0:
273,69,22831,2,0,L|364:44,1,89.9999999999999,2|2,3:2|3:2,0:0:0:0:
403,35,23325,1,10,0:0:0:0:
470,94,23655,1,8,0:0:0:0:
414,165,23985,1,2,3:3:0:0:
478,227,24314,6,0,L|456:321,1,89.9999999999999,6|0,3:1|3:2,0:0:0:0:
374,350,24974,2,0,L|352:256,1,89.9999999999999,2|0,3:2|3:2,0:0:0:0:
267,235,25633,2,0,L|289:141,2,89.9999999999999,2|2|0,3:2|3:2|3:2,0:0:0:0:
189,280,26622,1,2,3:2:0:0:
108,239,26952,6,0,P|99:197|130:145,1,89.9999999999999,6|0,3:2|3:2,0:0:0:0:
175,86,27611,1,6,3:2:0:0:
248,138,27941,1,4,3:2:0:0:
308,71,28270,1,6,3:2:0:0:
376,130,28600,2,0,L|353:224,1,89.9999999999999,6|12,3:2|0:0,0:0:0:0:
344,261,29095,1,2,3:2:0:0:
414,316,29424,6,0,P|457:317|512:239,1,135,6|8,3:1|0:0,0:0:0:0:
463,174,30249,2,0,L|485:77,1,89.9999999999999,2|8,3:2|0:0,0:0:0:0:
455,50,30743,1,6,3:1:0:0:
370,80,31073,1,2,3:2:0:0:
288,42,31402,2,0,B|213:33|241:83|147:71,1,135,6|8,3:1|0:0,0:0:0:0:
84,22,32227,6,0,P|55:64|61:113,1,89.9999999999999,6|0,3:1|3:2,0:0:0:0:
108,175,32886,2,0,P|135:209|136:254,1,89.9999999999999,2|0,3:2|3:2,0:0:0:0:
210,304,33545,2,0,P|183:339|182:383,2,89.9999999999999,2|2|0,3:2|3:2|3:2,0:0:0:0:
298,320,34534,1,0,3:2:0:0:
297,229,34864,6,0,L|272:137,1,89.9999999999999,6|0,3:2|3:2,0:0:0:0:
357,110,35523,2,0,L|380:196,1,89.9999999999999,6|4,3:2|3:2,0:0:0:0:
457,245,36183,1,14,3:2:0:0:
508,170,36512,2,0,P|513:124|485:78,1,89.9999999999999,0|12,3:3|0:0,0:0:0:0:
465,51,37007,1,6,3:2:0:0:
386,95,37336,6,0,B|311:112|333:62|247:80,1,135,6|8,3:1|0:0,0:0:0:0:
176,35,38161,2,0,L|72:61,1,89.9999999999999,2|8,3:2|0:0,0:0:0:0:
46,72,38655,1,6,3:1:0:0:
6,152,38985,1,2,3:2:0:0:
71,213,39314,2,0,B|57:273|57:273|50:277|50:277|33:353,1,135,6|10,3:1|0:0,0:0:0:0:
118,377,40139,6,0,P|154:356|169:299,1,89.9999999999999,6|8,3:2|0:0,0:0:0:0:
207,287,40633,1,6,3:2:0:0:
165,207,40963,1,6,3:2:0:0:
229,144,41292,2,0,B|272:133|272:133|307:161,1,89.9999999999999,6|0,3:2|3:2,0:0:0:0:
342,190,41787,1,12,0:0:0:0:
304,271,42117,1,12,0:0:0:0:
365,336,42446,1,8,0:0:0:0:
449,303,42776,6,0,P|472:272|464:209,1,89.9999999999999,6|8,3:2|0:0,0:0:0:0:
449,182,43270,1,6,3:2:0:0:
499,107,43600,1,6,3:2:0:0:
438,40,43930,2,0,B|397:31|397:31|392:35|392:35|344:25,1,89.9999999999999,6|0,3:2|3:2,0:0:0:0:
314,52,44424,1,12,0:0:0:0:
237,4,44754,2,0,P|200:37|197:91,1,89.9999999999999,4|8,3:3|3:3,0:0:0:0:
252,143,45413,6,0,L|229:232,1,89.9999999999999,6|8,3:2|0:0,0:0:0:0:
256,266,45908,1,6,3:2:0:0:
198,335,46238,1,6,3:2:0:0:
119,290,46567,2,0,B|69:296|80:318|21:327,1,89.9999999999999,6|0,3:2|3:2,0:0:0:0:
6,290,47062,1,12,0:0:0:0:
55,215,47391,1,12,0:0:0:0:
9,137,47721,1,8,0:0:0:0:
59,62,48051,6,0,L|192:88,1,120,6|6,3:2|3:2,0:0:0:0:
216,129,48710,2,0,L|349:103,1,120,14|6,3:2|3:2,0:0:0:0:
370,153,49369,2,0,L|503:179,1,120,14|14,3:2|3:2,0:0:0:0:
509,232,50029,1,14,3:2:0:0:
435,284,50358,1,8,0:0:0:0:
356,328,50688,5,6,3:1:0:0:
285,271,51018,2,0,P|203:254|150:289,1,135,10|0,0:0|3:2,0:0:0:0:
127,307,51677,1,10,0:0:0:0:
57,363,52007,2,0,P|25:336|21:273,1,89.9999999999999,6|8,3:1|0:0,0:0:0:0:
67,216,52666,1,6,3:1:0:0:
10,146,52996,1,8,0:0:0:0:
75,84,53325,6,0,L|181:109,1,89.9999999999999,6|10,3:1|0:0,0:0:0:0:
231,163,53985,1,2,3:2:0:0:
298,103,54314,2,0,P|298:62|262:21,2,89.9999999999999,8|6|8,0:0|3:1|0:0,0:0:0:0:
376,147,55303,1,2,3:2:0:0:
309,208,55633,1,10,0:0:0:0:
368,274,55963,6,0,L|464:249,1,89.9999999999999,6|8,3:1|0:0,0:0:0:0:
500,174,56622,1,2,3:2:0:0:
426,122,56952,1,10,0:0:0:0:
476,48,57281,2,0,B|427:41|449:20|389:13,1,89.9999999999999,6|10,3:1|0:0,0:0:0:0:
323,69,57941,1,6,3:1:0:0:
252,13,58270,1,10,0:0:0:0:
185,74,58600,6,0,B|175:120|175:120|203:163,1,89.9999999999999,6|8,3:1|0:0,0:0:0:0:
275,203,59260,2,0,L|257:292,1,89.9999999999999,6|8,3:1|0:0,0:0:0:0:
249,335,59754,1,6,3:1:0:0:
121,378,60249,1,12,0:0:0:0:
49,323,60578,2,0,L|75:230,1,89.9999999999999,2|8,3:2|0:0,0:0:0:0:
98,149,61238,5,6,3:1:0:0:
46,75,61567,2,0,B|123:66|81:21|171:13,1,135,10|2,0:0|3:2,0:0:0:0:
204,26,62227,1,10,0:0:0:0:
287,58,62556,2,0,P|259:102|272:148,1,89.9999999999999,6|8,3:1|0:0,0:0:0:0:
333,195,63216,1,6,3:1:0:0:
411,151,63545,1,8,0:0:0:0:
473,215,63875,6,0,L|448:315,1,89.9999999999999,6|10,3:1|0:0,0:0:0:0:
375,350,64534,1,2,3:2:0:0:
302,299,64864,2,0,L|205:324,2,89.9999999999999,8|6|8,0:0|3:1|0:0,0:0:0:0:
363,233,65853,1,2,3:2:0:0:
303,165,66183,1,10,0:0:0:0:
361,96,66512,6,0,P|359:56|310:16,1,89.9999999999999,6|8,3:1|0:0,0:0:0:0:
245,61,67172,1,2,3:2:0:0:
163,24,67501,1,10,0:0:0:0:
98,86,67831,2,0,L|123:174,1,89.9999999999999,6|10,3:1|0:0,0:0:0:0:
54,231,68490,2,0,B|39:276|39:276|63:322,1,89.9999999999999,6|10,3:1|0:0,0:0:0:0:
93,343,68985,5,2,0:0:0:0:
167,292,69314,2,0,P|230:278|297:324,1,135,2|0,0:0|3:2,0:0:0:0:
355,372,70139,1,8,0:0:0:0:
427,319,70468,2,0,L|400:221,1,89.9999999999999,14|0,0:0|3:2,0:0:0:0:
469,170,71128,1,10,3:3:0:0:
406,105,71457,1,10,3:3:0:0:
465,36,71787,5,4,3:2:0:0:
465,36,73106,6,0,P|427:9|367:16,1,89.9999999999999,4|8,3:2|0:0,0:0:0:0:
315,65,73765,1,8,0:0:0:0:
233,26,74095,1,14,0:0:0:0:
164,84,74424,6,0,L|189:186,1,89.9999999999999,6|10,3:1|0:0,0:0:0:0:
268,208,75084,2,0,L|243:310,1,89.9999999999999,10|10,0:0|0:0,0:0:0:0:
177,352,75743,1,14,0:0:0:0:
177,352,76073,1,10,0:0:0:0:
103,300,76402,1,14,0:0:0:0:
141,218,76732,1,12,0:0:0:0:
79,152,77062,6,0,P|75:105|107:62,1,89.9999999999999,12|10,0:0|0:0,0:0:0:0:
175,25,77721,2,0,P|213:47|257:42,1,89.9999999999999,10|10,0:0|0:0,0:0:0:0:
329,105,78380,1,14,0:0:0:0:
329,105,78710,1,10,0:0:0:0:
408,62,79040,1,14,0:0:0:0:
475,121,79369,1,12,0:0:0:0:
438,203,79699,6,0,B|420:247|420:247|443:295,1,89.9999999999999,12|10,0:0|0:0,0:0:0:0:
374,348,80358,2,0,B|335:330|335:330|291:347,1,89.9999999999999,10|10,0:0|0:0,0:0:0:0:
205,376,81018,1,14,0:0:0:0:
149,305,81347,1,14,0:0:0:0:
204,233,81677,1,14,0:0:0:0:
154,157,82007,1,14,0:0:0:0:
446,47,84644,6,0,L|433:104,1,45,14|14,3:2|3:2,0:0:0:0:
256,192,84974,12,0,88270,0:0:0:0:
