osu file format v14

[General]
AudioFilename: Sword Art Online - Crossing Field (1st Opening) [English Cover] - NateWantsToBattle.mp3
AudioLeadIn: 0
PreviewTime: 38212
Countdown: 0
SampleSet: Normal
StackLeniency: 0.7
Mode: 2
LetterboxInBreaks: 1
WidescreenStoryboard: 1

[Editor]
Bookmarks: 0,4357,8715,11480,16173,20195,24217,30921,32849,36871,40223,42904,45670,48351,50027
DistanceSpacing: 1.3
BeatDivisor: 4
GridSize: 4
TimelineZoom: 1

[Metadata]
Title:Crossing Field
TitleUnicode:Crossing Field
Artist:NateWantsToBattle
ArtistUnicode:NateWantsToBattle
Creator:Med-Draak
Version:Light Rain
Source:
Tags:
BeatmapID:842018
BeatmapSetID:373125

[Difficulty]
HPDrainRate:5
CircleSize:4
OverallDifficulty:8
ApproachRate:8
SliderMultiplier:1.3
SliderTickRate:1

[Events]
//Background and Video events
Video,0,"crossing field.avi"
0,0,"s.a.o.l..jpg",0,0
//Break Periods
//Storyboard Layer 0 (Background)
//Storyboard Layer 1 (Fail)
//Storyboard Layer 2 (Pass)
//Storyboard Layer 3 (Foreground)
//Storyboard Sound Samples

[TimingPoints]
754,335.195530726257,4,1,0,25,1,0
1005,-100,4,3,0,25,0,0
1508,-100,4,1,0,45,0,0
1591,-100,4,2,0,45,0,0
2178,-100,4,2,0,25,0,0
2513,-100,4,2,0,50,0,0
4189,-100,4,2,0,50,0,0
6033,-100,4,1,0,100,0,0
7039,-100,4,2,0,100,0,0
9385,-100,4,1,0,100,0,0
10726,-100,4,1,0,25,0,0
10893,-100,4,1,0,25,0,0
11048,-100,4,1,0,25,0,0
11396,-100,4,2,0,50,0,0
12318,-100,4,2,0,50,0,0
12821,-100,4,3,0,30,0,0
13156,-100,4,3,0,30,0,0
13240,-100,4,2,0,50,0,0
16173,-100,4,1,0,75,0,0
16843,-100,4,1,0,100,0,0
18100,-100,4,3,0,100,0,0
20027,-100,4,1,0,100,0,0
20195,-133.333333333333,4,1,0,100,0,0
20614,-133.333333333333,4,1,0,100,0,0
22122,-100,4,1,0,75,0,0
23128,-100,4,1,0,5,0,0
23295,-100,4,1,0,75,0,0
23296,-100,4,1,0,75,0,0
25387,-100,4,1,0,100,0,0
25977,-100,4,1,0,75,0,0
26396,-100,4,1,0,75,0,0
26983,-100,4,1,0,75,0,0
28156,-100,4,3,0,75,0,0
30837,-133.333333333333,4,1,0,75,0,0
30837,-133.333333333333,4,1,0,75,0,0
31508,-133.333333333333,4,1,0,80,0,0
32178,-133.333333333333,4,1,0,60,0,0
32848,-100,4,1,0,60,0,0
32849,-100,4,1,0,50,0,0
35698,-100,4,1,0,5,0,0
35865,-100,4,1,0,60,0,0
38212,-100,4,1,0,60,0,0
39385,-100,4,1,0,100,0,0
39552,-100,4,1,0,70,0,0
40810,-100,4,1,0,100,0,0
42821,-200,4,1,0,34,0,0
45083,-200,4,1,0,25,0,0
46256,-80,4,1,0,75,0,1
48184,-80,4,1,0,75,0,1
50614,-100,4,1,0,75,0,1
54217,-80,4,1,0,75,0,1
55726,-80,4,1,0,5,0,1
56312,-100,4,1,0,33,0,0
56983,-80,4,1,0,75,0,1
69301,-100,4,1,0,75,0,1
70406,-100,4,1,0,5,0,1
70558,-100,4,1,0,50,0,1
70977,-100,4,1,0,50,0,1
75670,-100,4,3,0,75,0,1
77178,-100,4,1,0,75,0,0
83631,-200,4,1,0,75,0,0
85809,-200,4,1,0,50,0,0

[Colours]
Combo1 : 0,83,166
Combo2 : 255,255,255
Combo3 : 255,0,0
Combo4 : 107,107,107

[HitObjects]
32,32,83,5,0,2:0:0:0:
144,32,251,1,0,2:0:0:0:
256,32,418,1,0,2:0:0:0:
28,120,754,5,0,2:0:0:0:
280,196,1089,1,0,0:0:0:0:
232,196,1256,1,0,0:0:0:0:
184,196,1424,1,0,0:0:0:0:
92,192,1759,2,0,L|156:192,1,65
148,192,2094,6,0,P|200:192|136:308,1,260
116,216,3267,1,0,0:0:0:0:
148,192,3351,1,0,0:0:0:0:
340,20,3435,6,0,B|384:80|384:80|384:272,1,260
340,216,4441,1,0,0:0:0:0:
220,328,4608,2,0,L|144:328,1,65
16,328,4943,6,0,L|104:328,1,65
212,256,5279,2,0,L|264:204,2,65
188,176,5949,1,0,0:0:0:0:
228,168,6033,1,0,0:0:0:0:
380,40,6117,6,0,B|384:304,1,260
316,116,7122,1,0,0:0:0:0:
152,168,7457,6,0,P|248:144|348:184,1,195
108,264,8128,2,0,P|204:220|296:268,1,195
56,348,8798,6,0,P|152:308|312:344,1,260
436,216,9971,1,0,0:0:0:0:
36,128,10307,5,0,0:0:0:0:
124,232,10474,1,0,0:0:0:0:
240,112,10809,1,0,2:0:0:0:
284,168,10977,1,0,2:0:0:0:
396,168,11145,2,0,L|440:224,1,65,0|0,2:0|2:0,2:0:0:0:
244,212,11480,5,0,0:0:0:0:
132,288,11647,1,0,0:0:0:0:
20,120,11983,1,0,0:0:0:0:
112,128,12318,2,0,L|244:156,1,130
368,176,12821,5,0,0:0:0:0:
360,252,12988,2,0,L|324:308,1,65
208,208,13323,1,0,0:0:0:0:
124,264,13491,2,0,L|44:280,1,65
8,116,13826,1,0,0:0:0:0:
296,152,14161,5,0,0:0:0:0:
416,208,14329,2,0,L|480:244,1,65
360,312,14664,2,0,P|280:336|220:328,2,130
440,200,15502,6,0,L|384:144,1,65
276,156,15837,2,0,L|220:212,1,65
120,256,16172,1,0,0:0:0:0:
32,152,16508,1,0,0:0:0:0:
428,160,16843,5,2,0:0:0:0:
144,184,17346,2,0,P|88:148|156:72,1,195
316,256,18184,6,0,L|376:312,2,65
104,248,18854,1,0,0:0:0:0:
276,168,19189,1,0,0:0:0:0:
380,140,19524,6,0,L|440:100,2,65
100,120,20195,2,0,L|212:120,1,97.50000371933
484,256,20865,6,0,L|384:256,1,97.50000371933
112,244,21536,1,0,0:0:0:0:
240,220,21703,1,0,0:0:0:0:
280,204,21787,1,0,0:0:0:0:
316,220,21871,1,0,0:0:0:0:
336,248,21955,1,0,0:0:0:0:
332,288,22038,1,0,0:0:0:0:
48,120,22206,5,0,0:0:0:0:
132,120,22374,1,0,0:0:0:0:
316,304,22709,1,0,0:0:0:0:
144,296,23044,2,0,P|72:312|56:256,1,130
176,136,23547,6,0,L|224:188,1,65
284,188,23882,2,0,L|320:128,1,65
108,252,24217,1,0,0:0:0:0:
176,252,24552,2,0,P|220:188|340:144,1,195
288,256,25390,5,0,0:0:0:0:
436,320,25726,1,0,0:0:0:0:
100,296,26061,2,0,P|64:256|64:176,1,130
72,108,26564,5,0,0:0:0:0:
304,116,26899,1,0,0:0:0:0:
72,108,27234,1,0,0:0:0:0:
508,320,27569,5,0,0:0:0:0:
28,176,28072,1,0,0:0:0:0:
164,176,28240,2,0,L|212:248,1,65
280,296,28742,1,0,0:0:0:0:
68,228,29078,6,0,L|156:228,1,65
340,232,29580,2,0,L|320:160,1,65
168,148,29916,1,0,0:0:0:0:
27,95,30251,6,0,L|-48:136,2,65
120,128,30921,2,0,P|176:100|224:88,1,97.50000371933
456,200,31591,6,0,P|420:184|344:176,1,97.50000371933
120,128,32262,2,0,L|224:92,1,97.50000371933
312,64,32932,6,0,P|376:104|356:272,1,260
148,296,33938,2,0,L|32:212,1,130
220,104,34776,5,0,0:0:0:0:
464,252,35279,1,0,0:3:0:0:
160,264,35614,2,0,P|188:200|108:104,1,195
64,156,36452,2,0,L|52:248,1,65,0|0,3:0|3:0,3:0:0:0:
292,272,36955,2,0,P|248:192|316:128,1,195
28,48,38295,5,0,3:0:0:0:
80,48,38379,1,0,3:0:0:0:
132,48,38463,1,0,3:0:0:0:
184,48,38547,1,0,3:0:0:0:
184,100,38631,1,0,3:0:0:0:
132,104,38714,1,0,3:0:0:0:
80,104,38798,1,0,3:0:0:0:
28,104,38882,1,0,3:0:0:0:
24,156,38966,1,0,3:0:0:0:
20,208,39050,1,0,3:0:0:0:
160,312,39133,2,0,L|188:232,1,65
444,348,39469,6,0,P|452:268|436:140,1,195
356,220,40307,1,0,3:0:0:0:
356,172,40390,1,0,3:0:0:0:
308,172,40474,1,0,3:0:0:0:
260,176,40558,1,0,3:0:0:0:
216,200,40642,1,0,3:0:0:0:
184,236,40726,1,0,3:0:0:0:
168,280,40809,1,0,3:0:0:0:
284,328,40977,6,0,P|300:268|296:264,1,65
20,336,41480,2,0,P|32:280|108:232,1,130
364,140,42150,1,0,3:0:0:0:
396,144,42234,1,0,3:0:0:0:
432,168,42318,5,0,3:0:0:0:
448,192,42402,1,0,3:0:0:0:
452,228,42485,1,0,3:0:0:0:
204,284,42988,2,0,B|152:240,1,65
236,124,43659,6,0,P|280:112|308:120,1,65
460,240,44161,2,0,P|448:292|436:300,1,65
152,304,44664,2,0,P|124:288|108:260,1,65
16,240,45670,5,0,0:0:0:0:
52,224,45837,1,0,0:0:0:0:
108,232,46005,1,0,0:0:0:0:
504,360,46340,6,2,B|488:304|420:156|204:108,1,406.25
0,112,47346,2,0,L|0:208,1,81.25
80,312,47681,6,0,P|176:272|232:232,1,162.5
504,380,48351,2,2,P|452:248|416:216,1,162.5
180,356,48854,2,2,B|88:312|8:220|0:12,1,406.25
96,88,50027,5,0,0:0:0:0:
216,184,50195,1,0,0:0:0:0:
88,272,50530,5,0,0:0:0:0:
392,92,50865,1,0,0:0:0:0:
152,184,51200,1,0,0:0:0:0:
396,324,51536,1,0,0:0:0:0:
204,192,52038,5,8,3:0:0:0:
296,192,52206,1,0,0:0:0:0:
388,192,52374,1,0,0:0:0:0:
192,192,52709,5,8,3:0:0:0:
296,192,52876,1,0,0:0:0:0:
400,192,53044,1,0,0:0:0:0:
180,192,53379,5,8,3:0:0:0:
296,192,53547,1,0,0:0:0:0:
412,192,53714,1,0,0:0:0:0:
256,84,54050,5,8,3:0:0:0:
256,144,54217,1,0,0:0:0:0:
256,208,54385,2,0,P|240:256|136:272,1,162.5
28,92,54888,1,0,0:0:0:0:
420,88,55223,5,0,0:0:0:0:
16,92,55558,1,0,0:0:0:0:
128,172,55726,5,0,0:0:0:0:
96,264,55893,2,0,L|144:356,1,81.25,0|2,0:0|0:0,0:0:0:0:
244,132,56396,1,0,0:0:0:0:
184,132,56564,1,0,0:0:0:0:
48,132,56731,1,0,0:0:0:0:
440,384,57066,6,2,B|436:308|476:188|496:80|484:-20,1,406.25
408,32,58072,2,0,L|312:88,1,81.25
220,32,58407,6,0,L|44:48,1,162.5
456,312,59078,2,2,L|340:188,1,162.5
56,344,59580,2,2,P|64:188|256:24,1,406.25
400,244,60754,5,0,0:0:0:0:
264,240,60921,1,0,0:0:0:0:
120,248,61256,5,0,0:0:0:0:
352,164,61591,1,0,0:0:0:0:
44,152,61927,1,0,0:0:0:0:
352,64,62262,1,0,0:0:0:0:
92,200,62765,5,8,3:0:0:0:
196,200,62932,1,0,0:0:0:0:
300,200,63100,1,0,0:0:0:0:
72,200,63436,5,8,3:0:0:0:
188,200,63603,1,0,0:0:0:0:
304,200,63771,1,0,0:0:0:0:
52,200,64105,5,8,3:0:0:0:
180,200,64272,1,0,0:0:0:0:
296,200,64440,1,0,0:0:0:0:
256,372,64776,5,8,3:0:0:0:
256,308,64943,2,0,L|336:252,1,81.25
460,240,65446,5,0,0:0:0:0:
420,152,65614,1,0,0:0:0:0:
16,152,65949,2,2,P|32:212|108:288,1,162.5
196,324,66452,5,0,0:0:0:0:
272,328,66619,2,0,L|340:272,1,81.25
420,264,66955,1,0,0:0:0:0:
316,252,67122,1,0,0:0:0:0:
240,252,67457,1,0,0:0:0:0:
60,248,67625,6,0,B|64:176|100:64,1,162.5
196,156,68128,1,0,0:0:0:0:
260,160,68295,2,0,P|299:180|416:180,1,162.5
220,140,68798,2,0,B|184:56|116:16,1,162.5
212,52,69469,5,0,0:0:0:0:
80,88,69636,1,0,0:0:0:0:
16,176,69971,1,0,0:0:0:0:
232,180,70307,1,0,0:0:0:0:
152,248,70474,6,0,P|264:220|304:216,1,130
472,332,70977,2,0,P|384:300|328:296,1,130
16,268,71647,2,0,P|108:216|152:212,1,130
236,188,72318,5,0,0:0:0:0:
144,152,72485,2,0,L|144:72,1,65
32,184,72821,1,0,0:0:0:0:
272,236,72988,2,0,B|128:292|128:292|232:208,1,260
476,204,73994,6,0,L|432:144,1,65
384,224,74497,2,0,L|328:168,1,65
248,232,74999,2,0,L|312:104,1,130
8,236,75837,6,0,L|8:152,1,65,0|0,3:0|3:0,3:0:0:0:
436,236,76340,2,0,L|436:148,1,65,0|0,3:0|3:0,3:0:0:0:
36,40,76843,2,0,L|36:128,1,65,0|0,3:0|3:0,3:0:0:0:
68,112,77848,5,2,0:0:0:0:
132,96,77932,1,2,0:0:0:0:
196,116,78016,1,2,0:0:0:0:
224,176,78100,1,0,0:0:0:0:
172,212,78184,1,0,0:0:0:0:
108,228,78267,1,0,0:0:0:0:
76,284,78351,1,0,3:0:0:0:
132,316,78435,1,0,3:0:0:0:
196,300,78519,1,0,3:0:0:0:
240,40,78854,5,0,0:0:0:0:
76,116,79189,1,0,0:0:0:0:
12,196,79357,1,0,0:0:0:0:
416,192,79692,1,0,0:0:0:0:
20,280,80027,5,0,0:0:0:0:
416,280,80362,1,0,0:0:0:0:
20,356,80698,1,0,0:0:0:0:
416,368,81033,1,0,0:0:0:0:
256,364,81536,5,0,0:0:0:0:
136,304,81871,1,0,0:0:0:0:
88,252,82038,1,0,0:0:0:0:
500,128,82374,1,0,0:0:0:0:
104,128,82709,5,0,0:0:0:0:
500,128,83044,1,0,0:0:0:0:
104,128,83379,1,2,0:0:0:0:
496,128,83714,1,0,0:0:0:0:
256,192,83798,12,0,85893,2:0:0:0:
