osu file format v14

[General]
AudioFilename: audio.mp3
AudioLeadIn: 0
PreviewTime: 49828
Countdown: 0
SampleSet: Soft
StackLeniency: 0.4
Mode: 0
LetterboxInBreaks: 0
WidescreenStoryboard: 1

[Editor]
Bookmarks: 27176,39563,51950,89132,101498
DistanceSpacing: 1
BeatDivisor: 4
GridSize: 32
TimelineZoom: 1

[Metadata]
Title:Ashes
TitleUnicode:Ashes
Artist:NateWantsToBattle
ArtistUnicode:NateWantsToBattle
Creator:Wither
Version:Hard
Source:
Tags:undertale genocide shawn christmas nathan sharp give heart records bad time sans chara english rock
BeatmapID:3148512
BeatmapSetID:805455

[Difficulty]
HPDrainRate:5
CircleSize:3.7
OverallDifficulty:6.2
ApproachRate:7.5
SliderMultiplier:1.2
SliderTickRate:1

[Events]
//Background and Video events
0,0,"creepydemonchild.jpg",0,0
//Break Periods
//Storyboard Layer 0 (Background)
//Storyboard Layer 1 (Fail)
//Storyboard Layer 2 (Pass)
//Storyboard Layer 3 (Foreground)
//Storyboard Layer 4 (Overlay)
//Storyboard Sound Samples

[TimingPoints]
-11,387.096774193548,4,2,0,30,1,0
1538,387.096774193548,4,2,0,30,1,0
1538,-133.333333333333,4,2,0,30,0,0
11602,-121.212121212121,4,2,0,30,0,0
13150,-121.212121212121,4,2,1,60,0,0
13537,-100,4,2,1,60,0,0
13925,-83.3333333333333,4,2,1,60,0,1
26312,-100,4,2,1,40,0,0
38699,-100,4,2,1,50,0,0
50312,-100,4,2,1,35,0,0
51086,-83.3333333333333,4,2,1,70,0,1
74312,-83.3333333333333,4,2,1,70,0,0
75860,-83.3333333333333,4,2,1,70,0,1
88247,-100,4,2,1,40,0,0
100634,-100,4,2,1,50,0,0
112247,-100,4,2,1,35,0,0
113021,-83.3333333333333,4,2,1,70,0,1
136247,-83.3333333333333,4,2,1,70,0,0
137796,-83.3333333333333,4,2,1,70,0,1
148634,-83.3333333333333,4,2,1,70,0,0

[Colours]
Combo1 : 255,255,0
Combo2 : 192,192,192
Combo3 : 128,128,128
Combo4 : 221,94,94
Combo5 : 255,128,64

[HitObjects]
461,158,1538,6,0,L|476:60,2,90.0000034332277,0|0|8,3:2|3:2|0:0,0:0:0:0:
319,229,2699,2,0,L|332:277,1,45.0000017166138
373,161,3086,6,0,L|388:63,2,90.0000034332277,0|0|8,3:2|3:2|0:0,0:0:0:0:
235,233,4247,2,0,L|248:281,1,45.0000017166138,8|8,0:0|0:0,0:0:0:0:
269,364,4634,54,0,L|169:344,2,90.0000034332277,0|0|8,3:2|3:2|0:0,0:0:0:0:
390,254,5796,1,8,0:0:0:0:
390,254,5989,1,0,0:0:0:0:
312,285,6183,6,0,L|212:265,2,90.0000034332277,0|0|8,3:2|3:2|0:0,0:0:0:0:
48,168,7731,54,0,L|33:70,2,90.0000034332277,0|0|8,3:2|3:2|0:0,0:0:0:0:
190,239,8892,2,0,L|177:287,1,45.0000017166138,0|8,0:0|0:0,0:0:0:0:
136,171,9279,6,0,L|121:73,2,90.0000034332277,0|0|8,3:2|3:2|0:0,0:0:0:0:
274,243,10440,2,0,L|261:291,1,45.0000017166138,8|8,0:0|0:0,0:0:0:0:
161,316,10828,54,0,L|264:304,1,90.0000034332277,0|0,3:2|3:2,0:0:0:0:
412,170,11602,2,0,L|300:153,1,99.0000009441376,8|8,0:0|0:0,0:0:0:0:
210,139,12183,1,8,0:0:0:0:
210,139,12376,6,0,P|170:148|144:204,1,99.0000009441376,0|0,3:2|3:2,0:0:0:0:
202,284,12957,1,0,3:2:0:0:
202,284,13054,1,0,3:2:0:0:
202,284,13150,54,0,L|260:277,1,49.5000004720688,8|8,0:0|0:0,0:0:0:0:
325,227,13537,2,0,L|391:237,1,60,8|8,0:0|0:0,0:0:0:0:
470,171,13925,21,4,3:2:0:0:
470,171,14118,2,0,B|447:124|454:93|454:93|432:65|394:60,1,143.999995605469,0|0,3:2|3:2,0:0:0:0:
314,105,14699,1,8,0:0:0:0:
240,42,14892,2,0,B|174:32|131:72|131:72|151:110,1,143.999995605469,8|0,0:0|3:2,0:0:0:0:
117,197,15473,5,0,3:2:0:0:
117,197,15667,2,0,P|58:205|41:125,1,143.999995605469,0|0,3:2|3:2,0:0:0:0:
143,95,16247,1,8,0:0:0:0:
143,95,16441,2,0,B|187:99|210:141|210:141|244:129|275:146,1,143.999995605469,0|8,3:2|0:0,0:0:0:0:
351,235,17021,5,0,3:2:0:0:
351,235,17215,2,0,B|385:263|419:232|419:232|432:154,1,143.999995605469,0|0,3:2|3:2,0:0:0:0:
371,80,17796,1,8,0:0:0:0:
287,155,17989,2,0,B|224:160|185:137|185:137|165:79,1,143.999995605469,8|0,0:0|3:2,0:0:0:0:
75,159,18570,38,0,P|109:193|113:222,1,71.9999978027344,0|8,3:2|0:0,0:0:0:0:
57,290,18957,1,0,3:2:0:0:
57,290,19150,1,0,3:2:0:0:
131,345,19344,2,0,L|208:334,1,71.9999978027344,8|0,0:0|3:2,0:0:0:0:
264,273,19731,1,8,0:0:0:0:
342,321,19925,1,8,0:0:0:0:
411,259,20118,5,4,3:2:0:0:
411,259,20312,2,0,B|458:224|450:166|450:166|405:133,1,143.999995605469,0|0,3:2|3:2,0:0:0:0:
333,203,20892,1,8,0:0:0:0:
272,124,21086,2,0,P|216:97|200:179,1,143.999995605469,8|0,0:0|3:2,0:0:0:0:
53,170,21667,5,0,3:2:0:0:
53,170,21860,2,0,B|77:178|101:169|101:169|112:229|185:248,1,143.999995605469,0|0,3:2|3:2,0:0:0:0:
247,318,22441,1,8,0:0:0:0:
247,318,22634,2,0,B|179:296|136:335|136:335|166:381,1,143.999995605469,0|8,3:2|0:0,0:0:0:0:
37,308,23215,37,0,3:2:0:0:
37,308,23408,2,0,P|74:285|70:191,1,143.999995605469,0|0,3:2|3:2,0:0:0:0:
154,129,23989,1,8,0:0:0:0:
223,196,24183,2,0,P|308:168|378:177,1,143.999995605469,8|0,0:0|3:2,0:0:0:0:
468,85,24763,6,0,L|447:160,1,71.9999978027344,0|8,3:2|0:0,0:0:0:0:
381,44,25150,1,0,3:2:0:0:
381,44,25344,1,0,3:2:0:0:
299,104,25537,2,0,B|262:111|262:111|222:91,1,71.9999978027344,8|0,0:0|3:2,0:0:0:0:
150,48,25925,1,8,0:0:0:0:
150,48,26118,1,8,0:0:0:0:
28,96,26312,22,0,B|64:84|90:109|81:116|109:138|147:131,1,120,6|2,3:2|0:0,0:0:0:0:
228,111,26892,1,2,3:2:0:0:
228,111,27086,2,0,L|222:174,1,60,10|2,0:0|0:0,0:0:0:0:
155,231,27473,2,0,L|163:295,1,60,2|10,0:0|0:0,0:0:0:0:
244,332,27860,5,0,3:2:0:0:
244,332,28054,2,0,P|285:290|346:302,1,120,10|2,0:0|3:2,0:0:0:0:
429,255,28634,2,0,P|408:217|406:190,1,60,10|0,0:0|0:0,0:0:0:0:
489,196,29021,1,2,0:0:0:0:
418,29,29408,54,0,P|378:20|316:91,1,120,0|2,3:2|0:0,0:0:0:0:
238,118,29989,1,2,3:2:0:0:
238,118,30183,2,0,L|249:194,1,60,10|2,0:0|0:0,0:0:0:0:
178,235,30570,1,2,0:0:0:0:
178,235,30763,1,10,0:0:0:0:
91,183,30957,5,2,3:2:0:0:
91,183,31150,2,0,B|87:251|41:230|50:307,1,120,8|0,0:0|3:2,0:0:0:0:
116,369,31731,2,0,P|148:353|174:352,1,60,10|0,0:0|3:2,0:0:0:0:
256,301,32118,2,0,P|301:295|318:277,1,60,10|0,0:0|0:0,0:0:0:0:
406,217,32505,54,0,L|392:350,1,120,4|2,3:2|0:0,0:0:0:0:
492,251,33086,1,2,3:2:0:0:
492,251,33279,2,0,P|496:210|489:191,1,60,10|2,0:0|0:0,0:0:0:0:
415,124,33667,2,0,P|372:135|338:130,1,60,2|10,0:0|0:0,0:0:0:0:
290,66,34054,5,0,3:2:0:0:
290,66,34247,2,0,B|253:44|253:44|206:59|193:109,1,120,10|2,0:0|3:2,0:0:0:0:
160,182,34828,2,0,P|112:176|99:165,1,60,10|0,0:0|0:0,0:0:0:0:
58,99,35215,1,2,0:0:0:0:
3,263,35602,54,0,B|51:245|102:273|102:273|111:299,1,120,2|2,3:2|0:0,0:0:0:0:
128,380,36183,1,2,3:2:0:0:
224,339,36376,2,0,P|283:351|301:293,1,120,10|2,0:0|0:0,0:0:0:0:
389,240,36957,1,10,0:0:0:0:
389,240,37150,6,0,P|379:199|369:178,1,60,0|10,3:2|0:0,0:0:0:0:
484,210,37537,2,0,P|488:173|502:145,1,60,2|2,0:0|3:2,0:0:0:0:
432,80,37925,1,10,0:0:0:0:
432,80,38118,1,8,0:0:0:0:
351,133,38312,1,10,0:0:0:0:
351,133,38505,1,8,0:0:0:0:
263,76,38699,54,0,B|133:65|133:65|165:110,1,180,4|2,3:2|3:2,0:0:0:0:
231,185,39473,2,0,P|230:225|142:234,1,120,10|2,0:0|0:0,0:0:0:0:
87,180,40054,1,10,0:0:0:0:
141,97,40247,22,0,L|214:87,1,60,2|0,3:2|3:2,0:0:0:0:
246,52,40537,1,0,3:2:0:0:
246,52,40634,2,0,L|319:62,1,60,2|0,3:2|3:2,0:0:0:0:
412,107,41021,2,0,P|385:135|380:162,1,60,10|0,0:0|0:0,0:0:0:0:
281,199,41408,2,0,P|305:225|307:262,1,60,2|2,0:0|0:0,0:0:0:0:
422,338,41796,54,0,B|362:331|362:331|345:343|345:343|281:335,1,120,6|2,3:2|0:0,0:0:0:0:
202,374,42376,1,2,3:2:0:0:
202,374,42570,2,0,P|240:385|275:322,1,120,10|0,0:0|0:0,0:0:0:0:
194,256,43150,1,10,0:0:0:0:
96,258,43344,6,0,B|71:240|71:240|62:206,1,60,2|0,3:2|3:2,0:0:0:0:
149,159,43731,2,0,B|176:147|176:147|186:108,1,60,2|0,3:2|3:2,0:0:0:0:
117,22,44118,2,0,P|171:75|226:63,1,120,10|10,0:0|0:0,0:0:0:0:
223,61,44602,1,8,0:0:0:0:
233,51,44699,1,8,0:0:0:0:
242,43,44796,1,8,0:0:0:0:
253,36,44892,38,0,B|336:48|336:48|346:97,1,120,4|2,3:2|3:2,0:0:0:0:
361,186,45473,1,2,3:2:0:0:
361,186,45667,2,0,P|409:196|414:132,1,120,10|2,0:0|0:0,0:0:0:0:
343,83,46247,1,2,0:0:0:0:
239,139,46441,22,0,P|227:179|229:213,1,60,2|0,3:2|0:0,0:0:0:0:
148,263,46828,2,0,P|136:235|115:214,1,60,2|0,0:0|3:2,0:0:0:0:
41,127,47215,2,0,L|118:113,1,60,10|0,0:0|0:0,0:0:0:0:
168,51,47602,1,2,0:0:0:0:
168,51,47796,1,8,0:0:0:0:
269,109,47989,6,0,P|324:106|343:177,1,120,2|2,3:2|3:2,0:0:0:0:
248,261,48763,1,10,2:2:0:0:
318,384,49150,2,0,L|342:333,3,30,10|8|8|8,0:0|0:0|0:0|0:0,0:0:0:0:
324,337,49537,37,2,3:2:0:0:
251,261,49731,1,8,0:0:0:0:
251,261,49828,1,8,0:0:0:0:
251,261,49925,2,0,B|151:253|151:253|129:216,1,120,2|10,3:2|0:0,0:0:0:0:
106,150,50505,1,0,3:2:0:0:
187,98,50699,1,2,3:2:0:0:
187,98,50892,1,0,3:2:0:0:
297,170,51086,6,0,P|356:181|388:107,1,143.999995605469,6|0,0:0|0:0,0:0:0:0:
452,11,51667,1,2,3:2:0:0:
452,11,51860,2,0,P|434:54|432:157,1,143.999995605469,10|0,0:0|0:0,0:0:0:0:
512,208,52441,1,2,3:2:0:0:
445,287,52634,6,0,P|402:292|372:320,1,71.9999978027344,2|0,3:2|0:0,0:0:0:0:
311,170,53021,2,0,P|343:209|388:215,1,71.9999978027344,2|2,0:0|3:2,0:0:0:0:
275,323,53408,2,0,B|282:295|303:285|303:285|309:241|276:196,1,143.999995605469,10|0,0:0|0:0,0:0:0:0:
158,142,53989,1,10,0:0:0:0:
98,230,54183,6,0,B|55:225|8:176|8:176|30:167|48:142,1,143.999995605469,2|0,3:2|0:0,0:0:0:0:
79,28,54763,1,0,0:0:0:0:
79,28,54957,2,0,P|39:37|31:75,1,71.9999978027344,10|8,0:0|0:0,0:0:0:0:
156,89,55344,2,0,P|217:86|262:46,1,107.999996704102,2|0,0:0|0:0,0:0:0:0:
270,42,55731,38,0,L|248:136,2,71.9999978027344,2|8|0,3:2|0:0|3:2,0:0:0:0:
369,0,56312,1,2,3:2:0:0:
369,0,56505,2,0,P|412:17|429:47,1,71.9999978027344,10|2,0:0|3:2,0:0:0:0:
364,132,56892,2,0,B|324:111|332:63,1,71.9999978027344,10|10,0:0|0:0,0:0:0:0:
366,241,57279,6,0,P|323:206|238:241,1,143.999995605469,6|0,0:0|0:0,0:0:0:0:
165,320,57860,1,2,3:2:0:0:
165,320,58054,2,0,P|191:280|199:174,1,143.999995605469,10|0,0:0|0:0,0:0:0:0:
143,93,58634,1,2,3:2:0:0:
62,147,58828,6,0,P|22:142|-9:117,1,71.9999978027344,2|0,3:2|0:0,0:0:0:0:
87,247,59215,2,0,P|64:271|24:286,1,71.9999978027344,2|0,0:0|3:2,0:0:0:0:
174,181,59602,2,0,B|242:162|238:206|263:225|330:209,1,143.999995605469,10|0,0:0|0:0,0:0:0:0:
385,152,60183,1,10,0:0:0:0:
448,267,60376,38,0,B|435:241|411:227|411:227|396:173|428:123,1,143.999995605469,2|2,3:2|0:0,0:0:0:0:
472,59,60957,1,0,0:0:0:0:
472,59,61150,2,0,P|427:45|401:13,1,71.9999978027344,10|8,0:0|0:0,0:0:0:0:
258,22,61537,2,0,P|306:48|302:109,1,107.999996704102,2|0,0:0|0:0,0:0:0:0:
296,113,61925,5,2,3:2:0:0:
208,151,62118,1,8,0:0:0:0:
139,86,62312,2,0,P|99:112|84:150,1,71.9999978027344,2|2,3:2|3:2,0:0:0:0:
46,222,62699,2,0,P|58:255|93:283,1,71.9999978027344,10|2,0:0|3:2,0:0:0:0:
200,322,63086,1,10,0:0:0:0:
110,380,63279,1,10,0:0:0:0:
207,329,63473,6,0,B|247:309|259:337|306:364|345:326,1,143.999995605469,6|0,0:0|0:0,0:0:0:0:
450,248,64054,1,2,3:2:0:0:
450,248,64247,2,0,P|379:253|375:184,1,143.999995605469,10|0,0:0|0:0,0:0:0:0:
460,155,64828,1,2,3:2:0:0:
460,155,65021,38,0,P|495:111|484:79,1,71.9999978027344,2|0,3:2|0:0,0:0:0:0:
412,45,65408,1,2,0:0:0:0:
372,126,65602,1,2,3:2:0:0:
289,69,65796,2,0,B|249:71|225:102|225:102|186:112|155:85,1,143.999995605469,10|0,0:0|0:0,0:0:0:0:
93,10,66376,1,10,0:0:0:0:
21,55,66570,6,0,B|0:73|-2:98|-2:98|31:136|25:208,1,143.999995605469,2|2,3:2|0:0,0:0:0:0:
0,281,67150,1,0,0:0:0:0:
79,342,67344,2,0,P|109:321|98:274,1,71.9999978027344,10|8,0:0|0:0,0:0:0:0:
208,188,67731,2,0,B|193:197|183:219|183:219|212:252|210:299,1,107.999996704102,2|0,0:0|0:0,0:0:0:0:
205,307,68118,5,2,3:2:0:0:
262,376,68312,1,10,0:0:0:0:
262,376,68505,2,0,P|309:367|329:344,1,71.9999978027344,2|2,3:2|3:2,0:0:0:0:
296,218,68892,2,0,P|339:250|384:251,1,71.9999978027344,10|2,0:0|3:2,0:0:0:0:
452,233,69279,1,10,0:0:0:0:
385,161,69473,1,10,0:0:0:0:
481,112,69667,38,0,P|412:128|318:130,1,143.999995605469,6|0,0:0|0:0,0:0:0:0:
210,46,70247,1,2,3:2:0:0:
210,46,70441,2,0,B|254:13|254:13|284:40|364:39,1,143.999995605469,10|0,0:0|0:0,0:0:0:0:
404,122,71021,1,2,3:2:0:0:
302,138,71215,6,0,P|258:170|251:196,1,71.9999978027344,2|0,3:2|3:2,0:0:0:0:
322,303,71602,2,0,P|375:307|402:291,1,71.9999978027344,2|0,0:0|0:0,0:0:0:0:
238,272,71989,2,0,P|177:259|151:331,1,143.999995605469,10|0,0:0|0:0,0:0:0:0:
77,384,72570,1,10,0:0:0:0:
23,286,72763,6,0,P|0:224|-2:205,1,71.9999978027344,2|8,3:2|0:0,0:0:0:0:
110,132,73150,2,0,P|96:176|92:217,1,71.9999978027344,2|0,3:2|3:2,0:0:0:0:
202,324,73537,2,0,P|158:284|144:255,1,71.9999978027344,10|0,0:0|3:2,0:0:0:0:
198,157,73925,1,2,3:2:0:0:
235,236,74118,1,0,3:2:0:0:
120,195,74312,37,10,0:0:0:0:
52,188,75860,5,4,0:0:0:0:
52,188,76054,2,0,B|86:172|95:156|95:156|135:185|211:180,1,143.999995605469,0|0,3:2|3:2,0:0:0:0:
271,94,76634,1,8,0:0:0:0:
250,9,76828,2,0,P|203:1|190:92,1,143.999995605469,8|0,0:0|3:2,0:0:0:0:
190,215,77408,5,0,3:2:0:0:
190,215,77602,2,0,B|142:228|91:213|91:213|105:240|96:287,1,143.999995605469,0|0,3:2|3:2,0:0:0:0:
200,325,78183,1,8,0:0:0:0:
200,325,78376,2,0,P|279:315|277:256,1,143.999995605469,0|8,3:2|0:0,0:0:0:0:
391,190,78957,37,0,3:2:0:0:
391,190,79150,2,0,B|433:190|474:169|474:169|467:205|487:236,1,143.999995605469,0|0,3:2|3:2,0:0:0:0:
500,334,79731,1,8,0:0:0:0:
399,364,79925,2,0,P|288:336|254:335,1,143.999995605469,8|2,0:0|3:2,0:0:0:0:
161,227,80505,6,0,P|133:253|91:238,1,71.9999978027344,0|10,3:2|0:0,0:0:0:0:
221,152,80892,1,2,3:2:0:0:
221,152,81086,1,2,3:2:0:0:
307,210,81279,2,0,B|303:167|303:167|312:126,1,71.9999978027344,10|0,0:0|3:2,0:0:0:0:
379,260,81667,1,10,0:0:0:0:
443,210,81860,1,8,0:0:0:0:
470,298,82054,5,4,3:2:0:0:
470,298,82247,2,0,B|428:283|401:312|401:312|378:352|335:342,1,143.999995605469,0|0,3:2|3:2,0:0:0:0:
237,315,82828,1,8,0:0:0:0:
176,378,83021,2,0,P|119:344|124:272,1,143.999995605469,8|0,0:0|3:2,0:0:0:0:
64,137,83602,37,0,3:2:0:0:
64,137,83796,2,0,B|125:160|172:121|172:121|154:83,1,143.999995605469,0|0,3:2|3:2,0:0:0:0:
279,42,84376,1,8,0:0:0:0:
279,42,84570,2,0,P|303:101|302:191,1,143.999995605469,0|8,3:2|0:0,0:0:0:0:
381,303,85150,5,0,3:2:0:0:
381,303,85344,2,0,B|402:280|428:280|428:280|467:239|454:175,1,143.999995605469,0|0,3:2|3:2,0:0:0:0:
422,98,85925,1,8,0:0:0:0:
309,143,86118,2,0,P|237:131|226:62,1,143.999995605469,8|0,0:0|3:2,0:0:0:0:
129,0,86699,6,0,B|154:31|154:31|125:81,1,71.9999978027344,0|8,3:2|0:0,0:0:0:0:
54,52,87086,1,0,3:2:0:0:
54,52,87279,1,0,3:2:0:0:
0,136,87473,2,0,P|70:143|91:168,1,71.9999978027344,8|0,0:0|3:2,0:0:0:0:
131,232,87860,1,8,0:0:0:0:
214,177,88054,1,8,0:0:0:0:
265,276,88247,6,0,B|282:264|304:261|304:261|330:238|327:184,1,120,4|2,3:2|0:0,0:0:0:0:
398,134,88828,1,2,3:2:0:0:
398,134,89021,2,0,P|439:148|477:140,1,60,10|2,0:0|0:0,0:0:0:0:
392,40,89408,2,0,P|347:51|330:70,1,60,2|10,0:0|0:0,0:0:0:0:
293,158,89796,5,0,3:2:0:0:
235,226,89989,2,0,P|175:200|178:141,1,120,10|2,0:0|3:2,0:0:0:0:
69,111,90570,2,0,P|78:147|80:184,1,60,10|0,0:0|0:0,0:0:0:0:
142,63,90957,1,2,0:0:0:0:
290,0,91344,54,0,B|345:11|362:36|362:36|340:65|343:88,1,120,2|2,3:2|0:0,0:0:0:0:
363,156,91925,1,2,3:2:0:0:
363,156,92118,2,0,P|422:170|444:165,1,60,10|2,0:0|0:0,0:0:0:0:
493,250,92505,2,0,P|448:261|429:274,1,60,2|10,0:0|0:0,0:0:0:0:
346,361,92892,5,0,3:2:0:0:
274,306,93086,2,0,B|221:326|185:276|185:276|204:239,1,120,8|0,0:0|3:2,0:0:0:0:
113,182,93667,2,0,P|97:219|107:247,1,60,10|0,0:0|3:2,0:0:0:0:
201,156,94054,2,0,P|255:162|266:157,1,60,10|0,0:0|0:0,0:0:0:0:
201,21,94441,54,0,B|144:26|127:69|127:69|136:97,1,120,6|2,3:2|0:0,0:0:0:0:
49,131,95021,1,2,3:2:0:0:
49,131,95215,2,0,P|71:175|90:182,1,60,10|2,0:0|0:0,0:0:0:0:
159,248,95602,2,0,P|126:257|102:276,1,60,2|10,0:0|0:0,0:0:0:0:
213,322,95989,5,0,3:2:0:0:
213,322,96183,1,10,0:0:0:0:
286,269,96376,2,0,B|305:263|326:272|326:272|358:252|370:209,2,120,2|10|2,0:0|0:0|0:0,0:0:0:0:
227,198,97344,1,0,0:0:0:0:
148,247,97537,54,0,B|118:234|118:234|88:205|114:143,1,120,2|2,3:2|0:0,0:0:0:0:
176,74,98118,1,2,3:2:0:0:
259,129,98312,2,0,P|304:127|320:63,1,120,10|2,0:0|0:0,0:0:0:0:
408,22,98892,1,10,0:0:0:0:
487,90,99086,6,0,P|462:122|458:152,1,60,2|10,3:2|0:0,0:0:0:0:
319,124,99473,2,0,P|359:147|370:166,1,60,2|2,0:0|3:2,0:0:0:0:
441,241,99860,1,10,0:0:0:0:
441,241,100054,1,8,0:0:0:0:
333,235,100247,1,10,0:0:0:0:
333,235,100441,1,8,0:0:0:0:
356,325,100634,54,0,B|327:336|319:360|319:360|237:379|190:312,1,180,6|2,3:2|3:2,0:0:0:0:
224,233,101408,2,0,P|203:184|138:207,1,120,10|2,0:0|0:0,0:0:0:0:
79,265,101989,1,10,0:0:0:0:
30,183,102183,22,0,P|37:139|60:115,1,60,2|0,3:2|3:2,0:0:0:0:
109,115,102473,1,0,3:2:0:0:
109,115,102570,2,0,P|149:137|161:163,1,60,2|0,3:2|3:2,0:0:0:0:
228,221,102957,2,0,P|277:218|299:204,1,60,10|0,0:0|0:0,0:0:0:0:
387,147,103344,2,0,P|349:138|325:121,1,60,2|2,0:0|0:0,0:0:0:0:
465,102,103731,54,0,B|485:138|485:138|472:162|478:220,1,120,6|2,3:2|0:0,0:0:0:0:
412,282,104312,1,2,3:2:0:0:
412,282,104505,2,0,B|324:265|324:265|362:239,1,120,10|0,0:0|0:0,0:0:0:0:
273,168,105086,1,10,0:0:0:0:
273,168,105279,6,0,P|229:171|199:199,1,60,2|0,3:2|3:2,0:0:0:0:
135,255,105667,2,0,P|121:215|135:180,1,60,2|0,3:2|3:2,0:0:0:0:
70,114,106054,2,0,B|115:91|159:103|159:103|177:71,1,120,10|10,0:0|0:0,0:0:0:0:
179,66,106537,1,8,0:0:0:0:
184,57,106634,1,8,0:0:0:0:
189,50,106731,1,8,0:0:0:0:
194,42,106828,38,0,P|225:97|284:100,1,120,4|2,3:2|3:2,0:0:0:0:
379,174,107408,1,2,3:2:0:0:
379,174,107602,2,0,B|333:171|299:206|299:206|298:260,1,120,10|2,0:0|0:0,0:0:0:0:
223,305,108183,1,2,0:0:0:0:
129,268,108376,22,0,P|101:242|90:210,1,60,2|0,3:2|0:0,0:0:0:0:
158,156,108763,2,0,P|190:139|208:106,1,60,2|0,0:0|3:2,0:0:0:0:
280,27,109150,2,0,L|288:92,1,60,10|0,0:0|0:0,0:0:0:0:
402,118,109537,1,2,0:0:0:0:
315,174,109731,1,8,0:0:0:0:
407,127,109925,6,0,P|458:135|497:74,1,120,2|2,3:2|3:2,0:0:0:0:
409,231,110699,1,10,0:2:0:0:
476,335,111086,2,0,L|439:342,3,30,10|8|8|8,0:0|0:0|0:0|0:0,0:0:0:0:
422,346,111473,37,2,3:2:0:0:
343,282,111667,1,8,0:0:0:0:
343,282,111763,1,8,0:0:0:0:
343,282,111860,2,0,P|275:277|238:232,1,120,2|10,3:2|0:0,0:0:0:0:
187,163,112441,1,0,3:2:0:0:
99,202,112634,1,2,3:2:0:0:
99,202,112828,1,0,3:2:0:0:
25,104,113021,6,0,B|18:66|46:47|46:47|88:62|156:46,1,143.999995605469,6|0,0:0|0:0,0:0:0:0:
235,8,113602,1,2,3:2:0:0:
235,8,113796,2,0,P|285:3|315:93,1,143.999995605469,10|0,0:0|0:0,0:0:0:0:
386,157,114376,1,2,3:2:0:0:
300,186,114570,6,0,P|263:173|237:143,1,71.9999978027344,2|0,3:2|0:0,0:0:0:0:
391,240,114957,2,0,P|426:234|462:180,1,71.9999978027344,2|2,0:0|3:2,0:0:0:0:
306,285,115344,2,0,B|272:288|252:308|252:308|203:313|174:267,1,143.999995605469,10|0,0:0|0:0,0:0:0:0:
128,178,115925,1,10,0:0:0:0:
73,122,116118,6,0,P|49:165|52:204,1,71.9999978027344,2|0,3:2|3:2,0:0:0:0:
209,189,116505,2,2,P|207:152|187:118,1,71.9999978027344,0|0,0:0|0:0,0:0:0:0:
97,45,116892,1,10,0:0:0:0:
97,45,117086,1,8,0:0:0:0:
209,15,117279,2,0,B|253:19|281:47|281:47|302:34|333:37,1,107.999996704102,2|0,0:0|0:0,0:0:0:0:
330,28,117667,38,0,P|375:49|388:101,2,71.9999978027344,2|8|0,3:2|0:0|3:2,0:0:0:0:
271,125,118247,1,2,3:2:0:0:
271,125,118441,2,0,L|347:136,1,71.9999978027344,10|2,0:0|3:2,0:0:0:0:
397,215,118828,1,10,0:0:0:0:
312,242,119021,1,10,0:0:0:0:
356,310,119215,6,0,P|293:303|277:383,1,143.999995605469,6|0,0:0|0:0,0:0:0:0:
176,293,119796,1,2,3:2:0:0:
176,293,119989,2,0,B|146:267|122:254|122:254|139:221|139:172,1,143.999995605469,10|0,0:0|0:0,0:0:0:0:
102,89,120570,1,2,3:2:0:0:
198,57,120763,6,0,P|244:65|259:104,1,71.9999978027344,2|0,3:2|0:0,0:0:0:0:
190,213,121150,2,0,P|204:185|250:162,1,71.9999978027344,2|0,0:0|3:2,0:0:0:0:
281,276,121537,2,0,B|321:304|379:297|379:297|381:272|395:252,1,143.999995605469,10|0,0:0|0:0,0:0:0:0:
472,355,122118,1,10,0:0:0:0:
512,247,122312,38,0,P|506:214|474:183,1,71.9999978027344,2|0,3:2|3:2,0:0:0:0:
375,142,122699,2,0,P|421:128|448:88,1,71.9999978027344,2|0,0:0|0:0,0:0:0:0:
327,71,123086,1,10,0:0:0:0:
327,71,123279,1,8,0:0:0:0:
259,146,123473,2,0,B|235:158|235:158|184:151|167:105,1,107.999996704102,2|0,0:0|0:0,0:0:0:0:
165,94,123860,5,2,3:2:0:0:
78,71,124054,1,8,0:0:0:0:
40,154,124247,2,0,P|6:126|-1:95,1,71.9999978027344,2|2,3:2|3:2,0:0:0:0:
138,190,124634,2,0,P|136:235|116:265,1,71.9999978027344,10|2,0:0|3:2,0:0:0:0:
70,336,125021,1,10,0:0:0:0:
0,258,125215,1,10,0:0:0:0:
74,348,125408,6,0,B|128:383|178:355|178:355|201:310,1,143.999995605469,6|0,0:0|0:0,0:0:0:0:
264,210,125989,1,2,3:2:0:0:
264,210,126183,2,0,P|267:265|352:237,1,143.999995605469,10|0,0:0|0:0,0:0:0:0:
413,212,126763,1,2,3:2:0:0:
472,275,126957,38,0,P|451:219|456:184,1,71.9999978027344,2|0,3:2|0:0,0:0:0:0:
396,129,127344,1,2,0:0:0:0:
314,162,127537,1,2,3:2:0:0:
296,251,127731,2,0,B|255:240|232:207|232:207|195:211|175:241,1,143.999995605469,10|0,0:0|0:0,0:0:0:0:
111,153,128312,1,10,0:0:0:0:
52,222,128505,6,0,P|17:195|7:164,1,71.9999978027344,2|0,3:2|3:2,0:0:0:0:
72,310,128892,2,0,P|123:298|142:276,1,71.9999978027344,2|0,0:0|0:0,0:0:0:0:
192,179,129279,1,10,0:0:0:0:
192,179,129473,1,8,0:0:0:0:
281,278,129667,2,0,B|307:261|307:261|330:230|314:184,1,107.999996704102,2|0,0:0|0:0,0:0:0:0:
299,170,130054,5,2,3:2:0:0:
334,90,130247,1,10,0:0:0:0:
422,113,130441,2,0,P|462:111|493:87,1,71.9999978027344,2|2,3:2|3:2,0:0:0:0:
430,194,130828,2,0,P|411:217|409:265,1,71.9999978027344,10|2,0:0|3:2,0:0:0:0:
459,364,131215,1,10,0:0:0:0:
459,364,131408,1,10,0:0:0:0:
336,367,131602,38,0,B|256:356|256:356|226:325|239:267,1,143.999995605469,6|0,0:0|0:0,0:0:0:0:
218,181,132183,1,2,3:2:0:0:
218,181,132376,2,0,B|268:174|286:209|276:217|312:238|350:227,1,143.999995605469,10|0,0:0|0:0,0:0:0:0:
451,270,132957,1,2,3:2:0:0:
459,173,133150,6,0,P|448:129|423:102,1,71.9999978027344,2|0,3:2|3:2,0:0:0:0:
281,130,133537,2,0,P|327:115|347:84,1,71.9999978027344,2|0,0:0|0:0,0:0:0:0:
459,0,133925,2,0,P|434:60|431:166,1,143.999995605469,10|0,0:0|0:0,0:0:0:0:
385,238,134505,1,10,0:0:0:0:
299,183,134699,6,0,P|242:176|210:186,1,71.9999978027344,2|8,3:2|0:0,0:0:0:0:
136,281,135086,2,0,P|192:269|219:240,1,71.9999978027344,2|0,3:2|3:2,0:2:0:0:
354,333,135473,2,0,P|314:295|282:294,1,71.9999978027344,10|0,0:0|3:2,0:0:0:0:
185,353,135860,1,2,3:2:0:0:
288,384,136054,1,0,3:2:0:0:
211,269,136247,37,10,0:0:0:0:
39,281,137021,6,0,B|21:248|21:248|25:205,1,71.9999978027344,8|8,0:0|0:0,0:0:0:0:
138,262,137408,2,0,B|120:229|120:229|124:186,1,71.9999978027344,8|8,0:0|0:0,0:0:0:0:
218,142,137796,5,4,0:0:0:0:
218,142,137989,2,0,P|273:149|295:231,1,143.999995605469,0|0,3:2|3:2,0:0:0:0:
380,294,138570,1,8,0:0:0:0:
465,233,138763,2,0,P|461:186|493:85,1,143.999995605469,8|0,0:0|3:2,0:0:0:0:
397,3,139344,37,0,3:2:0:0:
397,3,139537,2,0,B|352:19|334:49|334:49|295:23|240:34,1,143.999995605469,0|0,3:2|3:2,0:0:0:0:
232,116,140118,1,8,0:0:0:0:
232,116,140312,2,0,B|283:112|332:151|332:151|337:178|301:202,1,143.999995605469,0|8,3:2|0:0,0:0:0:0:
254,278,140892,5,0,3:2:0:0:
254,278,141086,2,0,B|187:286|152:246|152:246|145:211,1,143.999995605469,0|0,3:2|3:2,0:0:0:0:
68,141,141667,1,8,0:0:0:0:
17,227,141860,2,0,B|49:245|53:270|53:270|36:365,1,143.999995605469,8|2,0:0|3:2,0:0:0:0:
156,235,142441,5,0,3:2:0:0:
156,235,142634,1,10,0:0:0:0:
224,331,142828,2,0,P|261:297|292:292,1,71.9999978027344,2|2,3:2|3:2,0:0:0:0:
403,285,143215,2,0,L|235:249,1,143.999995605469,10|10,0:0|0:0,0:0:0:0:
156,235,143796,1,8,0:0:0:0:
95,144,143989,37,4,3:2:0:0:
95,144,144183,2,0,B|93:181|126:193|126:193|220:177,1,143.999995605469,0|0,3:2|3:2,0:0:0:0:
311,202,144763,1,8,0:0:0:0:
352,107,144957,2,0,P|345:53|261:41,1,143.999995605469,8|0,0:0|3:2,0:0:0:0:
146,64,145537,5,0,3:2:0:0:
146,64,145731,2,0,B|187:106|187:106|159:221,1,143.999995605469,0|0,3:2|3:2,0:0:0:0:
240,306,146312,1,8,0:0:0:0:
240,306,146505,2,0,P|233:263|306:294,1,143.999995605469,0|8,3:2|0:0,0:0:0:0:
409,347,147086,5,0,3:2:0:0:
409,347,147279,2,0,B|413:274|477:308|463:201,1,143.999995605469,0|0,3:2|3:2,0:0:0:0:
405,150,147860,1,8,0:0:0:0:
316,164,148054,1,8,0:0:0:0:
302,250,148247,1,8,0:0:0:0:
217,194,148441,37,8,0:0:0:0:
