osu file format v14

[General]
AudioFilename: audio.mp3
AudioLeadIn: 0
PreviewTime: 136801
Countdown: 0
SampleSet: Soft
StackLeniency: 0.7
Mode: 0
LetterboxInBreaks: 0
WidescreenStoryboard: 0

[Editor]
DistanceSpacing: 1
BeatDivisor: 4
GridSize: 32
TimelineZoom: 1.7

[Metadata]
Title:X. THE FLOWER
TitleUnicode:X. THE FLOWER
Artist:Natasha (CV: Ogura Yui)
ArtistUnicode:ナターシャ(CV: 小倉唯)
Creator:Kuro Fuyusaki
Version:Normal
Source:メメントモリ
Tags:mementomori mememori folk japanese japan bach minuet video game gacha bank of innovation frozz -Keqing
BeatmapID:3480856
BeatmapSetID:1703593

[Difficulty]
HPDrainRate:4
CircleSize:3.5
OverallDifficulty:4
ApproachRate:5.5
SliderMultiplier:1
SliderTickRate:1

[Events]
//Background and Video events
0,0,"BG.png",0,0
//Break Periods
//Storyboard Layer 0 (Background)
//Storyboard Layer 1 (Fail)
//Storyboard Layer 2 (Pass)
//Storyboard Layer 3 (Foreground)
//Storyboard Layer 4 (Overlay)
//Storyboard Sound Samples

[TimingPoints]
92,379.746835443038,6,2,1,10,1,0
4648,-100,6,2,1,10,0,0
4838,-100,6,2,1,8,0,0
5028,-100,6,2,1,10,0,0
5218,-100,6,2,1,11,0,0
5408,-100,6,2,1,12,0,0
5598,-100,6,2,1,14,0,0
5788,-100,6,2,1,15,0,0
5978,-100,6,2,1,6,0,0
6167,-100,6,2,1,7,0,0
6357,-100,6,2,1,8,0,0
6547,-100,6,2,1,9,0,0
6737,-100,6,2,1,10,0,0
6927,-100,6,2,1,12,0,0
7117,-100,6,2,1,8,0,0
7307,-100,6,2,1,9,0,0
7497,-100,6,2,1,10,0,0
7686,-100,6,2,1,12,0,0
7876,-100,6,2,1,14,0,0
8066,-100,6,2,1,16,0,0
8256,-100,6,2,1,8,0,0
8446,-100,6,2,1,9,0,0
8636,-100,6,2,1,10,0,0
8826,-100,6,2,1,11,0,0
9016,-100,6,2,1,12,0,0
9206,-100,6,2,1,15,0,0
18319,-100,6,2,1,18,0,0
27433,-100,6,2,1,22,0,0
35571,-100,6,2,3,26,0,0
36547,-95.2380952380952,6,2,4,33,0,0
45661,-95.2380952380952,6,2,4,34,0,0
53826,-95.2380952380952,6,2,3,34,0,0
54775,-95.2380952380952,6,2,5,48,0,0
63889,-111.111111111111,6,2,1,10,0,0
73003,-111.111111111111,6,2,1,14,0,0
82117,-100,6,2,2,24,0,0
99585,-100,6,2,1,6,0,0
99633,-100,6,2,1,7,0,0
99680,-100,6,2,1,8,0,0
99728,-100,6,2,1,9,0,0
99775,-100,6,2,1,10,0,0
99823,-100,6,2,1,11,0,0
99870,-100,6,2,1,12,0,0
99917,-100,6,2,1,13,0,0
99965,-100,6,2,1,14,0,0
100012,-100,6,2,1,15,0,0
100060,-100,6,2,1,16,0,0
100107,-100,6,2,1,17,0,0
100155,-100,6,2,1,18,0,0
100202,-100,6,2,1,19,0,0
100250,-100,6,2,1,20,0,0
100297,-100,6,2,1,21,0,0
100345,-100,6,2,6,30,0,0
117623,-100,6,3,2,30,0,0
117813,-100,6,3,2,40,0,0
118003,-100,6,3,2,50,0,0
118383,-100,6,3,2,60,0,0
118573,-95.2380952380952,6,2,6,40,0,0
136041,-95.2380952380952,6,2,6,6,0,0
136088,-95.2380952380952,6,2,6,7,0,0
136136,-95.2380952380952,6,2,6,8,0,0
136183,-95.2380952380952,6,2,6,9,0,0
136231,-95.2380952380952,6,2,6,10,0,0
136278,-95.2380952380952,6,2,6,11,0,0
136326,-95.2380952380952,6,2,6,12,0,0
136373,-95.2380952380952,6,2,6,13,0,0
136421,-95.2380952380952,6,2,6,14,0,0
136468,-95.2380952380952,6,2,6,16,0,0
136516,-95.2380952380952,6,2,6,18,0,0
136563,-95.2380952380952,6,2,6,20,0,0
136610,-95.2380952380952,6,2,6,22,0,0
136658,-95.2380952380952,6,2,6,24,0,0
136705,-95.2380952380952,6,2,6,26,0,0
136753,-95.2380952380952,6,2,6,28,0,0
136800,-95.2380952380952,6,2,5,54,0,1
157307,-92.5925925925926,6,2,5,58,0,1
159585,-90.9090909090909,6,2,5,62,0,1
160724,-90.9090909090909,6,2,5,68,0,1
161674,-90.9090909090909,6,2,5,72,0,1
161864,-88.4955752212389,6,2,5,74,0,1
162243,-88.4955752212389,6,2,5,76,0,1
162433,-88.4955752212389,6,2,5,78,0,1
162623,-88.4955752212389,6,2,5,80,0,1
162813,-88.4955752212389,6,2,5,82,0,1
163003,-88.4955752212389,6,2,5,82,0,0
164142,-125,6,2,1,12,0,0
173256,-125,6,2,1,10,0,0
177433,-125,6,2,1,6,0,0
177813,-125,6,2,1,10,0,0
179712,-125,6,2,1,6,0,0
181990,-125,6,2,1,5,0,0

[Colours]
Combo1 : 202,134,232
Combo2 : 255,179,102
Combo3 : 157,167,255
Combo4 : 255,128,128

[HitObjects]
63,139,92,6,0,P|90:94|142:84,1,100,2|2,0:0|0:0,0:0:0:0:
187,81,661,1,2,0:0:0:0:
305,173,1231,1,2,0:0:0:0:
429,311,2370,6,0,P|401:266|350:256,1,100,2|2,0:0|0:0,0:0:0:0:
305,253,2940,1,2,0:0:0:0:
187,345,3509,1,2,0:0:0:0:
0,241,4649,6,0,P|9:192|32:147,1,100,2|2,0:0|0:0,0:0:0:0:
71,117,5218,2,0,L|120:109,1,50,2|2,0:0|1:2,0:0:0:0:
170,103,5598,1,2,0:0:0:0:
208,135,5788,1,2,0:0:0:0:
374,384,6927,6,0,P|422:374|467:351,1,100,2|2,0:0|0:0,0:0:0:0:
498,313,7497,2,0,L|505:263,1,50,2|2,0:0|1:2,0:0:0:0:
512,214,7876,1,2,0:0:0:0:
480,176,8066,1,2,0:0:0:0:
298,131,9206,6,0,P|215:121|172:188,1,150,2|0,0:0|0:0,0:0:0:0:
264,225,10155,1,0,0:0:0:0:
264,225,10345,2,0,P|212:314|113:309,1,200,2|0,0:0|0:0,0:0:0:0:
38,265,11484,6,0,P|26:216|6:170,2,100,2|2|2,0:0|0:0|0:0,0:0:0:0:
129,220,12623,1,2,0:0:0:0:
129,220,12813,1,2,0:0:0:0:
278,19,13763,6,0,P|318:-8|366:-1,2,100,2|2|2,0:0|0:0|0:0,0:0:0:0:
318,110,14902,2,0,L|366:99,1,50,2|2,0:0|0:0,0:0:0:0:
416,90,15282,1,2,0:0:0:0:
494,151,15661,2,0,L|483:199,1,50,2|2,0:0|0:0,0:0:0:0:
467,247,16041,2,0,B|399:286|319:269|265:183|265:183|249:210|216:223,1,300,2|2,0:0|0:0,0:0:0:0:
0,363,18320,6,0,P|104:349|47:260,1,250,2|0,3:2|0:0,0:0:0:0:
11,225,19459,2,0,P|7:143|114:123,1,200,2|0,0:0|3:0,0:0:0:0:
183,180,20598,2,0,P|232:171|279:155,2,100,2|2|2,3:2|0:0|0:0,0:0:0:0:
136,270,21737,1,2,0:0:0:0:
136,270,21927,1,2,0:0:0:0:
383,308,22877,6,0,P|422:335|433:382,2,100,2|2|2,3:2|0:0|0:0,0:0:0:0:
293,264,24016,2,0,P|280:242|278:217,1,50,2|2,0:0|0:0,0:0:0:0:
312,180,24396,1,2,0:0:0:0:
398,129,24775,2,0,P|408:106|408:81,1,50,2|2,3:2|0:0,0:0:0:0:
374,44,25155,2,0,P|234:14|144:125,1,300,2|2,3:2|0:0,0:0:0:0:
33,228,26864,6,0,L|23:277,2,50,2|2|2,0:0|3:2|0:0,0:0:0:0:
71,196,27434,2,0,P|119:203|151:240,1,100,2|2,3:2|0:0,0:0:0:0:
168,287,28003,2,0,P|200:324|248:331,1,100,2|2,0:0|0:0,0:0:0:0:
298,326,28573,2,0,P|372:270|341:181,1,200,2|0,3:2|3:0,0:0:0:0:
251,138,29712,6,0,L|144:156,1,100,0|0,3:0|0:0,0:0:0:0:
113,186,30282,2,0,P|110:210|119:235,2,50,0|0|0,0:0|3:0|0:0,0:0:0:0:
66,167,30851,1,0,3:0:0:0:
234,59,31611,1,0,3:0:0:0:
330,85,31990,6,0,P|367:117|374:165,1,100,2|2,3:2|0:0,0:0:0:0:
364,214,32560,2,0,P|331:251|283:258,1,100,2|2,0:0|0:0,0:0:0:0:
247,223,33130,2,0,P|158:192|101:266,1,200,2|0,3:2|3:0,0:0:0:0:
152,352,34269,6,0,L|250:335,1,100,0|0,3:0|0:0,0:0:0:0:
300,333,34839,2,0,P|324:343|343:359,1,50,0|0,0:0|3:0,0:0:0:0:
389,375,35218,1,0,0:0:0:0:
438,364,35408,2,0,P|469:327|466:279,1,100,0|8,1:0|0:0,0:0:0:0:
377,219,36168,1,8,0:3:0:0:
273,209,36547,6,0,P|251:159|242:110,1,104.999996795654,2|2,3:2|0:0,0:0:0:0:
218,62,37117,1,2,1:2:0:0:
172,35,37307,2,0,P|137:37|111:56,1,52.4999983978272,2|2,0:0|0:0,0:0:0:0:
78,75,37687,2,0,P|34:170|12:272,1,209.999993591309,10|2,3:2|3:2,0:0:0:0:
92,340,38826,6,0,P|143:330|191:308,1,104.999996795654,2|2,3:2|0:0,0:0:0:0:
233,276,39396,1,2,1:2:0:0:
259,230,39585,2,0,P|258:194|241:167,1,52.4999983978272,2|2,0:0|0:0,0:0:0:0:
221,136,39966,2,0,P|218:58|333:79,1,209.999993591309,10|8,0:0|0:3,0:0:0:0:
393,139,41104,6,0,P|414:186|424:238,1,104.999996795654,2|2,3:2|0:0,0:0:0:0:
447,285,41674,2,0,P|472:288|496:300,2,52.4999983978272,2|2|2,1:2|0:0|0:0,0:0:0:0:
416,328,42244,1,10,0:0:0:0:
327,383,42623,2,0,P|315:359|311:333,1,52.4999983978272,2|2,0:0|0:0,0:0:0:0:
283,288,43003,2,0,P|262:272|237:263,1,52.4999983978272,2|2,0:0|0:0,0:0:0:0:
184,257,43383,1,2,3:2:0:0:
127,168,43763,2,0,P|150:156|176:152,1,52.4999983978272,2|2,0:0|1:2,0:0:0:0:
222,124,44143,2,0,P|237:103|246:78,1,52.4999983978272,2|2,0:0|0:0,0:0:0:0:
211,38,44522,2,0,P|113:14|48:89,1,209.999993591309,10|0,0:0|1:0,0:0:0:0:
0,183,45661,6,0,P|17:232|29:298,1,104.999996795654,2|2,3:2|0:0,0:0:0:0:
61,324,46231,1,2,3:2:0:0:
112,333,46421,2,0,P|137:328|158:313,1,52.4999983978272,2|2,0:0|0:0,0:0:0:0:
189,270,46801,1,10,0:0:0:0:
259,192,47180,1,2,0:0:0:0:
361,170,47560,1,2,3:2:0:0:
456,212,47940,6,0,P|473:162|483:110,1,104.999996795654,2|2,3:2|0:0,0:0:0:0:
473,59,48510,1,2,3:2:0:0:
429,29,48699,2,0,P|402:27|378:38,1,52.4999983978272,2|2,0:0|0:0,0:0:0:0:
351,83,49079,1,10,0:0:0:0:
252,118,49459,1,2,0:0:0:0:
180,41,49839,1,2,1:2:0:0:
83,81,50218,5,2,3:2:0:0:
101,184,50598,2,0,P|126:190|148:204,2,52.4999983978272,2|2|0,0:0|3:2|0:0,0:0:0:0:
53,175,51167,1,0,0:0:0:0:
53,175,51358,1,10,0:0:0:0:
54,279,51737,2,0,P|68:301|75:326,2,52.4999983978272,2|2|2,0:0|0:0|1:2,0:0:0:0:
6,269,52307,1,0,0:0:0:0:
6,269,52497,1,2,3:2:0:0:
53,175,52876,2,0,P|73:157|96:146,1,52.4999983978272,2|2,0:0|3:2,0:0:0:0:
148,138,53257,2,0,P|173:138|199:147,1,52.4999983978272,2|2,0:0|0:0,0:0:0:0:
247,166,53636,2,0,P|315:241|300:341,1,209.999993591309,10|0,0:0|0:0,0:0:0:0:
203,303,54775,6,0,P|152:315|90:341,1,104.999996795654,2|2,3:2|0:0,0:0:0:0:
50,326,55345,1,2,3:2:0:0:
14,287,55535,2,0,P|3:263|4:236,1,52.4999983978272,2|2,2:0|0:0,0:0:0:0:
26,189,55915,1,10,0:0:0:0:
120,142,56294,1,2,0:0:0:0:
198,211,56674,1,2,3:2:0:0:
289,158,57054,6,0,P|308:109|321:58,1,104.999996795654,2|2,3:2|0:0,0:0:0:0:
361,24,57623,1,2,3:2:0:0:
412,11,57813,2,0,P|438:11|461:22,1,52.4999983978272,2|2,0:0|0:0,0:0:0:0:
494,65,58193,1,10,0:0:0:0:
462,165,58573,1,2,0:0:0:0:
492,265,58953,1,2,0:0:0:0:
389,242,59332,5,2,3:2:0:0:
303,302,59712,2,0,P|289:324|282:349,1,52.4999983978272,2|2,0:0|3:2,0:0:0:0:
233,367,60092,2,0,P|210:353|185:346,1,52.4999983978272,2|2,0:0|0:0,0:0:0:0:
133,334,60472,1,10,0:0:0:0:
60,258,60851,2,0,P|82:244|107:237,1,52.4999983978272,2|2,0:0|0:0,0:0:0:0:
160,230,61231,2,0,P|173:207|180:182,1,52.4999983978272,2|2,0:0|0:0,0:0:0:0:
190,130,61611,1,2,3:2:0:0:
140,38,61990,2,0,P|117:24|92:17,1,52.4999983978272,2|2,0:0|3:2,0:0:0:0:
42,36,62370,2,0,P|28:58|21:83,1,52.4999983978272,2|2,0:0|0:0,0:0:0:0:
21,136,62750,2,0,P|39:184|91:101,1,209.999993591309,10|0,0:0|0:0,0:0:0:0:
166,44,63889,6,0,B|219:36|253:77|228:88|269:130|322:118,1,179.999994506836,2|2,0:0|0:0,0:0:0:0:
404,97,65028,1,2,0:0:0:0:
512,253,66168,5,2,0:0:0:0:
432,295,66547,1,2,0:0:0:0:
381,220,66927,1,2,0:0:0:0:
459,176,67307,1,2,0:0:0:0:
459,176,67497,1,2,0:0:0:0:
320,100,68446,5,2,0:0:0:0:
247,152,68826,1,2,0:0:0:0:
194,78,69206,1,2,0:0:0:0:
122,132,69585,2,0,L|78:142,1,44.999998626709,2|2,0:0|0:0,0:0:0:0:
33,148,69965,1,2,0:0:0:0:
0,231,70345,2,0,L|13:290,1,44.999998626709,2|2,0:0|0:0,0:0:0:0:
20,318,70725,2,0,B|59:359|130:354|155:313|138:268|205:254,1,224.999993133545,2|0,0:0|0:0,0:0:0:0:
247,244,71864,1,2,0:0:0:0:
452,375,73003,6,0,B|484:369|505:338|502:305|502:305|459:279|447:222|479:189,1,224.999993133545,2|0,0:0|0:0,0:0:0:0:
508,161,74142,1,2,0:0:0:0:
329,56,75282,5,2,0:0:0:0:
288,140,75661,1,2,0:0:0:0:
372,181,76041,1,2,0:0:0:0:
413,97,76421,1,2,0:0:0:0:
413,97,76611,1,2,0:0:0:0:
325,265,77560,5,2,0:0:0:0:
246,220,77940,1,2,0:0:0:0:
201,300,78320,1,2,0:0:0:0:
126,250,78699,2,0,L|70:263,1,44.999998626709,2|2,0:0|0:0,0:0:0:0:
38,270,79079,1,2,0:0:0:0:
13,183,79459,2,0,L|0:127,1,44.999998626709,2|2,0:0|0:0,0:0:0:0:
32,104,79839,2,0,B|78:79|135:98|163:145|163:145|174:91|221:109|236:56,1,269.999991760254,2|2,0:0|0:0,0:0:0:0:
359,1,81547,2,0,L|402:13,2,44.999998626709,2|2|2,0:0|0:0|0:0,0:0:0:0:
321,34,82117,6,0,P|316:88|359:117,1,100,2|2,3:2|3:2,0:0:0:0:
394,132,82687,2,0,P|428:165|420:213,1,100,2|2,0:0|0:0,0:0:0:0:
386,249,83256,1,10,0:0:0:0:
289,221,83636,6,0,L|278:161,2,50
263,265,84206,1,0,3:0:0:0:
263,265,84396,1,0,3:0:0:0:
168,234,84775,2,0,P|130:265|123:313,1,100
136,362,85345,1,0,0:0:0:0:
136,362,85535,1,8,0:0:0:0:
235,371,85915,1,0,0:0:0:0:
334,380,86294,1,0,0:0:0:0:
426,341,86674,6,0,P|457:303|456:254,1,100,2|2,3:2|0:0,0:0:0:0:
425,215,87244,2,0,P|376:206|334:231,1,100,2|2,0:0|0:0,0:0:0:0:
316,277,87813,1,10,0:0:0:0:
217,295,88193,1,0,0:0:0:0:
137,234,88573,6,0,L|125:172,2,50,0|0|0,0:0|3:0|3:0,0:0:0:0:
49,282,89332,1,0,0:0:0:0:
22,378,89712,1,0,0:0:0:0:
119,356,90092,1,8,0:0:0:0:
266,329,90661,6,0,L|314:342,2,50,2|2|2,0:0|0:0|0:0,0:0:0:0:
238,286,91231,2,0,P|275:254|324:255,1,100,2|2,3:2|0:0,0:0:0:0:
373,264,91801,2,0,P|404:226|403:177,1,100,2|2,3:2|0:0,0:0:0:0:
377,133,92370,1,10,0:0:0:0:
441,56,92750,6,0,L|492:46,2,50
412,21,93320,1,0,3:0:0:0:
412,21,93509,1,0,3:0:0:0:
312,29,93890,1,0,0:0:0:0:
276,122,94269,1,0,0:0:0:0:
325,209,94649,2,0,P|372:218|413:191,2,100,8|0|0,0:0|0:0|0:0,0:0:0:0:
246,270,95788,6,0,P|226:316|213:364,1,100,2|2,3:2|0:0,0:0:0:0:
168,384,96358,2,0,P|121:364|73:351,1,100,2|2,0:0|0:0,0:0:0:0:
24,342,96927,1,10,0:0:0:0:
0,244,97307,1,0,0:0:0:0:
78,181,97687,2,0,P|108:171|132:168,1,50,0|0,0:0|3:0,0:0:0:0:
176,164,98066,1,0,3:0:0:0:
265,209,98446,1,0,0:0:0:0:
297,303,98826,1,0,0:0:0:0:
391,334,99206,2,0,P|481:306|489:211,1,200,8|2,0:0|0:0,0:0:0:0:
426,137,100345,6,0,P|377:136|339:167,1,100,4|2,0:0|0:0,0:0:0:0:
307,206,100914,2,0,P|317:233|322:260,2,50,2|2|2,0:0|0:0|0:0,0:0:0:0:
262,181,101485,1,10,0:0:0:0:
176,232,101864,1,2,0:0:0:0:
77,212,102244,1,2,0:0:0:0:
36,120,102623,6,0,P|74:89|123:90,1,100,2|2,3:2|0:0,0:0:0:0:
170,74,103193,2,0,P|178:50|184:26,2,50,2|2|2,0:0|0:0|0:0,0:0:0:0:
202,112,103763,1,10,0:0:0:0:
138,189,104142,1,2,3:2:0:0:
177,280,104522,1,2,0:0:0:0:
274,300,104902,5,2,3:2:0:0:
358,246,105281,2,0,P|382:247|403:260,2,50,2|2|0,0:0|0:0|0:0,0:0:0:0:
324,216,105851,1,2,0:0:0:0:
324,216,106041,1,10,0:0:0:0:
353,120,106421,2,0,P|371:103|395:98,2,50,2|2|0,0:0|0:0|0:0,0:0:0:0:
307,123,106991,1,2,3:2:0:0:
307,123,107181,1,2,3:2:0:0:
217,78,107560,2,0,P|218:53|231:32,2,50,2|2|0,0:0|0:0|0:0,0:0:0:0:
207,130,108129,1,2,0:0:0:0:
207,130,108320,2,0,P|142:198|57:159,1,200,10|0,0:0|0:0,0:0:0:0:
3,244,109459,6,0,P|2:293|33:331,1,100,4|2,0:0|0:0,0:0:0:0:
82,337,110028,2,0,P|90:360|96:384,2,50,2|2|2,0:0|0:0|0:0,0:0:0:0:
125,310,110599,1,10,0:0:0:0:
224,307,110978,1,2,0:0:0:0:
289,381,111357,1,2,0:0:0:0:
371,324,111737,6,0,P|371:275|340:237,1,100,2|2,3:2|0:0,0:0:0:0:
304,202,112307,2,0,P|309:177|318:154,2,50,2|2|2,0:0|0:0|0:0,0:0:0:0:
256,218,112877,1,10,0:0:0:0:
164,177,113256,1,2,3:2:0:0:
94,249,113636,1,0,0:0:0:0:
4,205,114016,5,2,3:2:0:0:
71,131,114395,2,0,P|73:107|86:86,2,50,2|2|0,0:0|0:0|0:0,0:0:0:0:
113,167,114965,1,2,0:0:0:0:
113,167,115155,1,10,0:0:0:0:
210,143,115535,2,0,P|232:132|257:132,2,50,2|2|0,0:0|0:0|0:0,0:0:0:0:
199,199,116105,1,2,3:2:0:0:
199,199,116295,1,2,3:2:0:0:
293,231,116674,2,0,P|317:232|338:245,2,50,2|2|0,0:0|0:0|0:0,0:0:0:0:
257,273,117244,1,2,0:0:0:0:
257,273,117433,2,0,P|189:345|94:315,1,200,10|0,0:0|0:0,0:0:0:0:
156,232,118573,6,0,P|130:136|84:33,1,209.999993591309,6|0,0:0|0:0,0:0:0:0:
15,113,119712,2,0,P|105:142|185:71,1,209.999993591309,10|0,0:0|0:0,0:0:0:0:
282,34,120851,2,0,P|383:7|487:0,1,209.999993591309,2|0,3:2|0:0,0:0:0:0:
510,102,121990,1,8,0:0:0:0:
407,124,122370,2,0,P|389:142|381:170,1,52.4999983978272,2|2,0:0|0:0,0:0:0:0:
388,219,122750,2,0,P|395:242|415:266,1,52.4999983978272,2|2,0:0|0:0,0:0:0:0:
462,282,123130,6,0,P|476:329|487:383,1,104.999996795654,2|2,3:2|0:0,0:0:0:0:
386,352,123889,1,2,0:0:0:0:
287,315,124269,2,0,P|237:323|180:341,1,104.999996795654,10|2,0:2|0:0,0:0:0:0:
84,371,125028,1,2,0:0:0:0:
18,288,125408,2,0,P|58:224|195:240,1,209.999993591309,2|0,3:2|0:0,0:0:0:0:
218,263,126358,1,2,3:2:0:0:
218,263,126547,1,10,0:0:0:0:
314,220,126927,1,0,0:0:0:0:
372,307,127307,1,0,0:0:0:0:
471,274,127687,6,0,P|501:232|485:174,1,104.999996795654,6|2,3:2|0:0,0:0:0:0:
448,151,128256,1,2,0:0:0:0:
448,151,128446,1,2,0:0:0:0:
511,67,128826,2,0,P|469:37|411:53,1,104.999996795654,10|2,0:0|0:0,0:0:0:0:
388,90,129395,1,2,0:0:0:0:
388,90,129585,1,2,0:0:0:0:
284,109,129965,5,2,3:2:0:0:
201,43,130345,2,0,P|103:41|68:91,1,157.499995193482,2|2,0:0|3:2,0:0:0:0:
54,132,131104,1,10,0:0:0:0:
0,222,131484,2,0,P|24:229|43:247,1,52.4999983978272,2|2,0:0|0:0,0:0:0:0:
78,287,131864,2,0,P|90:309|90:336,1,52.4999983978272,2|2,0:0|0:0,0:0:0:0:
128,372,132244,6,0,P|168:339|169:279,1,104.999996795654,2|2,3:2|0:0,0:0:0:0:
115,201,133003,1,2,0:0:0:0:
182,120,133383,1,10,0:0:0:0:
279,158,133763,2,0,P|354:161|393:97,1,157.499995193482,2|2,0:0|3:2,0:0:0:0:
369,51,134522,2,0,P|155:96|284:288,1,524.999983978272,2|2,3:2|0:0,0:0:0:0:
358,220,136800,6,0,P|407:203|473:191,1,104.999996795654,4|2,3:2|0:0,0:0:0:0:
499,159,137370,1,2,0:0:0:0:
512,107,137560,1,2,0:0:0:0:
491,58,137750,1,2,3:2:0:0:
445,34,137940,1,10,0:0:0:0:
340,42,138319,1,2,0:0:0:0:
294,136,138699,1,2,0:2:0:0:
358,220,139079,6,0,P|377:268|390:319,1,104.999996795654,2|2,3:2|0:0,0:0:0:0:
362,363,139648,1,2,0:2:0:0:
317,377,139838,1,2,0:0:0:0:
268,356,140028,1,2,3:2:0:0:
242,309,140218,1,10,0:0:0:0:
155,249,140598,1,2,0:0:0:0:
54,279,140978,1,2,0:0:0:0:
38,382,141358,5,2,3:2:0:0:
137,350,141737,2,0,P|150:328|157:303,1,52.4999983978272,2|2,0:0|0:0,0:0:0:0:
155,249,142117,2,0,P|144:225|128:205,1,52.4999983978272,2|2,0:0|3:2,0:0:0:0:
83,175,142497,1,10,0:0:0:0:
172,119,142877,2,0,P|195:109|221:106,1,52.4999983978272,2|2,0:0|0:0,0:0:0:0:
273,117,143257,2,0,P|294:130|312:149,1,52.4999983978272,2|2,0:0|3:2,0:0:0:0:
335,199,143637,1,2,3:2:0:0:
246,255,144016,2,0,P|222:264|196:267,1,52.4999983978272,2|2,0:0|0:0,0:0:0:0:
145,257,144396,2,0,P|123:243|105:224,1,52.4999983978272,2|2,0:0|3:2,0:0:0:0:
83,175,144775,2,0,P|87:73|179:19,1,209.999993591309,10|0,0:0|3:2,0:0:0:0:
265,67,145915,6,0,P|282:116|294:182,1,104.999996795654,2|2,3:2|0:0,0:0:0:0:
240,177,146485,1,2,0:0:0:0:
201,213,146675,1,2,0:0:0:0:
192,266,146865,1,2,3:2:0:0:
216,314,147055,1,10,0:0:0:0:
302,372,147434,1,2,0:0:0:0:
403,352,147813,1,2,0:2:0:0:
460,266,148193,6,0,P|411:249|345:237,1,104.999996795654,2|2,3:2|0:0,0:0:0:0:
307,226,148763,1,2,0:2:0:0:
268,190,148953,1,2,0:0:0:0:
259,137,149143,1,2,3:2:0:0:
283,89,149333,1,10,0:0:0:0:
367,26,149712,1,2,0:0:0:0:
469,47,150092,1,2,0:0:0:0:
506,145,150472,5,2,3:2:0:0:
408,184,150851,2,0,P|396:207|390:233,1,52.4999983978272,2|2,0:0|0:0,0:0:0:0:
356,272,151231,2,0,P|331:280|309:294,1,52.4999983978272,2|2,0:0|3:2,0:0:0:0:
257,297,151611,1,10,0:0:0:0:
155,270,151990,2,0,P|140:248|121:230,1,52.4999983978272,2|2,0:0|0:0,0:0:0:0:
105,181,152370,2,0,P|110:155|108:129,1,52.4999983978272,2|2,0:0|3:2,0:0:0:0:
133,83,152750,1,2,3:2:0:0:
212,9,153130,2,0,P|238:7|262:0,1,52.4999983978272,2|2,0:0|0:0,0:0:0:0:
314,11,153510,2,0,P|333:28|356:40,1,52.4999983978272,2|2,0:0|3:2,0:0:0:0:
383,85,153889,2,0,P|351:141|213:137,1,209.999993591309,10|0,0:0|0:0,0:0:0:0:
133,83,155028,5,2,3:2:0:0:
31,110,155408,2,0,P|14:129|2:152,1,52.4999983978272,2|2,0:0|0:0,0:0:0:0:
8,205,155788,2,0,P|20:227|38:245,1,52.4999983978272,2|2,0:0|3:2,0:0:0:0:
80,279,156168,2,0,P|178:241|280:221,1,209.999993591309,10|0,0:0|0:0,0:0:0:0:
353,141,157307,5,2,3:2:0:0:
455,175,157687,2,0,P|472:194|486:224,1,54.0000013183594,2|2,0:0|0:0,0:0:0:0:
477,273,158067,2,0,P|464:295|443:315,1,54.0000013183594,2|2,0:0|3:2,0:0:0:0:
400,347,158447,2,0,P|301:309|191:289,1,216.000005273438,10|0,0:0|0:0,0:0:0:0:
89,326,159585,5,2,3:2:0:0:
21,238,159965,2,0,P|45:225|72:221,1,55.0000016784668,2|2,0:0|0:0,0:0:0:0:
104,176,160345,2,0,P|131:180|155:192,1,55.0000016784668,2|2,0:0|3:2,0:0:0:0:
202,222,160725,2,0,P|286:184|270:55,1,220.000006713867,10|0,0:0|0:0,0:0:0:0:
185,13,161864,5,2,3:2:0:0:
115,102,162244,1,2,0:0:0:0:
58,99,162434,1,2,0:0:0:0:
15,61,162623,1,2,0:0:0:0:
5,5,162813,1,2,0:0:0:0:
223,148,164142,6,0,P|248:265|260:384,1,240,2|2,0:0|0:0,0:0:0:0:
439,225,166421,2,0,P|478:226|511:247,2,80,2|2|2,0:0|0:0|0:0,0:0:0:0:
394,292,167560,1,2,0:0:0:0:
394,292,167750,1,2,0:0:0:0:
210,214,168699,5,2,0:0:0:0:
240,140,169079,1,2,0:0:0:0:
318,125,169459,1,2,0:0:0:0:
382,172,169839,2,0,P|401:168|418:158,1,40,2|2,0:0|0:0,0:0:0:0:
441,124,170218,1,2,0:0:0:0:
418,47,170598,2,0,P|401:36|381:33,1,40,2|2,0:0|0:0,0:0:0:0:
346,13,170978,2,0,P|304:73|149:57,1,240,2|2,0:0|0:0,0:0:0:0:
0,245,173256,6,0,P|42:185|197:201,1,240,2|2,0:0|0:0,0:0:0:0:
403,305,175535,2,0,P|424:272|427:232,2,80,2|2|2,0:0|0:0|0:0,0:0:0:0:
328,326,176674,1,2,0:0:0:0:
328,326,176864,1,2,0:0:0:0:
267,135,177813,5,2,0:0:0:0:
208,80,178193,1,2,0:0:0:0:
131,100,178573,1,2,0:0:0:0:
93,169,178953,2,0,P|73:175|54:172,1,40,2|2,0:0|0:0,0:0:0:0:
19,151,179332,1,2,0:0:0:0:
4,73,179712,2,0,P|9:54|21:38,1,40,2|2,0:0|0:0,0:0:0:0:
53,14,180092,2,0,B|106:-1|155:40|127:53|178:93|231:72,1,200,2|0,0:0|0:0,0:0:0:0:
269,60,181231,2,0,P|303:61|309:170,1,160,2|0,0:0|0:0,0:0:0:0:
