osu file format v14

[General]
AudioFilename: audio.mp3
AudioLeadIn: 0
PreviewTime: 138765
Countdown: 0
SampleSet: Normal
StackLeniency: 0.4
Mode: 0
LetterboxInBreaks: 0
WidescreenStoryboard: 1

[Editor]
Bookmarks: 93145,127635,150629,228833
DistanceSpacing: 0.6
BeatDivisor: 4
GridSize: 4
TimelineZoom: 1.3

[Metadata]
Title:SCARLET TEMPEST
TitleUnicode:SCARLET TEMPEST
Artist:Nasty Children
ArtistUnicode:Nasty Children
Creator:Kite
Version:Origin
Source:イース・オリジン
Tags:corsace grand finals gf dt2 game instrumental cover metal nihon falcom sound team jdk ys origin
BeatmapID:2651830
BeatmapSetID:1276349

[Difficulty]
HPDrainRate:5
CircleSize:4.3
OverallDifficulty:8
ApproachRate:8.3
SliderMultiplier:2
SliderTickRate:1

[Events]
//Background and Video events
0,0,"ys edit.jpg",0,0
//Break Periods
//Storyboard Layer 0 (Background)
//Storyboard Layer 1 (Fail)
//Storyboard Layer 2 (Pass)
//Storyboard Layer 3 (Foreground)
//Storyboard Layer 4 (Overlay)
//Storyboard Sound Samples

[TimingPoints]
624,322.58064516129,6,1,1,70,1,0
2236,326.086956521739,6,1,1,70,1,0
4192,344.827586206897,6,1,1,70,1,0
4532,351.906158357771,4,1,1,70,1,0
15089,354.191263282172,4,1,1,70,1,0
15797,360.793746241732,4,1,1,70,1,0
18142,-100,4,1,1,60,0,0
18412,-100,4,1,1,50,0,0
18683,358.208955223881,4,1,1,70,1,0
18683,-133.333333333333,4,1,1,70,0,0
30150,359.281437125748,4,1,1,70,1,0
40928,-100,4,1,1,60,0,0
41647,357.142857142857,4,2,1,70,1,0
47361,359.281437125748,4,2,1,70,1,0
50235,-83.3333333333333,4,1,1,70,0,0
50594,-71.4285714285714,4,1,1,60,0,0
50953,-62.5,4,1,1,60,0,0
51313,-55.5555555555556,4,1,1,60,0,0
51672,-100,4,1,1,70,0,0
53109,-100,4,2,1,60,0,0
58858,-76.9230769230769,4,1,1,70,0,0
64606,-76.9230769230769,4,1,1,70,0,0
70354,365.853658536585,4,1,1,70,1,0
70719,352.941176470588,4,1,1,70,1,8
70719,-83.3333333333333,4,1,1,70,0,0
73189,352.941176470588,4,1,1,70,1,0
73189,-100,4,1,1,70,0,0
73530,-83.3333333333333,4,1,1,70,0,0
76001,-100,4,1,1,70,0,0
76354,-83.3333333333333,4,1,1,70,0,0
78836,-100,4,1,1,70,0,0
79177,-83.3333333333333,4,1,1,70,0,0
80954,347.322720694645,4,1,1,70,1,0
81648,359.281437125748,4,1,1,70,1,0
93145,358.208955223881,4,1,1,70,1,0
93145,-90.9090909090909,4,1,1,70,0,0
98159,-71.4285714285714,4,1,1,70,0,0
98876,-90.9090909090909,4,1,1,70,0,0
104607,360.36036036036,4,2,1,70,1,0
113255,-83.3333333333333,4,1,1,70,0,0
113616,-71.4285714285714,4,1,1,70,0,0
113976,-62.5,4,1,1,70,0,0
114336,-55.5555555555556,4,1,1,70,0,0
114697,-100,4,1,1,70,0,0
116138,357.142857142857,4,2,1,70,1,0
120423,359.281437125748,4,2,1,70,1,0
121860,-100,4,1,1,70,0,0
127608,359.928014397121,4,1,1,70,1,0
127608,-133.333333333333,4,1,1,70,0,0
133366,-100,4,1,1,60,0,0
138765,367.534456355283,4,1,1,60,1,0
139132,359.066427289048,4,1,1,70,1,1
139132,-86.9565217391304,4,1,1,70,0,1
149185,360.36036036036,4,1,1,70,1,1
150626,358.530026889752,4,1,1,70,1,1
150626,-80,4,1,1,70,0,1
160664,364.741641337386,5,1,1,70,1,0
160664,-133.333333333333,5,1,1,70,0,0
166135,363.636363636364,5,1,1,70,1,0
166135,-133.333333333333,5,1,1,70,0,0
171225,375,5,1,1,70,1,0
171600,363.636363636364,5,1,1,70,1,0
171600,-133.333333333333,5,1,1,70,0,0
180690,363.636363636364,6,1,1,70,1,0
182871,358.4229390681,4,1,1,70,1,0
182871,-90.9090909090909,4,1,1,70,0,0
195774,-90.9090909090909,4,2,1,70,0,0
196132,-83.3333333333333,4,2,1,70,0,0
196491,-76.9230769230769,4,2,1,70,0,0
196849,-71.4285714285714,4,1,1,70,0,0
197207,-90.9090909090909,4,1,1,70,0,0
202942,358.208955223881,4,1,1,70,1,0
203300,-83.3333333333333,4,1,1,70,0,0
203658,-71.4285714285714,4,1,1,70,0,0
204016,-62.5,4,1,1,70,0,0
204374,363.636363636364,4,1,1,70,1,0
205464,375,4,1,1,60,1,0
205839,359.281437125748,4,1,1,70,1,0
205839,-166.666666666667,4,3,1,70,0,0
228473,-166.666666666667,4,2,1,70,0,0
228833,-100,4,1,1,70,0,0
237455,-83.3333333333333,4,1,1,70,0,0
237815,-71.4285714285714,4,1,1,70,0,0
238174,-62.5,4,1,1,70,0,0
238533,-55.5555555555556,4,1,1,70,0,0
240330,-100,4,1,1,70,0,0
248952,357.142857142857,4,1,1,70,1,0
250380,359.281437125748,4,1,1,70,1,0
251817,358.208955223881,4,1,1,70,1,0
257548,359.281437125748,4,1,1,70,1,0
259703,370.37037037037,4,1,1,70,1,0
260443,352.941176470588,4,1,1,70,1,0
260443,-90.9090909090909,4,1,1,70,0,0
260795,387.096774193548,4,1,1,70,1,0
260988,333.333333333333,4,1,1,70,1,0
260988,-83.3333333333333,4,1,1,70,0,0
261488,-100,4,1,1,70,0,0
261654,394.736842105263,4,1,1,70,1,0
261851,365.853658536585,4,1,1,70,1,0
261851,-90.9090909090909,4,1,1,70,0,0
262587,355.029585798817,4,1,1,70,1,0
262587,-90.9090909090909,4,1,1,70,0,0
263297,359.281437125748,4,1,1,70,1,1
263297,-83.3333333333333,4,1,1,70,0,1
269045,357.142857142857,4,1,1,70,1,1
269045,-90.9090909090909,4,1,1,70,0,1
271902,359.281437125748,4,1,1,70,1,1
271902,-90.9090909090909,4,1,1,70,0,1
274776,-83.3333333333333,4,1,1,70,0,1
280165,370.37037037037,4,1,1,70,1,1
280535,357.142857142857,4,1,1,70,1,1
280535,-83.3333333333333,4,1,1,70,0,1
283392,359.281437125748,4,1,1,70,1,1
283392,-83.3333333333333,4,1,1,70,0,1
286266,358.4229390681,4,1,1,70,1,1
286266,-83.3333333333333,4,1,1,70,0,1
290567,357.142857142857,4,1,1,70,1,1
290567,-83.3333333333333,4,1,1,70,0,1
291995,359.281437125748,4,1,1,70,1,1
291995,-83.3333333333333,4,1,1,70,0,1
299181,351.906158357771,4,1,1,70,1,0
299181,-83.3333333333333,4,1,1,70,0,0
310441,360.36036036036,4,1,1,70,1,0
314765,-83.3333333333333,4,1,1,70,0,0

[Colours]
Combo1 : 160,209,148
Combo2 : 248,116,119
Combo3 : 191,162,240
Combo4 : 255,230,130

[HitObjects]
45,293,624,5,8,0:0:0:0:
119,247,785,2,0,P|125:230|124:215,3,33.3333333333333,0|0|0|10,0:0|0:0|0:0|0:0,0:0:0:0:
36,204,1107,1,0,0:0:0:0:
128,334,1269,6,0,B|152:347|152:347|235:340,1,100,10|0,0:0|0:0,0:0:0:0:
315,331,1591,1,10,0:0:0:0:
404,319,1753,1,0,0:0:0:0:
424,316,1833,1,0,0:0:0:0:
444,313,1914,1,10,0:0:0:0:
464,310,1994,1,0,0:0:0:0:
484,307,2075,1,0,0:0:0:0:
425,201,2236,6,0,B|399:192|399:192|326:214,1,100,10|0,0:0|0:0,0:0:0:0:
444,210,2562,1,10,0:0:0:0:
507,147,2725,2,0,P|510:119|503:95,2,50,0|0|10,0:0|0:0|0:0,0:0:0:0:
444,210,3051,1,0,0:0:0:0:
256,250,3214,5,12,0:0:0:0:
205,184,3377,2,0,P|201:156|208:132,2,50,0|0|10,0:0|0:0|0:0,0:0:0:0:
256,250,3703,1,0,0:0:0:0:
253,264,3784,1,0,0:0:0:0:
250,278,3866,1,10,0:0:0:0:
247,292,3947,1,0,0:0:0:0:
245,306,4029,1,0,0:0:0:0:
243,320,4110,1,0,0:0:0:0:
240,334,4192,2,0,L|191:340,3,50,10|0|0|0,0:0|0:0|0:0|0:0,0:0:0:0:
188,359,4532,6,0,L|287:351,1,100,4|0,0:2|0:0,0:0:0:0:
362,365,4795,1,0,0:0:0:0:
372,372,4883,2,0,B|398:331|398:331|378:226,1,150,12|0,0:0|0:0,0:0:0:0:
407,161,5235,6,0,L|414:58,1,100,2|0,0:0|0:0,0:0:0:0:
363,3,5499,1,0,0:0:0:0:
351,9,5587,1,8,0:0:0:0:
47,24,5939,5,4,0:2:0:0:
124,177,6115,1,0,0:0:0:0:
134,148,6203,1,0,0:0:0:0:
126,115,6291,1,8,0:0:0:0:
102,100,6643,5,8,0:3:0:0:
80,116,6731,1,8,2:3:0:0:
72,147,6819,1,2,0:3:0:0:
83,181,6907,1,2,2:3:0:0:
105,206,6995,1,8,0:3:0:0:
121,235,7083,1,4,2:3:0:0:
121,268,7171,1,8,0:3:0:0:
104,296,7259,1,2,2:3:0:0:
134,315,7347,6,0,L|236:307,1,100,4|0,0:0|0:0,0:0:0:0:
306,328,7611,1,0,0:0:0:0:
302,343,7699,2,0,P|459:334|459:334,1,150,8|0,0:0|0:0,0:0:0:0:
507,283,8051,5,2,0:0:0:0:
421,186,8227,1,0,0:0:0:0:
417,158,8314,1,0,0:0:0:0:
426,135,8402,1,8,0:0:0:0:
92,28,8754,5,4,0:2:0:0:
200,135,8930,1,0,0:0:0:0:
205,165,9018,1,0,0:0:0:0:
195,198,9106,1,8,0:0:0:0:
186,218,9458,5,8,0:3:0:0:
154,187,9546,1,8,2:3:0:0:
148,143,9634,1,2,0:3:0:0:
164,101,9722,1,2,2:3:0:0:
200,135,9810,5,2,0:3:0:0:
148,143,9898,1,8,2:3:0:0:
102,123,9986,1,2,0:3:0:0:
82,77,10074,1,8,2:3:0:0:
92,28,10162,6,0,B|120:8|159:8|159:8|206:26|215:70,1,150,4|0,0:0|0:0,0:0:0:0:
200,135,10514,1,8,0:0:0:0:
461,352,10866,5,2,0:0:0:0:
380,260,11042,1,0,0:0:0:0:
366,230,11130,1,0,0:0:0:0:
372,192,11218,1,8,0:0:0:0:
81,308,11570,5,4,0:2:0:0:
174,204,11746,1,0,0:0:0:0:
186,168,11834,1,0,0:0:0:0:
179,126,11922,1,8,0:0:0:0:
143,94,12273,5,8,0:3:0:0:
179,126,12361,1,8,2:3:0:0:
228,133,12449,1,8,0:3:0:0:
275,117,12537,1,2,2:3:0:0:
311,82,12625,1,8,0:3:0:0:
358,65,12713,1,2,2:3:0:0:
407,69,12801,1,8,0:3:0:0:
448,96,12889,1,2,2:3:0:0:
465,142,12977,6,0,B|460:211|460:211|450:246|450:246|446:293,1,150,4|0,0:0|0:0,0:0:0:0:
439,367,13329,2,0,L|237:383,1,200,8|2,0:0|0:0,0:0:0:0:
46,301,13857,1,0,0:0:0:0:
40,286,13945,1,0,0:0:0:0:
39,264,14033,1,8,0:0:0:0:
314,29,14385,5,4,0:2:0:0:
366,121,14561,1,0,0:0:0:0:
370,142,14649,1,0,0:0:0:0:
366,164,14737,1,8,0:0:0:0:
366,164,15089,5,8,0:3:0:0:
323,140,15177,1,8,2:3:0:0:
313,93,15266,1,8,0:3:0:0:
326,47,15354,1,2,2:3:0:0:
367,25,15443,5,8,0:3:0:0:
412,52,15531,1,2,2:3:0:0:
428,102,15620,1,8,0:3:0:0:
420,154,15708,1,2,2:3:0:0:
393,193,15797,6,0,P|367:202|343:200,1,50,2|2,0:0|0:0,0:0:0:0:
191,248,16067,2,0,P|246:230|303:294,1,150,8|2,0:2|0:0,0:0:0:0:
292,362,16428,1,2,0:0:0:0:
122,203,16608,2,0,P|67:185|10:249,1,150,8|2,0:2|0:0,0:0:0:0:
13,280,16969,1,0,0:0:0:0:
33,308,17059,1,2,0:0:0:0:
40,342,17149,1,0,0:0:0:0:
30,375,17240,6,0,P|7:351|4:334,1,50,2|2,0:0|0:0,0:0:0:0:
163,127,17510,2,0,L|319:114,1,150,8|2,0:2|0:0,0:0:0:0:
381,137,17871,2,0,B|403:178|403:178|391:240,1,100,2|0,0:0|0:0,0:0:0:0:
331,270,18142,1,0,0:3:0:0:
334,289,18232,1,0,2:3:0:0:
337,308,18322,1,0,0:3:0:0:
341,327,18412,1,8,2:0:0:0:
344,346,18502,1,8,0:0:0:0:
348,365,18593,1,8,2:0:0:0:
359,349,18683,6,0,P|412:325|481:376,1,150.000005722046,4|8,0:2|0:0,0:0:0:0:
364,255,19220,1,0,0:0:0:0:
364,255,19309,1,0,0:0:0:0:
364,255,19399,2,0,P|433:243|474:260,2,112.500004291535,2|0|0,0:1|0:0|0:0,0:0:0:0:
183,55,20115,6,0,P|119:26|39:40,1,150.000005722046,4|8,0:2|0:0,0:0:0:0:
96,188,20653,1,0,0:0:0:0:
113,198,20742,1,0,0:0:0:0:
133,204,20832,2,0,P|198:201|244:172,2,112.500004291535,2|0|0,0:0|0:0|0:0,0:0:0:0:
191,310,21548,5,4,0:0:0:0:
227,317,21638,1,0,0:0:0:0:
260,337,21727,1,0,0:0:0:0:
488,265,22085,1,0,0:0:0:0:
466,234,22175,1,0,0:0:0:0:
463,191,22265,1,2,0:0:0:0:
389,225,22533,1,0,0:0:0:0:
308,200,22802,1,0,0:0:0:0:
187,22,22981,6,0,P|251:9|311:66,1,150.000005722046,4|8,0:2|0:0,0:0:0:0:
308,200,23518,1,0,0:0:0:0:
234,242,23697,2,0,P|194:248|159:231,1,75.0000028610231,2|0,0:0|0:0,0:0:0:0:
69,149,24056,1,0,0:0:0:0:
77,167,24145,1,0,0:0:0:0:
79,190,24235,1,0,0:0:0:0:
75,213,24324,1,0,0:0:0:0:
63,236,24414,6,0,P|41:246|21:244,2,37.5000014305115,6|0|0,0:0|0:0|0:0,0:0:0:0:
154,291,24772,1,8,0:0:0:0:
184,180,24951,1,2,0:0:0:0:
184,180,25041,1,0,0:0:0:0:
184,180,25130,2,0,P|224:151|284:164,1,112.500004291535
291,151,25488,2,0,P|317:181|318:223,1,75.0000028610231,2|0,0:0|0:0,0:0:0:0:
362,359,25847,5,6,0:0:0:0:
471,272,26026,1,0,0:0:0:0:
485,259,26115,2,0,B|484:205|484:205|491:180|491:180|490:141,1,112.500004291535,8|2,0:0|0:0,0:0:0:0:
405,16,26563,2,0,B|359:42|359:42|333:49|333:49|300:70,1,112.500004291535,2|0,0:0|0:0,0:0:0:0:
301,90,26921,2,0,B|277:102|277:102|260:119|260:119|238:129,1,75.0000028610231,2|2,0:0|0:0,0:0:0:0:
96,32,27280,5,6,0:0:0:0:
134,46,27369,1,0,0:0:0:0:
158,76,27459,1,0,0:0:0:0:
301,90,27638,1,8,0:0:0:0:
221,215,27817,1,2,0:0:0:0:
219,227,27906,1,0,0:0:0:0:
222,241,27996,2,0,B|241:279|227:308|227:308|213:329|217:355,1,112.500004291535,0|0,0:0|0:0,0:0:0:0:
291,348,28354,2,0,L|369:338,1,75.0000028610231,8|0,0:0|0:0,0:0:0:0:
437,354,28623,1,0,0:0:0:0:
508,375,28712,5,8,0:2:0:0:
435,202,28981,1,12,0:2:0:0:
290,348,29250,1,6,0:0:0:0:
10,277,29429,5,8,0:2:0:0:
207,93,29697,1,2,0:0:0:0:
290,348,29966,1,12,0:2:0:0:
486,333,30150,6,0,P|506:275|398:230,1,200,4|8,0:0|0:2,0:0:0:0:
301,272,30688,1,0,0:0:0:0:
271,273,30778,1,0,0:0:0:0:
248,284,30868,1,2,0:2:0:0:
173,358,31048,1,0,0:0:0:0:
73,314,31227,1,8,0:2:0:0:
71,294,31317,1,0,0:0:0:0:
69,274,31407,1,0,0:0:0:0:
67,254,31497,1,0,0:0:0:0:
65,233,31587,6,0,B|62:180|62:180|78:145|78:145|75:83,1,150,4|0,0:2|0:0,0:0:0:0:
70,10,31946,2,0,B|99:-3|99:-3|171:6,1,100,8|0,0:2|0:0,0:0:0:0:
216,68,32215,1,0,0:0:0:0:
242,87,32305,1,2,0:2:0:0:
274,93,32395,1,0,0:0:0:0:
306,89,32485,1,0,0:0:0:0:
335,75,32575,1,0,0:0:0:0:
360,53,32664,1,8,0:2:0:0:
390,42,32754,1,0,0:0:0:0:
423,43,32844,1,0,0:0:0:0:
451,60,32934,1,2,0:0:0:0:
466,89,33024,6,0,P|470:114|463:142,1,50,4|0,0:0|0:0,0:0:0:0:
498,218,33203,2,0,B|492:282|492:282|472:326|472:326|465:382|465:382|487:355,1,200,0|0,0:0|0:0,0:0:0:0:
490,351,33652,1,0,0:0:0:0:
496,343,33742,1,2,0:2:0:0:
358,264,33922,1,0,0:0:0:0:
358,264,34012,2,0,P|302:240|243:298,1,150,2|0,0:2|0:0,0:0:0:0:
45,157,34461,6,0,P|23:106|126:39,1,200,4|8,0:2|0:2,0:0:0:0:
129,183,35000,1,0,0:0:0:0:
65,238,35179,1,2,0:2:0:0:
45,272,35269,1,0,0:0:0:0:
46,312,35359,1,0,0:0:0:0:
71,343,35449,1,0,0:0:0:0:
108,356,35539,1,8,0:2:0:0:
147,351,35629,1,0,0:0:0:0:
178,327,35718,1,0,0:0:0:0:
215,311,35808,1,0,0:0:0:0:
254,314,35898,6,0,P|279:319|301:338,1,50,4|0,0:0|0:0,0:0:0:0:
358,282,36078,2,0,B|375:239|375:239|349:128|349:128|356:84,1,200,0|0,0:0|0:0,0:0:0:0:
360,74,36527,1,0,0:0:0:0:
364,59,36617,1,2,0:2:0:0:
68,18,36886,1,2,0:2:0:0:
17,266,37155,1,2,0:2:0:0:
313,307,37335,5,4,0:0:0:0:
17,266,37605,1,2,0:2:0:0:
68,18,37874,1,2,0:2:0:0:
164,195,38054,2,0,P|216:217|293:119,1,200,2|8,0:2|0:2,0:0:0:0:
375,13,38593,1,0,0:0:0:0:
394,32,38682,1,0,0:0:0:0:
405,57,38772,5,4,0:0:0:0:
470,123,39042,1,2,0:2:0:0:
495,33,39311,1,2,0:2:0:0:
319,285,39491,5,2,0:2:0:0:
450,248,39760,1,2,0:2:0:0:
415,376,40030,1,2,0:2:0:0:
190,189,40209,6,0,B|181:132|181:132|188:96|188:96|179:33,2,150,4|2|2,0:0|0:2|0:0,0:0:0:0:
217,330,40928,1,8,0:3:0:0:
243,315,41018,1,0,0:3:0:0:
273,313,41108,1,8,0:3:0:0:
301,322,41197,1,8,0:3:0:0:
326,337,41287,1,0,0:3:0:0:
354,345,41377,1,2,0:3:0:0:
384,344,41467,1,2,0:3:0:0:
410,330,41557,1,0,0:3:0:0:
428,306,41647,6,0,P|437:280|436:255,3,50,4|0|0|0,0:1|0:0|0:0|0:0,0:0:0:0:
417,184,42004,2,0,P|398:163|375:152,3,50,8|0|0|0,0:1|0:0|0:0|0:0,0:0:0:0:
302,154,42361,1,2,0:1:0:0:
277,156,42450,1,0,0:0:0:0:
256,169,42539,1,0,0:0:0:0:
242,189,42629,1,0,0:0:0:0:
227,209,42718,1,8,0:1:0:0:
205,221,42807,1,0,0:0:0:0:
179,223,42897,1,0,0:0:0:0:
155,214,42986,1,0,0:0:0:0:
139,194,43075,5,2,0:1:0:0:
157,177,43164,1,0,0:0:0:0:
182,174,43254,1,0,0:0:0:0:
206,178,43343,1,0,0:0:0:0:
229,187,43432,1,8,0:1:0:0:
246,205,43522,1,0,0:0:0:0:
267,218,43611,1,0,0:0:0:0:
291,223,43700,1,0,0:0:0:0:
315,221,43789,1,2,0:1:0:0:
337,209,43879,1,0,0:0:0:0:
353,190,43968,1,0,0:0:0:0:
360,166,44057,1,0,0:0:0:0:
355,141,44147,1,8,0:1:0:0:
341,120,44236,1,0,0:0:0:0:
333,96,44325,1,0,0:0:0:0:
333,71,44414,1,0,0:0:0:0:
342,47,44504,6,0,P|366:30|390:28,3,50,2|0|0|0,0:1|0:0|0:0|0:0,0:0:0:0:
459,46,44861,2,0,P|483:62|493:84,3,50,8|0|0|0,0:1|0:0|0:0|0:0,0:0:0:0:
497,156,45218,2,0,P|489:184|472:201,3,50,2|0|0|0,0:1|0:0|0:0|0:0,0:0:0:0:
404,225,45575,2,0,P|374:227|352:217,3,50,8|0|0|0,0:1|0:0|0:0|0:0,0:0:0:0:
297,173,45932,5,2,0:1:0:0:
276,158,46022,1,0,0:0:0:0:
251,152,46111,1,0,0:0:0:0:
226,152,46200,1,0,0:0:0:0:
201,158,46289,1,10,0:1:0:0:
179,171,46379,1,0,0:0:0:0:
163,190,46468,1,0,0:0:0:0:
141,202,46557,1,0,0:0:0:0:
116,207,46647,1,2,0:1:0:0:
91,204,46736,1,0,0:0:0:0:
70,190,46825,1,0,0:0:0:0:
57,168,46914,1,0,0:0:0:0:
53,143,47004,1,10,0:1:0:0:
60,119,47093,1,0,0:0:0:0:
77,101,47182,1,2,0:0:0:0:
101,95,47272,1,0,0:0:0:0:
125,97,47361,6,0,P|182:94|205:11,1,150,4|0,0:1|0:0,0:0:0:0:
189,18,47720,1,8,0:1:0:0:
176,39,47810,1,0,0:0:0:0:
172,63,47899,1,0,0:0:0:0:
175,87,47989,1,0,0:0:0:0:
187,108,48079,1,2,0:1:0:0:
206,124,48169,1,0,0:0:0:0:
222,143,48259,1,0,0:0:0:0:
229,166,48349,1,0,0:0:0:0:
229,190,48438,1,8,0:1:0:0:
222,214,48528,1,0,0:0:0:0:
209,235,48618,1,0,0:0:0:0:
189,250,48708,1,0,0:0:0:0:
164,253,48798,5,2,0:1:0:0:
158,228,48887,1,0,0:0:0:0:
167,204,48977,1,0,0:0:0:0:
185,187,49067,1,0,0:0:0:0:
209,180,49157,1,8,0:1:0:0:
234,181,49247,1,0,0:0:0:0:
256,192,49337,1,0,0:0:0:0:
270,212,49426,1,0,0:0:0:0:
277,235,49516,1,2,0:1:0:0:
275,260,49606,1,0,0:0:0:0:
266,283,49696,1,0,0:0:0:0:
262,307,49786,1,0,0:0:0:0:
266,331,49875,1,8,0:1:0:0:
281,350,49965,1,0,0:0:0:0:
303,360,50055,1,0,0:0:0:0:
328,358,50145,1,0,0:0:0:0:
349,345,50235,6,0,B|383:332|383:332|467:347,1,119.999996337891,4|0,0:1|0:0,0:0:0:0:
490,276,50504,1,8,0:0:0:0:
452,266,50594,2,0,B|378:252|378:252|307:278,1,139.999995727539,8|0,0:2|0:0,0:0:0:0:
277,205,50863,1,8,0:0:0:0:
310,191,50953,2,0,B|370:168|370:168|466:186,1,160,8|8,0:2|0:0,0:0:0:0:
492,112,51223,1,8,0:0:0:0:
454,102,51313,2,0,B|365:85|365:85|281:116,1,179.999994506836,8|8,0:2|0:0,0:0:0:0:
67,86,51672,5,4,0:1:0:0:
93,71,51762,1,0,0:0:0:0:
122,68,51852,1,0,0:0:0:0:
150,76,51941,1,0,0:0:0:0:
174,94,52031,1,8,0:1:0:0:
196,113,52121,1,0,0:0:0:0:
223,124,52211,1,0,0:0:0:0:
253,124,52301,1,0,0:0:0:0:
281,115,52390,5,2,0:1:0:0:
252,95,52480,1,0,0:0:0:0:
217,99,52570,1,8,0:3:0:0:
187,117,52660,1,8,0:3:0:0:
171,148,52750,1,2,0:1:0:0:
170,183,52840,1,2,0:3:0:0:
186,213,52929,1,2,0:3:0:0:
215,232,53019,1,0,0:0:0:0:
252,236,53109,6,0,P|279:228|299:211,3,50,4|0|0|0,0:1|0:0|0:0|0:0,0:0:0:0:
339,147,53468,2,0,P|342:118|332:93,3,50,8|0|0|0,0:1|0:0|0:0|0:0,0:0:0:0:
264,50,53828,1,2,0:1:0:0:
239,56,53917,1,0,0:0:0:0:
214,53,54007,1,0,0:0:0:0:
191,42,54097,1,0,0:0:0:0:
170,28,54187,1,8,0:1:0:0:
146,20,54277,1,0,0:0:0:0:
121,19,54366,1,0,0:0:0:0:
96,26,54456,1,0,0:0:0:0:
75,37,54546,5,2,0:1:0:0:
89,58,54636,1,0,0:0:0:0:
113,67,54726,1,0,0:0:0:0:
138,69,54816,1,0,0:0:0:0:
163,73,54905,1,8,0:1:0:0:
186,83,54995,1,0,0:0:0:0:
204,100,55085,1,0,0:0:0:0:
191,120,55175,1,0,0:0:0:0:
169,131,55265,1,2,0:1:0:0:
145,134,55355,1,0,0:0:0:0:
121,130,55444,1,0,0:0:0:0:
98,121,55534,1,0,0:0:0:0:
73,119,55624,1,8,0:1:0:0:
49,123,55714,1,0,0:0:0:0:
28,136,55804,1,0,0:0:0:0:
43,156,55893,1,0,0:0:0:0:
66,165,55983,6,0,P|77:187|77:213,3,50,2|0|0|0,0:1|0:0|0:0|0:0,0:0:0:0:
153,281,56343,2,0,P|164:259|164:233,3,50,8|0|0|0,0:1|0:0|0:0|0:0,0:0:0:0:
236,142,56702,2,0,P|247:164|247:190,3,50,2|0|0|0,0:1|0:0|0:0|0:0,0:0:0:0:
293,317,57061,2,0,P|303:294|303:268,3,50,8|0|0|0,0:1|0:0|0:0|0:0,0:0:0:0:
227,278,57420,5,2,0:1:0:0:
203,286,57510,1,0,0:0:0:0:
178,288,57600,1,0,0:0:0:0:
153,281,57690,1,0,0:0:0:0:
133,265,57780,1,8,0:1:0:0:
119,244,57869,1,0,0:0:0:0:
114,219,57959,1,0,0:0:0:0:
114,193,58049,1,0,0:0:0:0:
109,168,58139,1,2,0:1:0:0:
96,146,58229,1,0,0:0:0:0:
75,132,58319,1,0,0:0:0:0:
50,127,58408,1,0,0:0:0:0:
25,136,58498,1,10,0:1:0:0:
42,165,58588,1,0,0:0:0:0:
75,174,58678,1,0,0:0:0:0:
109,168,58768,1,0,0:0:0:0:
137,147,58858,6,0,B|170:124|223:127|223:127|277:158|291:214,2,194.999991073609,4|0|8,0:0|0:0|0:0,0:0:0:0:
366,223,59576,2,0,B|369:263|340:307|340:307|286:338|230:322,2,194.999991073609,4|0|2,0:0|0:2|0:2,0:0:0:0:
184,384,60295,2,0,B|147:366|123:319|123:319|123:257|165:217,2,194.999991073609,4|0|4,0:0|0:0|0:2,0:0:0:0:
137,147,61013,1,4,0:0:0:0:
288,205,61283,1,0,0:0:0:0:
90,74,61552,1,0,0:0:0:0:
89,59,61642,1,0,0:0:0:0:
94,43,61732,5,4,0:0:0:0:
94,43,62091,1,8,0:0:0:0:
172,30,62271,1,0,0:0:0:0:
293,131,62450,1,8,0:0:0:0:
214,120,62630,1,0,0:0:0:0:
362,34,62810,1,8,0:0:0:0:
440,22,62989,1,0,0:0:0:0:
506,158,63169,5,8,0:0:0:0:
474,166,63259,1,0,0:0:0:0:
452,190,63349,1,2,0:0:0:0:
443,221,63438,1,0,0:0:0:0:
446,253,63528,1,8,0:0:0:0:
458,282,63618,1,0,0:0:0:0:
461,314,63708,1,2,0:0:0:0:
453,345,63798,1,0,0:0:0:0:
426,361,63887,5,8,0:0:0:0:
397,333,63977,1,8,0:3:0:0:
356,322,64067,1,8,0:3:0:0:
311,330,64157,1,8,0:3:0:0:
278,364,64247,1,8,0:0:0:0:
248,356,64606,5,8,0:3:0:0:
234,342,64696,1,8,0:3:0:0:
228,323,64786,1,8,0:3:0:0:
230,303,64875,1,8,0:3:0:0:
92,262,65145,5,8,0:3:0:0:
106,248,65235,1,8,0:3:0:0:
112,229,65325,1,8,0:3:0:0:
110,209,65414,1,8,0:3:0:0:
212,120,65684,5,8,0:3:0:0:
198,106,65774,1,8,0:3:0:0:
192,87,65863,1,8,0:3:0:0:
194,67,65953,1,8,0:3:0:0:
221,48,66043,5,8,0:3:0:0:
238,57,66133,1,8,0:3:0:0:
256,61,66223,1,8,0:3:0:0:
275,60,66313,1,8,0:3:0:0:
332,148,66582,5,8,0:3:0:0:
349,139,66672,1,8,0:3:0:0:
367,135,66762,1,8,0:3:0:0:
386,136,66852,1,8,0:3:0:0:
434,48,67121,5,8,0:3:0:0:
451,57,67211,1,8,0:3:0:0:
469,61,67301,1,8,0:3:0:0:
488,60,67390,1,8,0:3:0:0:
495,42,67480,5,8,0:3:0:0:
472,22,67570,1,8,0:3:0:0:
442,18,67660,1,8,0:3:0:0:
414,25,67750,1,8,0:3:0:0:
339,157,68019,5,8,0:3:0:0:
316,177,68109,1,8,0:3:0:0:
286,181,68199,1,8,0:3:0:0:
258,174,68289,1,8,0:3:0:0:
185,56,68558,5,8,0:3:0:0:
162,36,68648,1,8,0:3:0:0:
132,32,68738,1,8,0:3:0:0:
104,39,68828,1,8,0:3:0:0:
65,38,68917,5,8,0:3:0:0:
57,69,69007,1,8,0:3:0:0:
61,101,69097,1,8,0:3:0:0:
80,126,69187,1,8,0:3:0:0:
109,140,69277,5,8,0:3:0:0:
147,142,69366,1,8,0:3:0:0:
184,131,69456,1,8,0:3:0:0:
215,108,69546,1,8,0:3:0:0:
252,97,69636,1,8,0:3:0:0:
290,99,69726,1,8,0:3:0:0:
326,114,69816,1,8,0:3:0:0:
350,143,69905,1,8,0:3:0:0:
355,181,69995,5,8,0:3:0:0:
310,173,70085,1,8,0:3:0:0:
280,138,70175,1,8,0:3:0:0:
277,92,70265,1,8,0:3:0:0:
303,42,70354,6,0,B|322:26|356:24|356:24|400:31|427:81,1,150,4|0,0:0|0:0,0:0:0:0:
499,114,70719,2,0,B|459:160|466:219|466:219|475:279|451:307|451:307|450:283|434:266,1,239.999992675781,8|2,0:0|0:0,0:0:0:0:
287,364,71248,1,0,0:0:0:0:
272,366,71336,1,0,0:0:0:0:
257,368,71424,2,0,B|225:353|217:324|217:324|230:279|232:226|197:179|197:179|197:196|187:213,1,239.999992675781,8|2,0:0|0:0,0:0:0:0:
121,24,71954,1,0,0:0:0:0:
106,22,72042,1,0,0:0:0:0:
91,20,72130,6,0,B|59:35|51:64|51:64|64:109|66:162|31:209|31:209|50:203|63:189,1,239.999992675781,8|2,0:0|0:0,0:0:0:0:
77,177,72571,1,0,0:0:0:0:
103,162,72660,1,0,0:0:0:0:
132,159,72748,1,0,0:0:0:0:
161,166,72836,1,0,0:0:0:0:
187,180,72924,1,0,0:0:0:0:
216,188,73013,1,0,0:0:0:0:
245,182,73101,1,0,0:0:0:0:
277,156,73189,6,0,B|292:126|279:93|279:93|248:53|266:12,1,150,4|0,0:0|0:0,0:0:0:0:
336,41,73541,2,0,B|371:3|438:22|438:22|439:31|439:31|495:74|465:146,1,239.999992675781,8|2,0:0|0:0,0:0:0:0:
341,242,74071,1,0,0:0:0:0:
327,267,74159,1,0,0:0:0:0:
326,298,74247,2,0,B|339:340|394:355|394:355|401:349|401:349|481:358|511:281,1,239.999992675781,8|2,0:0|0:0,0:0:0:0:
389,164,74777,1,0,0:0:0:0:
367,144,74865,1,0,0:0:0:0:
340,134,74953,6,0,B|300:122|269:134|269:134|211:177|138:171|138:171|155:182|168:198,1,239.999992675781,8|2,0:0|0:0,0:0:0:0:
99,240,75394,1,0,0:0:0:0:
87,268,75483,1,0,0:0:0:0:
90,297,75571,1,0,0:0:0:0:
107,322,75659,1,0,0:0:0:0:
133,335,75747,1,0,0:0:0:0:
163,334,75836,1,0,0:0:0:0:
190,323,75924,1,0,0:0:0:0:
210,300,76012,6,0,P|258:274|339:316,1,150,4|0,0:0|0:0,0:0:0:0:
398,365,76365,2,0,B|366:330|368:285|368:285|406:245|398:179|398:179|378:157|353:155,1,239.999992675781,8|2,0:0|0:0,0:0:0:0:
308,42,76894,1,0,0:0:0:0:
285,27,76983,1,0,0:0:0:0:
256,21,77071,2,0,B|210:8|178:38|178:38|167:47|167:47|125:70|79:59|79:59|56:66|36:91,1,239.999992675781,8|2,0:0|0:0,0:0:0:0:
164,226,77600,1,0,0:0:0:0:
187,248,77689,1,0,0:0:0:0:
198,278,77777,6,0,P|264:308|332:182,1,239.999992675781,8|2,0:0|0:0,0:0:0:0:
393,136,78218,1,0,0:0:0:0:
416,118,78306,1,0,0:0:0:0:
426,90,78394,1,0,0:0:0:0:
422,59,78483,1,0,0:0:0:0:
407,32,78571,1,0,0:0:0:0:
380,18,78659,1,0,0:0:0:0:
350,17,78747,1,0,0:0:0:0:
322,26,78836,6,0,B|285:41|285:41|174:22,1,150,4|0,0:0|0:0,0:0:0:0:
104,7,79189,2,0,B|69:44|84:98|84:98|80:140|42:162|42:162|30:200|47:233,1,239.999992675781,8|2,0:0|0:0,0:0:0:0:
191,367,79718,1,0,0:0:0:0:
223,343,79806,1,0,0:0:0:0:
241,311,79894,2,0,B|257:262|220:220|220:220|206:180|231:144|231:144|226:104|197:82,1,239.999992675781,8|2,0:0|0:0,0:0:0:0:
325,20,80424,1,0,0:0:0:0:
360,8,80512,1,0,0:0:0:0:
402,16,80600,6,0,P|459:49|426:148,1,179.999994506836,8|0,0:0|0:0,0:0:0:0:
362,162,80953,1,0,0:0:0:0:
338,193,81040,1,0,0:0:0:0:
328,231,81127,1,0,0:0:0:0:
333,270,81214,1,0,0:0:0:0:
357,301,81301,1,0,0:0:0:0:
401,295,81388,1,0,0:0:0:0:
434,265,81474,1,0,0:0:0:0:
450,222,81561,1,0,0:0:0:0:
446,178,81648,6,0,B|445:117|395:95|395:95|390:84|390:84|341:78|323:26,1,200,4|8,0:0|0:0,0:0:0:0:
241,134,82186,1,0,0:0:0:0:
236,140,82276,1,0,0:0:0:0:
229,144,82366,2,0,P|163:142|99:91,2,150,2|2|0,0:2|0:0|0:0,0:0:0:0:
481,317,83085,6,0,P|428:279|322:346,1,200,4|0,0:2|0:0,0:0:0:0:
206,362,83624,1,0,0:0:0:0:
219,351,83713,1,0,0:0:0:0:
226,335,83803,1,2,0:0:0:0:
208,310,83893,1,0,0:0:0:0:
178,302,83983,1,0,0:0:0:0:
148,305,84073,1,0,0:0:0:0:
121,318,84162,1,8,0:0:0:0:
91,320,84252,1,0,0:0:0:0:
61,312,84342,1,0,0:0:0:0:
37,293,84432,1,0,0:0:0:0:
26,266,84522,6,0,P|24:236|33:216,1,50,4|0,0:0|0:0,0:0:0:0:
86,158,84701,2,0,P|123:101|42:22,1,200,2|0,0:0|0:0,0:0:0:0:
28,29,85150,1,0,0:0:0:0:
17,41,85240,1,2,0:2:0:0:
192,200,85510,2,0,B|237:211|237:211|341:191,1,150,2|0,0:0|0:0,0:0:0:0:
492,35,85959,6,0,L|286:24,1,200,4|8,0:2|0:0,0:0:0:0:
197,99,86498,1,0,0:0:0:0:
35,50,86677,1,2,0:0:0:0:
55,44,86767,1,0,0:0:0:0:
80,46,86857,1,0,0:0:0:0:
99,62,86947,1,0,0:0:0:0:
122,86,87037,1,8,0:0:0:0:
155,100,87127,1,0,0:0:0:0:
197,99,87216,1,0,0:0:0:0:
235,82,87306,1,0,0:0:0:0:
258,41,87396,6,0,P|280:28|311:29,2,50,4|0|0,0:0|0:0|0:0,0:0:0:0:
372,73,87755,1,8,0:0:0:0:
377,217,87935,2,0,P|399:230|430:229,1,50,2|0,0:0|0:0,0:0:0:0:
488,191,88115,2,0,P|440:240|361:215,1,150,0|2,0:0|0:0,0:0:0:0:
362,229,88474,2,0,P|333:195|332:136,1,100,8|2,0:0|0:0,0:0:0:0:
190,18,88833,5,4,0:0:0:0:
158,140,89013,1,0,0:0:0:0:
158,140,89103,2,0,P|109:159|43:98,1,150,8|2,0:0|0:0,0:0:0:0:
190,18,89552,2,0,B|257:11|257:11|287:15|287:15|343:10,1,150,2|0,0:0|0:0,0:0:0:0:
355,24,89911,2,0,L|456:16,1,100,8|2,0:0|0:0,0:0:0:0:
485,295,90270,6,0,P|460:300|435:294,1,50,4|0,0:0|0:0,0:0:0:0:
385,242,90450,2,0,B|424:254|433:301|433:301|409:362|334:347,1,200,2|0,0:0|0:0,0:0:0:0:
317,338,90899,1,0,0:0:0:0:
301,323,90989,1,2,0:2:0:0:
26,338,91258,1,2,0:0:0:0:
220,130,91528,1,0,0:0:0:0:
184,284,91707,5,4,0:0:0:0:
13,158,91977,1,8,0:2:0:0:
135,11,92246,1,8,0:2:0:0:
279,218,92426,5,4,0:0:0:0:
70,259,92695,1,8,0:2:0:0:
38,49,92965,1,8,0:2:0:0:
247,8,93145,6,0,B|313:1|356:46|356:46|379:44|379:44|401:73|450:61,1,220.000006713867,4|8,0:0|0:0,0:0:0:0:
443,157,93682,1,0,0:0:0:0:
434,163,93771,1,0,0:0:0:0:
427,171,93861,2,0,B|405:204|410:240|410:240|428:283|412:332,1,165.000005035401,2|0,0:0|0:0,0:0:0:0:
339,291,94219,2,0,L|223:305,1,110.000003356934,8|0,0:0|0:0,0:0:0:0:
39,355,94577,6,0,L|205:377,2,165.000005035401,4|2|8,0:2|0:0|0:2,0:0:0:0:
14,213,95294,1,8,0:2:0:0:
10,184,95383,2,0,P|41:126|130:144,1,165.000005035401,8|8,0:0|0:0,0:0:0:0:
237,236,95831,1,8,0:2:0:0:
446,145,96010,5,4,0:0:0:0:
374,216,96189,1,0,0:0:0:0:
368,230,96279,1,0,0:0:0:0:
366,248,96368,1,8,0:0:0:0:
369,269,96458,1,0,0:0:0:0:
374,290,96547,1,2,0:2:0:0:
373,312,96637,1,0,0:0:0:0:
362,343,96727,5,8,0:0:0:0:
334,325,96816,1,0,0:0:0:0:
323,293,96906,1,2,0:2:0:0:
328,260,96995,1,0,0:0:0:0:
347,233,97085,1,8,0:0:0:0:
368,208,97174,1,0,0:0:0:0:
383,178,97264,1,2,0:2:0:0:
391,146,97353,1,0,0:0:0:0:
383,113,97443,6,0,P|379:86|387:60,3,55.0000016784668,8|0|2|0,0:0|0:0|0:2|0:0,0:0:0:0:
458,15,97801,2,0,P|476:12|493:18,4,36.6666677856446,8|0|0|0|0,0:0|0:0|0:0|0:0|0:0,0:0:0:0:
290,86,98159,2,0,B|265:44|213:39|213:39|208:32|208:32|147:30|117:62|117:62|108:55|108:55|70:67|57:103,1,279.999991455078,8|8,0:0|0:0,0:0:0:0:
45,133,98607,1,0,0:0:0:0:
58,173,98697,1,0,0:0:0:0:
55,219,98786,1,0,0:0:0:0:
28,263,98876,5,4,0:0:0:0:
430,356,99413,2,0,P|425:323|431:298,1,55.0000016784668,2|0,0:0|0:0,0:0:0:0:
381,227,99592,2,0,B|343:285|272:260|272:260|264:267|264:267|169:264|141:339|141:339|158:328|181:328,1,330.000010070801,12|0,0:2|0:0,0:0:0:0:
206,335,100219,1,0,0:0:0:0:
237,357,100309,5,4,0:0:0:0:
481,291,100577,1,8,0:2:0:0:
415,48,100846,1,8,0:2:0:0:
171,114,101025,5,12,0:2:0:0:
245,72,101204,1,0,0:0:0:0:
249,60,101294,1,0,0:0:0:0:
250,44,101383,1,8,0:0:0:0:
241,160,101562,1,2,0:0:0:0:
461,118,101742,5,4,0:0:0:0:
475,198,102010,1,8,0:2:0:0:
489,276,102279,1,8,0:2:0:0:
276,374,102458,5,0,0:0:0:0:
288,226,102727,1,8,0:2:0:0:
300,78,102995,1,8,0:2:0:0:
65,22,103174,6,0,B|76:91|76:91|70:115|70:115|83:191,2,165.000005035401,4|8|8,0:0|0:2|0:2,0:0:0:0:
163,137,103891,1,8,0:2:0:0:
192,150,103980,1,0,0:0:0:0:
225,147,104070,1,0,0:0:0:0:
253,131,104159,1,0,0:0:0:0:
275,106,104249,1,8,0:2:0:0:
303,89,104339,1,0,0:0:0:0:
335,86,104428,1,0,0:0:0:0:
367,93,104518,1,0,0:0:0:0:
389,112,104607,6,0,P|399:135|397:167,3,50,4|0|0|0,0:1|0:0|0:0|0:0,0:0:0:0:
446,224,104967,2,0,P|436:247|438:279,3,50,8|0|0|0,0:1|0:0|0:0|0:0,0:0:0:0:
405,348,105327,1,2,0:1:0:0:
384,362,105417,1,0,0:0:0:0:
359,366,105507,1,0,0:0:0:0:
334,360,105597,1,0,0:0:0:0:
312,347,105688,1,8,0:1:0:0:
291,332,105778,1,0,0:0:0:0:
267,322,105868,1,0,0:0:0:0:
242,319,105958,1,0,0:0:0:0:
218,326,106048,5,2,0:3:0:0:
239,338,106138,1,0,0:0:0:0:
263,336,106228,1,0,0:0:0:0:
285,326,106318,1,0,0:0:0:0:
303,308,106408,1,8,0:1:0:0:
312,284,106498,1,0,0:0:0:0:
309,259,106588,1,0,0:0:0:0:
297,236,106679,1,0,0:0:0:0:
287,213,106769,1,2,0:1:0:0:
283,188,106859,1,0,0:0:0:0:
289,163,106949,1,0,0:0:0:0:
306,144,107039,1,0,0:0:0:0:
329,136,107129,1,8,0:1:0:0:
353,135,107219,1,0,0:0:0:0:
376,144,107309,1,0,0:0:0:0:
393,161,107399,1,0,0:0:0:0:
401,184,107489,6,0,P|403:214|392:236,3,50,2|0|0|0,0:1|0:0|0:0|0:0,0:0:0:0:
337,281,107850,2,0,P|308:290|284:285,3,50,8|0|0|0,0:1|0:0|0:0|0:0,0:0:0:0:
224,248,108210,1,2,0:1:0:0:
200,238,108300,1,0,0:0:0:0:
175,236,108390,1,0,0:0:0:0:
150,241,108480,1,0,0:0:0:0:
127,251,108570,1,8,0:1:0:0:
101,253,108661,1,0,0:0:0:0:
76,247,108751,1,0,0:0:0:0:
57,230,108841,1,0,0:0:0:0:
48,206,108931,5,2,0:1:0:0:
50,181,109021,1,0,0:0:0:0:
62,159,109111,1,0,0:0:0:0:
78,140,109201,1,0,0:0:0:0:
89,118,109291,1,8,0:1:0:0:
97,94,109381,1,0,0:0:0:0:
97,69,109471,1,0,0:0:0:0:
88,45,109561,1,0,0:0:0:0:
67,29,109652,1,2,0:1:0:0:
55,50,109742,1,0,0:0:0:0:
60,74,109832,1,0,0:0:0:0:
78,91,109922,1,0,0:0:0:0:
117,95,110012,1,8,0:1:0:0:
156,87,110102,1,8,0:1:0:0:
195,89,110192,1,8,0:1:0:0:
230,108,110282,1,8,0:1:0:0:
251,141,110372,6,0,P|291:174|377:135,1,150,4|0,0:0|0:0,0:0:0:0:
390,104,110733,1,8,0:1:0:0:
374,123,110823,1,0,0:0:0:0:
367,147,110913,1,0,0:0:0:0:
367,171,111003,1,0,0:0:0:0:
375,194,111093,1,2,0:1:0:0:
390,213,111183,1,0,0:0:0:0:
404,233,111273,1,0,0:0:0:0:
411,256,111363,1,0,0:0:0:0:
411,280,111453,1,8,0:1:0:0:
405,304,111543,1,0,0:0:0:0:
391,325,111634,1,0,0:0:0:0:
371,340,111724,1,0,0:0:0:0:
346,346,111814,5,2,0:1:0:0:
333,324,111904,1,0,0:0:0:0:
331,299,111994,1,0,0:0:0:0:
338,275,112084,1,0,0:0:0:0:
353,255,112174,1,8,0:1:0:0:
373,240,112264,1,0,0:0:0:0:
387,219,112354,1,0,0:0:0:0:
394,195,112444,1,0,0:0:0:0:
394,170,112534,1,2,0:1:0:0:
386,145,112625,1,0,0:0:0:0:
369,126,112715,1,0,0:0:0:0:
345,117,112805,1,0,0:0:0:0:
320,118,112895,1,8,0:1:0:0:
297,129,112985,1,0,0:0:0:0:
283,150,113075,1,0,0:0:0:0:
278,174,113165,1,0,0:0:0:0:
283,198,113255,6,0,P|265:251|217:224,1,119.999996337891,4|0,0:0|0:0,0:0:0:0:
186,144,113525,1,8,0:2:0:0:
183,125,113616,2,0,P|141:101|123:174,1,139.999995727539,8|0,0:0|0:0,0:0:0:0:
138,268,113886,1,8,0:0:0:0:
139,281,113976,2,0,P|93:326|75:256,1,160,8|8,0:2|0:0,0:0:0:0:
264,59,114336,2,0,B|302:30|353:52|353:52|383:97|455:92|486:59|486:59|472:46|445:54,1,269.999991760254,12|0,0:2|0:0,0:0:0:0:
438,60,114697,5,4,0:0:0:0:
412,86,114787,1,0,0:0:0:0:
402,120,114877,1,0,0:0:0:0:
407,155,114967,1,0,0:0:0:0:
424,186,115057,1,8,0:0:0:0:
446,214,115147,1,8,0:0:0:0:
456,248,115237,1,8,0:0:0:0:
458,282,115327,1,0,0:0:0:0:
446,316,115417,5,8,0:0:0:0:
410,288,115507,1,0,0:0:0:0:
399,244,115597,1,0,0:0:0:0:
414,201,115688,1,8,0:0:0:0:
444,167,115778,1,8,0:0:0:0:
477,136,115868,1,0,0:0:0:0:
496,95,115958,1,8,0:0:0:0:
497,50,116048,1,0,0:0:0:0:
471,13,116138,6,0,P|453:1|419:2,3,50,4|0|0|0,0:1|0:0|0:0|0:0,0:0:0:0:
353,39,116495,2,0,P|335:51|301:50,3,50,8|0|0|0,0:1|0:0|0:0|0:0,0:0:0:0:
232,29,116852,1,2,0:1:0:0:
207,24,116941,1,0,0:0:0:0:
182,29,117030,1,0,0:0:0:0:
160,41,117120,1,0,0:0:0:0:
143,59,117209,1,8,0:1:0:0:
122,73,117298,1,0,0:0:0:0:
97,79,117388,1,0,0:0:0:0:
72,77,117477,1,0,0:0:0:0:
50,64,117566,5,2,0:1:0:0:
73,56,117655,1,0,0:0:0:0:
97,61,117745,1,0,0:0:0:0:
119,72,117834,1,0,0:0:0:0:
133,92,117923,1,8,0:1:0:0:
136,116,118013,1,0,0:0:0:0:
133,140,118102,1,0,0:0:0:0:
120,161,118191,1,0,0:0:0:0:
100,176,118280,1,2,0:1:0:0:
81,193,118370,1,0,0:0:0:0:
68,214,118459,1,0,0:0:0:0:
60,238,118548,1,0,0:0:0:0:
62,262,118638,1,8,0:1:0:0:
73,284,118727,1,0,0:0:0:0:
92,299,118816,1,0,0:0:0:0:
116,304,118905,1,0,0:0:0:0:
140,300,118995,6,0,P|172:297|196:308,3,50,2|0|0|0,0:1|0:0|0:0|0:0,0:0:0:0:
253,355,119352,2,0,P|276:361|301:357,3,50,8|0|0|0,0:1|0:0|0:0|0:0,0:0:0:0:
366,302,119709,2,0,P|390:298|414:304,3,50,2|0|0|0,0:1|0:0|0:0|0:0,0:0:0:0:
494,271,120066,2,0,P|504:248|503:220,3,50,8|0|0|0,0:1|0:0|0:0|0:0,0:0:0:0:
468,151,120423,5,2,0:1:0:0:
456,128,120512,1,0,0:0:0:0:
454,103,120602,1,0,0:0:0:0:
461,79,120692,1,0,0:0:0:0:
478,60,120782,1,8,0:1:0:0:
490,81,120872,1,0,0:0:0:0:
489,105,120961,1,0,0:0:0:0:
476,126,121051,1,0,0:0:0:0:
455,140,121141,1,2,0:1:0:0:
430,142,121231,1,0,0:0:0:0:
405,139,121321,1,0,0:0:0:0:
380,134,121411,1,0,0:0:0:0:
355,136,121500,1,8,0:1:0:0:
332,145,121590,1,8,0:1:0:0:
312,161,121680,1,8,0:1:0:0:
300,183,121770,1,8,0:1:0:0:
296,207,121860,5,4,0:0:0:0:
46,51,122129,1,8,0:2:0:0:
129,36,122399,1,8,0:2:0:0:
74,317,122578,5,4,0:0:0:0:
99,118,122848,1,8,0:2:0:0:
46,51,123117,1,8,0:2:0:0:
332,62,123297,5,4,0:0:0:0:
248,274,123566,1,8,0:2:0:0:
296,207,123836,1,8,0:2:0:0:
512,343,124015,5,4,0:0:0:0:
327,286,124285,1,8,0:2:0:0:
248,274,124554,1,8,0:2:0:0:
182,26,124734,5,4,0:0:0:0:
260,38,125093,1,8,0:0:0:0:
261,44,125273,1,0,0:0:0:0:
206,103,125452,1,8,0:0:0:0:
207,97,125632,1,0,0:0:0:0:
335,18,125812,1,8,0:0:0:0:
336,24,125991,1,0,0:0:0:0:
275,147,126171,5,4,0:0:0:0:
246,175,126261,1,0,0:0:0:0:
206,184,126351,1,0,0:0:0:0:
166,176,126440,1,0,0:0:0:0:
138,146,126530,1,8,0:2:0:0:
127,107,126620,1,0,0:0:0:0:
101,76,126710,1,0,0:0:0:0:
61,71,126800,1,0,0:0:0:0:
26,87,126890,5,8,0:2:0:0:
44,123,126979,1,8,0:2:0:0:
87,140,127069,1,8,0:2:0:0:
138,138,127159,1,8,0:2:0:0:
179,100,127249,1,12,0:0:0:0:
228,175,127608,5,8,0:3:0:0:
237,177,127697,1,8,0:3:0:0:
246,177,127787,1,8,0:3:0:0:
255,176,127877,1,8,0:3:0:0:
329,135,128147,1,8,0:3:0:0:
338,133,128237,1,8,0:3:0:0:
347,133,128327,1,8,0:3:0:0:
356,134,128417,1,8,0:3:0:0:
421,190,128687,2,8,P|443:191|461:183,3,37.5000014305115,8|8|8|8,0:3|0:3|0:3|0:3,0:3:0:0:
475,177,129047,5,8,0:3:0:0:
465,194,129137,1,8,0:3:0:0:
462,213,129227,1,8,0:3:0:0:
464,232,129317,1,8,0:3:0:0:
387,359,129587,1,8,0:3:0:0:
377,342,129677,1,8,0:3:0:0:
374,323,129767,1,8,0:3:0:0:
376,304,129857,1,8,0:3:0:0:
336,130,130127,2,8,P|331:152|333:170,3,37.5000014305115,8|8|8|8,0:3|0:3|0:3|0:3,0:3:0:0:
351,182,130487,5,8,0:3:0:0:
369,158,130577,1,8,0:3:0:0:
375,128,130667,1,8,0:3:0:0:
366,99,130757,1,8,0:3:0:0:
468,272,131027,1,8,0:3:0:0:
450,248,131117,1,8,0:3:0:0:
444,218,131207,1,8,0:3:0:0:
453,189,131297,1,8,0:3:0:0:
312,313,131567,2,0,P|314:286|310:277,3,37.5000014305115,0|0|0|0,0:3|0:3|0:3|0:3,0:3:0:0:
305,255,131927,5,8,0:3:0:0:
338,263,132017,1,8,0:3:0:0:
372,258,132107,1,8,0:3:0:0:
403,242,132197,1,8,0:3:0:0:
384,96,132467,1,8,0:3:0:0:
351,88,132557,1,8,0:3:0:0:
317,93,132646,1,8,0:3:0:0:
286,109,132736,1,8,0:3:0:0:
260,131,132826,1,8,0:3:0:0:
228,146,132916,1,8,0:3:0:0:
193,147,133006,1,8,0:3:0:0:
159,137,133096,1,8,0:3:0:0:
133,113,133186,1,8,0:3:0:0:
122,79,133276,1,8,0:3:0:0:
137,37,133366,5,12,0:0:0:0:
167,62,133456,1,8,0:2:0:0:
175,100,133546,1,8,0:2:0:0:
159,137,133636,1,8,0:2:0:0:
53,296,133906,1,8,0:2:0:0:
37,259,133996,1,8,0:2:0:0:
45,220,134086,1,8,0:2:0:0:
76,195,134176,1,8,0:2:0:0:
246,246,134446,2,8,P|246:280|239:296,3,50,8|8|8|8,0:2|0:2|0:2|0:2,0:2:0:0:
190,304,134806,5,8,0:2:0:0:
173,262,134896,1,8,0:2:0:0:
178,217,134986,1,8,0:2:0:0:
203,180,135076,1,8,0:2:0:0:
442,141,135346,1,8,0:2:0:0:
459,183,135436,1,8,0:2:0:0:
454,228,135526,1,8,0:2:0:0:
428,265,135616,1,8,0:2:0:0:
308,101,135886,2,8,P|304:67|311:47,3,50,8|8|8|8,0:2|0:2|0:2|0:2,0:2:0:0:
347,34,136246,5,8,0:2:0:0:
377,72,136336,1,8,0:2:0:0:
384,120,136426,1,8,0:2:0:0:
363,165,136516,1,8,0:2:0:0:
125,234,136786,1,8,0:2:0:0:
99,193,136876,1,8,0:2:0:0:
97,144,136966,1,8,0:2:0:0:
122,102,137056,1,8,0:2:0:0:
363,165,137326,1,8,0:2:0:0:
389,206,137416,1,8,0:2:0:0:
390,254,137506,1,8,0:2:0:0:
365,297,137596,1,8,0:2:0:0:
325,323,137685,6,0,B|304:325|304:325|275:312,3,50,4|0|0|0,0:2|0:0|0:0|0:0,0:0:0:0:
169,329,138045,2,0,B|177:309|177:309|203:291,3,50,4|0|0|0,0:2|0:0|0:0|0:0,0:0:0:0:
241,190,138405,2,0,B|253:207|253:207|256:238,3,50,4|0|0|0,0:2|0:0|0:0|0:0,0:0:0:0:
163,218,138765,1,8,0:2:0:0:
128,183,138856,1,8,0:2:0:0:
120,137,138948,1,8,0:2:0:0:
141,92,139040,1,8,0:2:0:0:
184,68,139132,6,0,B|202:61|223:67|223:67|256:95|249:133,1,115.000002193451,4|0,0:0|0:0,0:0:0:0:
255,236,139401,2,0,B|238:269|263:306|263:306|282:316|302:315,1,115.000002193451,2|0,0:0|0:0,0:0:0:0:
376,265,139670,1,2,2:0:0:0:
405,241,139760,1,0,0:0:0:0:
420,205,139850,1,2,0:2:0:0:
420,167,139939,1,0,0:0:0:0:
406,130,140029,1,2,0:2:0:0:
380,104,140119,1,0,0:0:0:0:
341,92,140209,5,10,0:2:0:0:
337,135,140298,1,0,0:0:0:0:
360,171,140388,1,0,0:0:0:0:
399,191,140478,1,0,0:0:0:0:
440,190,140568,6,0,B|459:185|474:169|474:169|487:127|462:99,1,115.000002193451,4|0,0:2|0:0,0:0:0:0:
382,25,140837,2,0,B|352:-1|310:11|310:11|291:22|283:42,1,115.000002193451,2|0,0:0|0:0,0:0:0:0:
216,93,141106,1,2,0:2:0:0:
186,114,141196,1,0,0:0:0:0:
149,120,141286,1,2,0:2:0:0:
111,118,141376,1,0,0:0:0:0:
75,104,141465,1,2,0:2:0:0:
49,77,141555,1,0,0:0:0:0:
45,40,141645,5,10,0:2:0:0:
91,42,141735,1,0,0:0:0:0:
128,68,141824,1,0,0:0:0:0:
141,112,141914,1,0,0:0:0:0:
126,161,142004,6,0,B|111:185|125:222|125:222|124:254|102:277,1,115.000002193451,4|0,0:0|0:0,0:0:0:0:
199,189,142273,2,0,B|218:176|246:177|246:177|283:185|297:219,1,115.000002193451,2|0,0:0|0:0,0:0:0:0:
299,303,142543,1,2,0:2:0:0:
327,326,142632,1,0,0:0:0:0:
364,332,142722,1,2,0:2:0:0:
401,325,142812,1,0,0:0:0:0:
431,302,142902,1,2,0:2:0:0:
447,267,142991,1,0,0:0:0:0:
458,225,143081,5,10,0:2:0:0:
415,242,143171,1,0,0:0:0:0:
400,283,143261,1,2,0:2:0:0:
401,325,143351,1,0,0:0:0:0:
435,359,143440,6,0,P|465:368|494:362,2,57.5000010967255,4|0|2,0:0|0:0|0:2,0:0:0:0:
319,329,143710,1,0,0:0:0:0:
298,343,143799,2,0,P|268:352|239:346,2,57.5000010967255,4|0|2,0:0|0:0|0:2,0:0:0:0:
400,283,144069,1,0,0:0:0:0:
415,268,144158,2,0,B|436:234|410:180|410:180|406:138|432:102,1,172.500003290176,4|0,0:0|0:0,0:0:0:0:
484,46,144517,1,12,0:0:0:0:
454,64,144607,1,8,0:0:0:0:
419,66,144697,1,10,0:2:0:0:
386,53,144787,1,8,0:0:0:0:
356,26,144877,6,0,B|318:14|318:14|237:40,1,115.000002193451,4|0,0:0|0:0,0:0:0:0:
131,24,145146,2,0,P|82:15|32:51,1,115.000002193451,2|0,0:0|0:0,0:0:0:0:
97,93,145415,1,2,0:2:0:0:
124,118,145505,1,0,0:0:0:0:
135,153,145595,1,2,0:2:0:0:
136,190,145684,1,0,0:0:0:0:
124,227,145774,1,2,0:2:0:0:
102,258,145864,1,0,0:0:0:0:
68,274,145954,5,10,0:2:0:0:
84,232,146044,1,0,0:0:0:0:
124,214,146133,1,2,0:2:0:0:
169,218,146223,1,0,0:0:0:0:
208,238,146313,6,0,P|255:256|310:223,1,115.000002193451,4|0,0:2|0:0,0:0:0:0:
383,163,146582,2,0,P|430:145|485:178,1,115.000002193451,2|0,0:0|0:0,0:0:0:0:
483,276,146851,1,2,0:2:0:0:
478,310,146941,1,0,0:0:0:0:
456,337,147031,1,2,0:2:0:0:
423,349,147121,1,0,0:0:0:0:
388,348,147210,1,2,0:2:0:0:
356,333,147300,1,0,0:0:0:0:
336,305,147390,5,10,0:2:0:0:
379,288,147480,1,0,0:0:0:0:
425,288,147570,1,2,0:2:0:0:
467,303,147659,1,0,0:0:0:0:
500,339,147749,6,0,B|449:313|457:250|457:250|452:239|452:239|497:210|520:140|488:72|488:72|483:102|470:114,1,345.000006580353,4|8,0:0|0:2,0:0:0:0:
410,65,148377,2,0,B|259:49|259:49|276:61,1,172.500003290176,8|2,0:0|0:2,0:0:0:0:
283,152,148826,1,2,0:2:0:0:
54,182,149006,1,2,0:2:0:0:
130,210,149185,5,4,0:2:0:0:
140,223,149455,1,4,0:0:0:0:
215,59,149725,1,8,0:2:0:0:
408,173,149905,5,4,0:2:0:0:
388,167,150175,1,4,0:0:0:0:
426,365,150446,1,8,0:2:0:0:
323,257,150626,6,0,P|260:228|213:254,1,125,4|0,0:0|0:0,0:0:0:0:
146,306,150894,2,0,B|124:321|95:316|95:316|59:292|62:255,1,125,2|0,0:0|0:0,0:0:0:0:
83,173,151163,1,2,0:2:0:0:
108,145,151253,1,0,0:0:0:0:
118,108,151343,1,2,0:2:0:0:
115,70,151432,1,0,0:0:0:0:
94,38,151522,1,2,0:2:0:0:
61,20,151611,1,0,0:0:0:0:
23,19,151701,5,10,0:2:0:0:
42,58,151791,1,0,0:0:0:0:
80,77,151880,1,2,0:2:0:0:
123,79,151970,1,0,0:0:0:0:
163,62,152060,6,0,P|217:49|263:93,1,125,4|0,0:2|0:0,0:0:0:0:
300,183,152329,2,0,P|354:196|400:152,1,125,2|0,0:0|0:0,0:0:0:0:
449,91,152597,1,2,0:2:0:0:
422,117,152687,1,0,0:0:0:0:
410,152,152777,1,2,0:2:0:0:
415,188,152866,1,0,0:0:0:0:
433,220,152956,1,2,0:2:0:0:
465,238,153046,1,0,0:0:0:0:
502,240,153135,5,10,0:2:0:0:
474,205,153225,1,0,0:0:0:0:
431,194,153314,1,2,0:2:0:0:
387,200,153404,1,0,0:0:0:0:
352,227,153494,6,0,B|324:247|322:283|322:283|328:317|312:342,1,125,4|0,0:0|0:0,0:0:0:0:
218,287,153763,2,0,B|196:260|203:225|203:225|218:193|209:165,1,125,2|0,0:0|0:0,0:0:0:0:
181,87,154032,1,2,0:2:0:0:
149,66,154121,1,0,0:0:0:0:
111,64,154211,1,2,0:2:0:0:
76,76,154300,1,0,0:0:0:0:
49,102,154390,1,2,0:2:0:0:
39,138,154480,1,0,0:0:0:0:
45,174,154569,5,10,0:2:0:0:
82,150,154659,1,0,0:0:0:0:
95,108,154749,1,2,0:2:0:0:
91,64,154838,1,0,0:0:0:0:
62,30,154928,6,0,P|39:22|3:29,2,62.5,4|0|2,0:0|0:0|0:2,0:0:0:0:
176,42,155197,1,0,0:0:0:0:
188,29,155286,2,0,P|211:21|247:28,2,62.5,4|0|2,0:0|0:0|0:2,0:0:0:0:
95,108,155555,1,0,0:0:0:0:
83,121,155645,2,0,B|63:153|77:201|77:201|108:248|78:308,1,187.5,4|0,0:0|0:0,0:0:0:0:
62,356,156003,1,12,0:0:0:0:
99,326,156093,1,8,0:0:0:0:
146,320,156183,1,10,0:2:0:0:
192,332,156272,1,8,0:0:0:0:
223,364,156362,6,0,P|289:374|327:337,1,125,4|0,0:0|0:0,0:0:0:0:
336,230,156631,2,0,P|383:215|446:258,1,125,2|0,0:0|0:0,0:0:0:0:
432,349,156900,1,2,0:2:0:0:
397,362,156989,1,0,0:0:0:0:
359,357,157079,1,2,0:2:0:0:
327,336,157169,1,0,0:0:0:0:
306,304,157258,1,2,0:2:0:0:
274,283,157348,1,0,0:0:0:0:
236,281,157438,5,10,0:2:0:0:
260,317,157527,1,0,0:0:0:0:
304,327,157617,1,2,0:2:0:0:
349,319,157706,1,0,0:0:0:0:
380,289,157796,6,0,B|399:274|399:240|399:240|387:204|350:193,1,125,0|0,0:0|0:0,0:0:0:0:
264,159,158065,2,0,B|242:147|236:114|236:114|242:76|276:59,1,125,2|0,0:0|0:0,0:0:0:0:
361,25,158334,1,2,0:2:0:0:
398,31,158424,1,0,0:0:0:0:
427,53,158513,1,2,0:2:0:0:
442,87,158603,1,0,0:0:0:0:
443,124,158692,1,2,0:2:0:0:
430,159,158782,1,0,0:0:0:0:
399,181,158872,5,10,0:2:0:0:
381,141,158961,1,0,0:0:0:0:
387,96,159051,1,2,0:2:0:0:
416,61,159141,1,0,0:0:0:0:
458,50,159230,6,0,B|515:78|499:145|499:145|506:156|506:156|524:209|488:253|488:253|491:266|491:266|457:302|414:305|414:305|430:310|447:332,1,375,4|8,0:0|0:0,0:0:0:0:
379,374,159858,2,0,B|334:382|306:351|306:351|296:284|356:260,1,187.5,8|2,0:2|0:2,0:0:0:0:
381,141,160306,1,2,0:2:0:0:
239,40,160485,1,2,0:2:0:0:
198,163,160664,6,0,P|142:208|73:187,2,150.000005722046,4|0|8,0:0|0:0|0:2,0:0:0:0:
332,146,161575,1,2,0:0:0:0:
272,96,161758,2,0,B|264:57|264:57|280:24,1,75.0000028610231,0|0,0:0|0:0,0:0:0:0:
409,35,162122,2,0,B|417:74|417:74|401:107,1,75.0000028610231,4|0,0:2|0:0,0:0:0:0:
332,146,162487,6,0,P|320:175|322:195,2,50.0000019073487,2|0|0,0:0|0:0|0:0,0:0:0:0:
395,184,162852,2,0,B|422:190|422:190|477:180,1,75.0000028610231,8|0,0:2|0:0,0:0:0:0:
409,35,163217,2,0,L|253:20,1,150.000005722046,4|2,0:0|0:0,0:0:0:0:
194,66,163764,1,0,0:0:0:0:
129,28,163946,1,2,0:0:0:0:
127,19,164037,1,0,0:0:0:0:
126,8,164129,1,0,0:0:0:0:
194,66,164311,6,0,B|201:100|201:100|190:144,1,75.0000028610231,8|0,0:0|0:0,0:0:0:0:
152,246,164676,2,0,L|159:321,1,75.0000028610231,8|0,0:0|0:0,0:0:0:0:
161,335,164949,1,0,0:0:0:0:
163,350,165040,1,2,0:0:0:0:
241,298,165223,1,0,0:0:0:0:
327,297,165405,1,2,0:0:0:0:
406,345,165588,1,0,0:0:0:0:
503,262,165770,1,2,0:0:0:0:
412,251,165952,1,0,0:0:0:0:
327,297,166135,6,0,P|254:303|215:244,1,150.000005722046,4|0,0:0|0:0,0:0:0:0:
172,182,166589,1,0,0:0:0:0:
172,172,166680,1,2,0:0:0:0:
52,163,166862,2,0,P|44:193|59:235,1,75.0000028610231,0|0,0:0|0:0,0:0:0:0:
289,236,167225,6,0,B|303:208|303:208|297:120,1,112.500004291535,8|0,0:2|0:0,0:0:0:0:
232,88,167589,2,0,B|225:62|225:62|239:11,1,75.0000028610231,2|0,0:0|0:0,0:0:0:0:
433,74,167953,2,0,B|440:100|440:100|412:226,1,150.000005722046,0|8,0:0|0:2,0:0:0:0:
418,232,168407,1,0,0:0:0:0:
415,250,168498,1,0,0:0:0:0:
412,268,168589,1,0,0:0:0:0:
409,286,168680,5,4,0:0:0:0:
290,342,169316,1,2,0:0:0:0:
279,328,169407,2,0,P|225:302|207:308,1,75.0000028610231,0|0,0:0|0:0,0:0:0:0:
122,335,169771,2,0,P|85:335|56:311,1,75.0000028610231,8|0,0:0|0:0,0:0:0:0:
43,215,170135,5,8,0:2:0:0:
115,169,170316,1,8,0:0:0:0:
122,156,170407,1,0,0:0:0:0:
123,137,170498,1,0,0:0:0:0:
196,194,170680,1,0,0:0:0:0:
286,204,170862,1,8,0:2:0:0:
376,173,171044,1,0,0:0:0:0:
483,240,171225,5,4,0:2:0:0:
300,111,171412,1,0,0:0:0:0:
230,282,171600,6,0,B|224:304|224:304|235:355,2,75.0000028610231,4|0|0,0:0|0:0|0:0,0:0:0:0:
155,233,172145,2,0,L|146:80,1,150.000005722046,2|0,0:0|0:0,0:0:0:0:
93,18,172690,1,2,0:0:0:0:
93,18,173054,2,0,P|54:13|24:30,2,75.0000028610231,2|0|0,0:0|0:0|0:0,0:0:0:0:
223,73,173600,6,0,L|378:62,1,150.000005722046,2|0,0:0|0:0,0:0:0:0:
456,116,174145,1,4,0:0:0:0:
449,131,174236,1,0,0:0:0:0:
446,147,174327,1,0,0:0:0:0:
450,166,174418,1,0,0:0:0:0:
498,233,174872,5,2,0:0:0:0:
422,242,175054,2,0,B|388:233|388:233|310:244,1,112.500004291535,0|2,0:0|0:0,0:0:0:0:
170,248,175509,1,0,0:0:0:0:
151,245,175600,1,2,0:0:0:0:
132,242,175690,1,0,0:0:0:0:
113,240,175781,5,2,0:2:0:0:
129,255,175872,1,0,0:0:0:0:
150,262,175963,1,2,0:2:0:0:
172,262,176054,1,0,0:0:0:0:
193,255,176145,1,0,0:0:0:0:
211,241,176236,1,0,0:0:0:0:
230,230,176327,1,8,0:2:0:0:
251,224,176418,1,0,0:0:0:0:
273,224,176509,1,2,0:2:0:0:
294,230,176600,1,0,0:0:0:0:
311,243,176690,2,0,P|324:274|319:298,2,50.0000019073487,2|0|2,0:2|0:0|0:0,0:0:0:0:
220,156,177054,6,0,B|205:124|205:124|229:6,1,150.000005722046,4|2,0:0|0:0,0:0:0:0:
305,69,177600,1,0,0:0:0:0:
317,77,177690,1,0,0:0:0:0:
332,82,177781,1,2,0:0:0:0:
354,85,177872,1,0,0:0:0:0:
376,83,177963,1,0,0:0:0:0:
397,76,178054,1,0,0:0:0:0:
418,68,178145,1,8,0:2:0:0:
440,65,178236,1,0,0:0:0:0:
462,69,178327,1,2,0:2:0:0:
481,80,178418,1,0,0:0:0:0:
474,101,178509,1,8,0:0:0:0:
454,112,178600,1,0,0:0:0:0:
431,113,178690,1,2,0:2:0:0:
408,115,178781,1,2,0:2:0:0:
387,124,178872,1,0,0:0:0:0:
371,139,178963,1,2,0:2:0:0:
383,157,179054,1,2,0:2:0:0:
403,165,179145,1,2,0:2:0:0:
425,165,179236,1,8,0:0:0:0:
446,160,179327,1,0,0:0:0:0:
468,158,179418,1,2,0:2:0:0:
490,162,179509,1,2,0:2:0:0:
507,175,179600,6,0,B|519:212|506:239|506:239|499:260|502:280,1,103.125003933907,4|0,0:0|0:0,0:0:0:0:
439,319,179963,2,0,P|427:280|428:254,2,50.0000019073487,2|0|0,0:0|0:0|0:0,0:0:0:0:
353,283,180327,2,0,P|352:254|359:235,3,37.5000014305115,8|0|0|0,0:0|0:0|0:0|0:0,0:0:0:0:
303,190,180690,5,4,0:2:0:0:
286,200,180780,1,0,0:0:0:0:
266,204,180871,1,0,0:0:0:0:
245,204,180962,1,0,0:0:0:0:
225,199,181053,1,8,0:0:0:0:
198,185,181144,1,0,0:0:0:0:
168,177,181235,1,2,0:2:0:0:
138,175,181326,1,0,0:0:0:0:
108,180,181417,1,0,0:0:0:0:
81,193,181508,1,0,0:0:0:0:
60,214,181599,1,2,0:2:0:0:
45,240,181690,1,2,0:2:0:0:
43,269,181780,5,8,0:0:0:0:
81,258,181871,1,0,0:0:0:0:
105,226,181962,1,2,0:2:0:0:
118,188,182053,1,0,0:0:0:0:
114,148,182144,1,8,0:0:0:0:
115,107,182235,1,0,0:2:0:0:
130,70,182326,1,2,0:2:0:0:
161,44,182417,1,2,0:2:0:0:
200,41,182508,2,0,P|223:42|237:48,4,33.3333333333333,8|0|0|0|0,0:0|0:0|0:0|0:0|0:0,0:0:0:0:
23,69,182871,6,0,B|0:102|15:147|15:147|8:152|8:152|66:200|40:276,1,220.000006713867,4|8,0:0|0:0,0:0:0:0:
130,370,183408,2,0,B|170:373|201:337|201:337|209:341|209:341|223:264|300:251,1,220.000006713867,2|0,0:0|0:0,0:0:0:0:
337,126,183946,2,0,B|319:89|273:80|273:80|272:71|272:71|197:98|149:37,1,220.000006713867,8|2,0:0|0:0,0:0:0:0:
23,69,184483,5,2,0:2:0:0:
15,87,184573,1,0,0:0:0:0:
13,108,184663,2,0,B|21:147|14:173|14:173|24:199|18:224,1,110.000003356934,8|0,0:0|0:0,0:0:0:0:
100,332,185021,1,2,0:2:0:0:
141,346,185111,1,0,0:0:0:0:
184,341,185200,1,2,0:2:0:0:
220,316,185290,1,0,0:0:0:0:
241,278,185379,1,8,0:0:0:0:
273,248,185469,1,0,0:0:0:0:
316,241,185559,1,0,0:0:0:0:
359,248,185648,1,0,0:0:0:0:
393,277,185738,6,0,P|403:305|398:329,3,36.6666677856446,4|0|0|0,0:2|0:0|0:0|0:0,0:0:0:0:
319,328,186007,1,2,0:2:0:0:
309,343,186096,2,0,P|299:371|304:395,3,36.6666677856446,8|0|0|0,0:0|0:0|0:0|0:0,0:0:0:0:
220,316,186365,1,0,0:0:0:0:
237,292,186455,1,2,0:0:0:0:
244,255,186544,1,0,0:0:0:0:
233,211,186634,1,2,0:2:0:0:
202,179,186724,1,0,0:0:0:0:
159,170,186813,6,0,B|98:166|76:109|76:109|79:101|79:101|66:43|117:10,1,220.000006713867,8|2,0:0|0:0,0:0:0:0:
214,73,187351,1,2,0:2:0:0:
241,84,187440,1,0,0:0:0:0:
277,80,187530,1,8,0:0:0:0:
316,59,187620,1,0,0:0:0:0:
359,57,187709,1,2,0:2:0:0:
401,70,187799,1,0,0:0:0:0:
429,103,187888,1,2,0:2:0:0:
436,146,187978,1,0,0:0:0:0:
420,187,188068,5,2,0:0:0:0:
383,158,188157,1,0,0:0:0:0:
374,111,188247,1,8,0:0:0:0:
387,66,188336,1,0,0:0:0:0:
423,36,188426,1,2,0:2:0:0:
469,30,188516,1,0,0:0:0:0:
512,48,188605,6,0,B|509:90|509:90|497:115|497:115|495:162,1,110.000003356934,4|0,0:0|0:0,0:0:0:0:
479,230,188874,1,2,0:0:0:0:
491,243,188964,2,0,P|499:275|493:298,2,55.0000016784668,8|0|0,0:0|0:0|0:0,0:0:0:0:
368,258,189233,2,0,P|400:255|422:265,2,55.0000016784668,2|0|0,0:0|0:0|0:0,0:0:0:0:
361,381,189501,2,0,P|364:348|377:328,2,55.0000016784668,2|0|8,0:0|0:0|0:0,0:0:0:0:
288,335,189770,1,0,0:0:0:0:
261,315,189860,1,2,0:2:0:0:
224,313,189949,1,0,0:0:0:0:
187,322,190039,5,2,0:2:0:0:
209,280,190129,1,0,0:0:0:0:
209,233,190218,1,0,0:0:0:0:
188,190,190308,1,0,0:0:0:0:
147,167,190397,2,0,P|127:164|110:169,3,36.6666677856446,8|0|0|0,0:0|0:0|0:0|0:0,0:0:0:0:
46,204,190666,1,0,0:0:0:0:
36,214,190756,2,0,P|26:232|26:249,3,36.6666677856446,2|0|0|0,0:0|0:0|0:0|0:0,0:0:0:0:
36,321,191025,1,0,0:0:0:0:
40,333,191114,2,2,P|59:355|86:364,1,55.0000016784668
158,351,191293,5,0,0:0:0:0:
199,336,191383,1,0,0:0:0:0:
243,348,191473,1,4,0:2:0:0:
430,204,191652,1,0,0:0:0:0:
386,200,191742,1,0,0:0:0:0:
347,223,191832,1,8,0:0:0:0:
105,151,192010,1,0,0:0:0:0:
148,158,192100,1,0,0:0:0:0:
180,190,192190,1,4,0:2:0:0:
434,27,192369,1,0,0:0:0:0:
390,34,192459,1,0,0:0:0:0:
358,66,192549,1,12,0:0:0:0:
156,62,192727,2,0,P|128:52|97:59,1,55.0000016784668,2|0,0:2|0:0,0:0:0:0:
210,117,192907,1,2,0:0:0:0:
38,172,193086,1,2,0:0:0:0:
210,117,193265,2,0,P|230:75|216:15,1,110.000003356934,8|0,0:0|0:0,0:0:0:0:
38,172,193623,2,0,B|25:207|25:207|31:284,1,110.000003356934,8|0,0:0|0:0,0:0:0:0:
196,368,193982,2,0,L|306:359,1,110.000003356934,12|0,0:0|0:0,0:0:0:0:
477,174,194340,6,0,L|306:157,1,165.000005035401,4|0,0:0|0:0,0:0:0:0:
240,119,194698,1,8,0:0:0:0:
227,100,194788,1,0,0:0:0:0:
225,77,194878,1,2,0:2:0:0:
234,49,194967,1,0,0:0:0:0:
254,30,195057,2,0,P|273:24|294:26,3,36.6666677856446,2|0|0|0,2:1|2:0|2:0|2:0,0:0:0:0:
347,81,195326,1,0,0:2:0:0:
362,94,195415,2,0,P|381:100|402:98,3,36.6666677856446,8|0|0|2,2:1|2:0|2:0|2:2,0:0:0:0:
459,33,195684,1,0,0:0:0:0:
474,20,195774,6,0,P|493:14|514:16,5,36.6666677856446,2|0|0|2|0|0,2:1|2:0|2:0|2:2|2:0|2:0,2:0:0:0:
459,33,196132,2,0,P|440:27|418:29,5,39.9999987792969,8|0|0|0|0|0,2:1|2:0|2:0|2:0|2:0|2:0,2:0:0:0:
463,61,196491,2,0,P|482:55|506:57,5,43.3333313496908,2|0|0|2|0|0,2:1|2:0|2:0|2:2|2:0|2:0,2:0:0:0:
440,78,196849,2,0,P|421:72|393:75,5,46.6666652425131,8|0|0|2|0|0,2:1|2:0|2:0|2:2|2:0|2:0,2:0:0:0:
457,99,197207,6,0,B|466:128|455:153|455:153|445:179|452:211,1,110.000003356934,4|0,0:0|0:0,0:0:0:0:
477,282,197476,1,0,0:0:0:0:
470,306,197566,1,8,0:0:0:0:
464,326,197655,1,0,0:0:0:0:
457,350,197745,2,0,P|443:361|422:365,3,36.6666677856446,2|0|0|2,2:0|2:0|2:0|2:0,0:0:0:0:
342,365,198014,1,0,0:0:0:0:
323,361,198103,2,0,P|308:351|297:332,3,36.6666677856446,2|0|0|8,2:1|2:0|2:0|2:1,0:0:0:0:
290,261,198372,1,0,0:0:0:0:
307,232,198462,1,2,0:0:0:0:
305,198,198552,1,2,0:0:0:0:
291,168,198641,2,0,P|280:134|284:106,3,55.0000016784668,4|0|2|0,0:2|0:0|0:2|0:0,0:0:0:0:
251,46,199000,5,8,0:0:0:0:
217,64,199089,1,0,0:0:0:0:
178,64,199179,1,2,0:2:0:0:
141,51,199268,1,0,0:0:0:0:
120,18,199358,1,4,0:2:0:0:
162,28,199448,1,0,0:0:0:0:
187,63,199537,1,2,0:2:0:0:
191,106,199627,1,0,0:0:0:0:
172,145,199716,1,8,0:0:0:0:
135,170,199806,1,0,0:0:0:0:
90,173,199896,1,2,0:2:0:0:
48,158,199985,1,0,0:0:0:0:
27,125,200075,5,4,0:0:0:0:
74,112,200164,1,0,0:0:0:0:
122,122,200254,1,2,0:0:0:0:
157,156,200344,1,0,0:0:0:0:
171,202,200433,1,8,0:0:0:0:
172,251,200523,1,0,0:0:0:0:
150,295,200612,1,2,0:0:0:0:
107,320,200702,1,0,0:0:0:0:
58,329,200792,1,4,0:2:0:0:
72,281,200881,1,0,0:0:0:0:
107,246,200971,1,2,0:0:0:0:
155,236,201060,1,0,0:0:0:0:
204,238,201150,1,8,0:0:0:0:
248,260,201240,1,0,0:0:0:0:
273,301,201329,1,2,0:0:0:0:
283,349,201419,6,0,P|319:381|398:364,1,110.000003356934,4|0,0:2|0:0,0:0:0:0:
441,333,201688,1,2,0:0:0:0:
468,292,201777,1,0,0:0:0:0:
472,242,201867,1,8,0:0:0:0:
453,195,201957,1,0,0:0:0:0:
409,171,202046,1,2,0:0:0:0:
359,169,202136,1,0,0:0:0:0:
315,146,202225,1,4,0:2:0:0:
292,101,202315,1,0,0:0:0:0:
298,51,202405,1,2,0:0:0:0:
341,73,202494,1,0,0:0:0:0:
358,119,202584,1,8,0:0:0:0:
359,169,202673,1,0,0:0:0:0:
334,212,202763,1,2,0:0:0:0:
326,260,202853,1,0,0:0:0:0:
338,302,202942,6,0,P|340:332|331:355,3,50,4|0|2|0,0:0|0:0|0:2|0:0,0:0:0:0:
221,341,203300,2,0,P|218:308|228:283,3,59.9999981689454,8|0|2|0,0:0|0:0|0:2|0:0,0:0:0:0:
181,192,203658,2,0,P|187:157|171:122,3,69.9999978637696,8|0|2|0,0:0|0:0|0:2|0:0,0:0:0:0:
48,137,204016,2,0,P|40:175|58:212,3,80,4|0|2|0,0:0|0:0|0:2|0:0,0:0:0:0:
130,281,204374,5,4,0:2:0:0:
139,299,204464,1,0,0:0:0:0:
140,320,204555,1,8,0:0:0:0:
133,342,204646,1,0,0:0:0:0:
115,361,204737,1,8,0:0:0:0:
86,335,204828,1,0,0:0:0:0:
87,289,204919,1,2,0:0:0:0:
111,251,205010,1,0,0:0:0:0:
155,243,205101,1,8,0:2:0:0:
48,137,205283,1,8,0:2:0:0:
191,97,205464,5,2,0:2:0:0:
228,110,205557,1,2,0:2:0:0:
273,109,205651,1,2,0:2:0:0:
317,86,205745,1,2,0:2:0:0:
339,30,205839,6,0,P|376:13|463:100,1,179.999994506836,4|0,3:2|0:2,0:2:0:0:
474,105,206467,1,0,0:2:0:0:
472,116,206557,1,2,0:2:0:0:
472,116,207815,5,0,0:2:0:0:
466,129,207904,1,0,0:2:0:0:
465,141,207994,1,2,0:2:0:0:
487,220,208264,1,0,0:2:0:0:
407,199,208533,1,0,0:2:0:0:
337,47,208713,5,2,0:2:0:0:
315,126,208982,1,0,0:2:0:0:
395,105,209252,1,0,0:2:0:0:
280,275,209431,5,2,0:2:0:0:
258,196,209701,1,0,0:2:0:0:
338,217,209970,1,0,0:2:0:0:
198,258,210150,5,2,0:2:0:0:
198,258,211228,1,0,0:2:0:0:
128,212,211587,5,2,0:2:0:0:
125,295,212126,1,0,0:2:0:0:
125,308,212216,1,0,0:2:0:0:
121,320,212306,1,2,0:2:0:0:
41,312,213563,5,0,0:2:0:0:
41,299,213653,1,0,0:2:0:0:
45,287,213743,1,2,0:2:0:0:
102,229,214012,1,0,0:2:0:0:
24,209,214282,1,0,0:2:0:0:
162,172,214461,5,2,0:2:0:0:
162,172,215539,1,0,0:2:0:0:
238,184,215898,1,2,0:2:0:0:
238,184,217156,5,0,0:2:0:0:
245,171,217246,1,0,0:2:0:0:
246,153,217336,1,2,0:2:0:0:
168,141,217874,1,0,0:2:0:0:
162,154,217964,1,0,0:2:0:0:
162,172,218054,1,2,0:2:0:0:
238,184,219312,5,0,0:2:0:0:
245,171,219401,1,0,0:2:0:0:
246,153,219491,1,2,0:2:0:0:
217,78,219761,1,0,0:2:0:0:
296,90,220030,1,0,0:2:0:0:
377,229,220210,5,2,0:2:0:0:
406,154,220479,1,0,0:2:0:0:
327,166,220749,1,0,0:2:0:0:
234,313,220928,5,2,0:2:0:0:
205,238,221198,1,0,0:2:0:0:
284,250,221467,1,0,0:2:0:0:
155,303,221647,5,2,0:2:0:0:
155,303,222725,1,0,0:2:0:0:
95,243,223084,5,2,0:2:0:0:
177,222,223353,1,0,0:2:0:0:
155,303,223623,1,0,0:2:0:0:
89,224,223803,5,2,0:2:0:0:
198,225,224072,1,0,0:2:0:0:
143,319,224341,1,0,0:2:0:0:
89,201,224521,5,2,0:2:0:0:
217,236,224791,1,0,0:2:0:0:
123,330,225060,1,0,0:2:0:0:
93,168,225240,5,2,0:2:0:0:
243,256,225509,1,0,0:2:0:0:
92,342,225779,1,0,0:2:0:0:
112,135,225958,5,2,0:2:0:0:
262,288,226677,5,2,0:2:0:0:
55,343,227395,5,4,0:2:0:0:
50,325,227755,1,4,0:2:0:0:
131,336,228114,2,0,L|251:355,1,119.999996337891,4|2,0:2|0:0,0:0:0:0:
323,345,228563,1,0,0:0:0:0:
346,351,228653,1,2,0:0:0:0:
372,347,228743,1,0,0:0:0:0:
397,331,228833,6,0,B|422:279|392:237|392:237|397:228|397:228|385:166|326:157,1,200,4|8,0:0|0:0,0:0:0:0:
334,71,229371,1,2,0:2:0:0:
343,75,229461,1,0,0:0:0:0:
353,76,229551,2,0,P|412:69|466:18,1,100,2|0,0:0|0:0,0:0:0:0:
299,3,229910,2,0,P|262:42|289:133,1,150,8|0,0:0|0:0,0:0:0:0:
344,169,230270,6,0,B|360:191|368:216|368:216|371:303|340:365,1,200,4|8,0:2|0:0,0:0:0:0:
152,356,230809,1,2,0:2:0:0:
141,340,230898,1,0,0:0:0:0:
140,315,230988,2,0,P|177:270|262:286,2,150,2|0|2,0:0|0:0|0:0,0:0:0:0:
25,227,231707,5,4,0:0:0:0:
210,337,231976,1,8,0:2:0:0:
279,156,232246,1,8,0:2:0:0:
48,142,232425,5,4,0:2:0:0:
112,349,232695,1,8,0:2:0:0:
317,235,232964,1,8,0:2:0:0:
122,107,233144,6,0,B|74:101|47:142|47:142|26:205|80:244,1,200,4|8,0:2|0:0,0:0:0:0:
141,277,233593,1,0,0:0:0:0:
165,272,233683,1,2,0:2:0:0:
189,273,233773,1,0,0:0:0:0:
213,279,233862,1,2,0:0:0:0:
233,292,233952,1,0,0:0:0:0:
254,304,234042,1,2,0:2:0:0:
278,310,234132,1,0,0:0:0:0:
302,308,234222,1,8,0:0:0:0:
335,297,234312,1,8,0:0:0:0:
359,265,234401,1,8,0:0:0:0:
360,220,234491,1,8,0:0:0:0:
336,181,234581,6,0,P|340:109|453:96,1,200,4|8,0:0|0:0,0:0:0:0:
455,243,235120,1,2,0:2:0:0:
447,251,235210,1,0,0:0:0:0:
440,261,235300,2,0,B|424:294|425:318|425:318|432:342|442:354,1,100,2|0,0:0|0:0,0:0:0:0:
512,139,235659,2,0,B|525:111|522:81|522:81|507:29|465:13,1,150,8|0,0:0|0:0,0:0:0:0:
403,53,236018,6,0,B|359:88|309:62|309:62|265:38|206:66,1,200,4|8,0:2|0:0,0:0:0:0:
85,35,236557,1,0,0:0:0:0:
55,228,236737,2,0,B|92:218|110:194|110:194|127:143|111:107,2,150,2|0|2,0:0|0:0|0:0,0:0:0:0:
145,326,237455,6,0,P|197:315|248:362,1,119.999996337891,4|0,0:0|0:0,0:0:0:0:
341,335,237725,1,8,0:2:0:0:
355,322,237815,2,0,P|297:304|244:362,1,139.999995727539,8|0,0:0|0:0,0:0:0:0:
145,326,238084,1,8,0:0:0:0:
124,311,238174,2,0,P|186:291|244:354,1,160,8|8,0:2|0:0,0:0:0:0:
412,382,238533,2,0,B|450:346|444:288|410:257|410:257|415:247|415:247|399:212|410:160|441:137,1,269.999991760254,12|0,0:2|0:0,0:0:0:0:
504,109,238892,5,4,0:0:0:0:
481,137,238982,1,0,0:0:0:0:
446,147,239072,1,0,0:0:0:0:
409,145,239162,1,0,0:0:0:0:
377,127,239252,1,8,0:0:0:0:
354,99,239341,1,0,0:0:0:0:
325,77,239431,1,0,0:0:0:0:
289,70,239521,1,0,0:0:0:0:
253,75,239611,1,2,0:0:0:0:
271,116,239701,1,0,0:0:0:0:
312,134,239791,1,0,0:0:0:0:
356,139,239880,1,0,0:0:0:0:
399,125,239970,1,8,0:0:0:0:
434,96,240060,1,8,0:0:0:0:
451,54,240150,1,8,0:0:0:0:
446,9,240240,1,8,0:0:0:0:
417,30,240330,6,0,B|401:62|402:106|427:140|427:140|442:181|425:226,1,200,4|8,0:0|0:0,0:0:0:0:
303,353,240868,1,2,0:2:0:0:
296,347,240958,1,0,0:0:0:0:
291,338,241048,2,0,P|274:293|286:242,1,100,2|0,0:0|0:0,0:0:0:0:
339,120,241407,2,0,B|329:149|294:169|294:169|236:175|206:141,1,150,8|0,0:0|0:0,0:0:0:0:
161,93,241767,6,0,B|199:112|217:153|217:153|223:222|166:263,1,200,4|8,0:2|0:0,0:0:0:0:
53,150,242306,1,0,0:0:0:0:
57,27,242485,5,2,0:0:0:0:
161,93,242755,1,8,0:2:0:0:
53,150,243024,1,8,0:2:0:0:
93,10,243204,5,4,0:0:0:0:
157,132,243473,1,8,0:2:0:0:
20,127,243743,1,8,0:2:0:0:
136,16,243922,5,2,0:0:0:0:
130,166,244192,1,8,0:2:0:0:
4,87,244461,1,8,0:2:0:0:
176,15,244641,6,0,B|217:19|231:55|231:55|236:102|202:130,1,150,4|0,0:2|0:0,0:0:0:0:
130,166,245000,1,8,0:0:0:0:
112,184,245090,1,0,0:0:0:0:
103,207,245180,1,2,0:2:0:0:
102,232,245270,1,0,0:0:0:0:
110,255,245359,1,2,0:0:0:0:
124,275,245449,1,0,0:0:0:0:
133,298,245539,1,0,0:0:0:0:
136,322,245629,1,0,0:0:0:0:
131,346,245719,1,8,0:0:0:0:
118,367,245809,1,8,0:0:0:0:
98,351,245898,2,0,P|92:321|99:298,1,50,8|8,0:0|0:0,0:0:0:0:
64,232,246078,6,0,B|72:202|106:188|106:188|147:180|194:202,2,150,4|0|2,0:0|0:0|0:0,0:0:0:0:
213,274,246797,2,0,B|265:267|291:202|251:148|251:148|231:126|231:95,1,200,4|8,0:0|0:0,0:0:0:0:
150,73,247336,1,0,0:0:0:0:
355,46,247515,6,0,P|309:6|227:25,2,150,4|0|2,0:0|0:0|0:0,0:0:0:0:
480,247,248234,2,0,P|434:287|352:268,2,150,4|0|2,0:0|0:0|0:0,0:0:0:0:
324,195,248952,6,0,B|277:213|261:270|290:315|290:315|300:338|290:378|290:378|261:317|214:309|214:309|217:304|217:304|169:285|123:312,1,400,4|8,0:0|0:2,0:0:0:0:
30,277,249844,1,0,0:0:0:0:
91,178,250023,2,0,P|137:170|185:191,1,100,8|0,0:0|0:0,0:0:0:0:
270,97,250380,5,8,0:2:0:0:
290,84,250469,1,0,0:0:0:0:
317,80,250559,1,8,0:2:0:0:
348,88,250649,1,0,0:0:0:0:
374,104,250739,1,8,0:2:0:0:
411,118,250829,1,0,0:0:0:0:
451,115,250918,1,8,0:2:0:0:
487,93,251008,1,0,0:0:0:0:
503,46,251098,5,8,0:2:0:0:
455,60,251188,1,8,0:2:0:0:
428,102,251278,1,8,0:2:0:0:
427,151,251368,1,8,0:2:0:0:
448,196,251457,1,8,0:2:0:0:
478,235,251547,1,8,0:2:0:0:
488,283,251637,1,8,0:2:0:0:
478,332,251727,1,8,0:2:0:0:
437,361,251817,6,0,B|383:382|339:350|339:350|342:344|342:344|276:334|268:271|268:271|294:230|335:233,1,300,4|2,0:0|0:0,0:0:0:0:
295,137,252533,2,0,P|252:110|198:120,1,100,2|8,0:0|0:2,0:0:0:0:
199,122,252802,1,8,0:2:0:0:
195,130,252891,1,8,0:2:0:0:
103,212,253070,1,8,0:2:0:0:
98,199,253160,1,8,0:2:0:0:
97,181,253249,6,0,B|86:132|122:95|122:95|153:70|156:24|140:-4|140:-4|104:25|95:61|112:115|157:139|195:129,1,400,12|2,0:2|0:0,0:0:0:0:
288,75,254145,1,8,0:2:0:0:
303,73,254234,1,8,0:2:0:0:
319,78,254324,1,8,0:2:0:0:
344,175,254503,1,8,0:2:0:0:
354,187,254593,1,8,0:2:0:0:
359,202,254682,1,8,0:2:0:0:
427,113,254861,5,4,0:2:0:0:
415,258,255040,2,0,P|370:282|318:269,1,100,8|0,0:0|0:0,0:0:0:0:
190,237,255399,1,2,0:2:0:0:
245,176,255578,1,8,0:2:0:0:
255,95,255757,1,8,0:0:0:0:
211,21,255936,1,8,0:2:0:0:
129,15,256115,5,12,0:2:0:0:
245,176,256294,1,2,0:0:0:0:
369,70,256473,2,0,P|393:63|428:77,3,50,8|0|2|0,0:0|0:0|0:0|0:0,0:0:0:0:
497,127,256831,2,0,P|511:147|508:185,3,50,8|0|2|0,0:0|0:0|0:0|0:0,0:0:0:0:
490,280,257190,2,0,P|474:299|438:309,3,50,8|0|2|0,0:0|0:0|0:0|0:0,0:0:0:0:
325,305,257548,5,4,0:0:0:0:
325,305,257667,2,0,B|292:293|292:293|256:300,1,66.6666666666667
162,333,257907,2,0,B|129:345|129:345|93:338,2,66.6666666666667,8|0|0,0:0|0:0|0:0,0:0:0:0:
182,232,258266,5,4,0:2:0:0:
182,232,258386,2,0,B|194:207|194:207|192:167,1,66.6666666666667
90,109,258625,2,0,B|55:112|55:112|25:133,2,66.6666666666667,8|0|0,0:0|0:0|0:0,0:0:0:0:
203,42,258985,5,4,0:0:0:0:
203,42,259104,2,0,L|280:38,1,66.6666666666667
410,82,259344,2,0,B|422:50|422:50|415:14,2,66.6666666666667,8|0|0,0:0|0:0|0:0,0:0:0:0:
384,201,259703,5,4,0:2:0:0:
384,201,259827,2,0,L|388:268,1,66.6666666666667
285,330,260073,2,0,B|252:336|252:336|212:326,2,66.6666666666667,8|0|0,0:0|0:0|0:0,0:0:0:0:
269,211,260443,6,0,B|253:188|255:167|255:167|284:124|288:65|277:27|277:27|292:35|302:56,1,220.000006713867,4|8,0:0|0:0,0:0:0:0:
437,140,260988,2,0,B|458:160|466:206|466:206|427:289|464:374|464:374|447:349|422:342,1,299.999990844727,4|8,0:2|0:2,0:0:0:0:
353,311,261488,2,0,B|329:301|305:305|305:305|279:315|266:337,1,100,8|8,0:0|0:0,0:0:0:0:
194,362,261752,1,8,0:0:0:0:
177,372,261851,6,0,B|129:379|95:358|95:358|65:316|10:295|10:295|54:279|114:306,1,275.000008392334,4|0,0:0|0:0,0:0:0:0:
153,250,262399,2,0,P|183:252|208:266,1,55.0000016784668,8|0,0:0|0:0,0:0:0:0:
285,244,262587,2,0,P|319:264|352:329,1,110.000003356934,4|8,0:0|0:0,0:0:0:0:
432,364,262853,1,8,0:0:0:0:
469,351,262942,1,8,0:0:0:0:
496,315,263030,1,8,0:0:0:0:
503,270,263119,1,8,0:0:0:0:
493,219,263208,1,8,0:0:0:0:
454,190,263297,6,0,B|406:161|414:109|414:109|409:95|409:95|421:20|489:6,1,239.999992675781,4|8,0:0|0:0,0:0:0:0:
309,129,263835,1,2,0:0:0:0:
285,158,263925,1,0,0:0:0:0:
249,170,264015,1,8,0:0:0:0:
210,167,264105,1,0,0:0:0:0:
178,146,264195,1,2,0:0:0:0:
158,114,264285,1,0,0:0:0:0:
153,76,264374,1,8,0:0:0:0:
135,42,264464,1,0,0:0:0:0:
99,27,264554,1,2,0:0:0:0:
60,29,264644,1,0,0:0:0:0:
27,50,264734,5,8,0:0:0:0:
58,77,264823,1,0,0:0:0:0:
99,81,264913,1,2,0:0:0:0:
137,64,265003,1,0,0:0:0:0:
177,50,265093,1,8,0:0:0:0:
219,54,265183,1,0,0:0:0:0:
257,71,265273,1,2,0:0:0:0:
286,100,265362,1,0,0:0:0:0:
300,140,265452,2,0,P|301:167|283:204,3,59.9999981689454,8|0|2|0,0:0|0:0|0:0|0:0,0:0:0:0:
223,272,265811,2,0,P|207:301|207:334,2,59.9999981689454,8|0|2,0:0|0:0|0:0,0:0:0:0:
385,108,266171,5,12,0:0:0:0:
413,93,266261,1,0,0:0:0:0:
446,99,266350,1,2,0:0:0:0:
470,117,266440,1,0,0:0:0:0:
481,149,266530,1,8,0:0:0:0:
476,181,266620,1,0,0:0:0:0:
454,207,266710,1,2,0:0:0:0:
437,234,266799,1,0,0:0:0:0:
430,267,266889,1,8,0:0:0:0:
436,298,266979,1,0,0:0:0:0:
458,322,267069,1,2,0:0:0:0:
482,295,267159,1,0,0:0:0:0:
476,258,267249,1,8,0:0:0:0:
455,230,267338,1,0,0:0:0:0:
419,220,267428,1,2,0:0:0:0:
382,229,267518,1,0,0:0:0:0:
358,257,267608,5,12,0:0:0:0:
394,248,267698,1,0,0:0:0:0:
419,220,267788,1,2,0:0:0:0:
426,183,267877,1,0,0:0:0:0:
415,147,267967,1,8,0:0:0:0:
405,110,268057,1,0,0:0:0:0:
409,73,268147,1,2,0:0:0:0:
430,41,268237,1,0,0:0:0:0:
465,30,268326,1,8,0:0:0:0:
463,67,268416,1,0,0:0:0:0:
441,98,268506,1,2,0:0:0:0:
405,110,268596,1,0,0:0:0:0:
367,104,268686,1,12,0:0:0:0:
336,83,268776,1,0,0:0:0:0:
305,55,268865,1,2,0:0:0:0:
259,46,268955,1,0,0:0:0:0:
212,63,269045,6,0,B|161:89|125:59|125:59|117:58|117:58|82:5|10:27|10:27|33:29|60:54,1,275.000008392334,4|0,0:0|0:0,0:0:0:0:
64,131,269580,1,2,0:0:0:0:
61,151,269670,1,0,0:0:0:0:
65,169,269759,2,0,B|79:206|109:222|109:222|165:231|193:193,2,165.000005035401,4|8|2,0:2|0:2|0:0,0:0:0:0:
56,384,270473,2,0,B|81:353|80:319|80:319|59:265|12:260,2,165.000005035401,4|8|2,0:2|0:2|0:0,0:0:0:0:
248,284,271187,2,0,B|208:277|179:295|179:295|143:339|162:383,2,165.000005035401,4|8|2,0:2|0:2|0:0,0:0:0:0:
387,336,271902,6,0,B|375:343|357:346|357:346|339:342|321:324,2,73.3333355712891,4|0|0,0:0|0:0|0:0,0:0:0:0:
451,289,272261,1,8,0:0:0:0:
474,255,272351,1,0,0:0:0:0:
475,210,272440,1,2,0:0:0:0:
452,166,272530,1,0,0:0:0:0:
402,151,272620,2,0,P|391:129|390:110,3,36.6666677856446,12|0|0|0,2:1|2:0|2:0|2:0,0:0:0:0:
398,41,272890,1,0,0:0:0:0:
404,27,272979,2,0,P|421:9|439:2,4,36.6666677856446,8|0|0|0|0,2:1|2:0|2:0|2:0|2:0,0:0:0:0:
322,75,273339,6,0,B|274:106|227:80|227:80|221:84|221:84|180:46|135:52|135:52|92:56|66:29,1,275.000008392334,4|0,0:0|0:0,0:0:0:0:
63,14,273878,5,8,0:2:0:0:
104,28,273967,1,0,0:0:0:0:
129,64,274057,1,8,0:2:0:0:
133,108,274147,1,0,0:0:0:0:
120,150,274237,1,8,0:2:0:0:
88,181,274327,1,0,0:2:0:0:
45,190,274416,5,8,0:2:0:0:
76,152,274506,1,8,0:2:0:0:
126,146,274596,1,8,0:2:0:0:
173,163,274686,1,8,0:2:0:0:
214,195,274776,6,0,B|233:208|262:209|262:209|308:189|310:142,1,119.999996337891,4|0,0:0|0:0,0:0:0:0:
353,73,275045,2,0,B|372:59|401:59|401:59|447:79|449:126,1,119.999996337891,2|0,0:0|0:0,0:0:0:0:
427,189,275315,1,2,0:2:0:0:
389,217,275404,1,0,0:0:0:0:
371,261,275494,1,2,0:2:0:0:
376,308,275584,1,0,0:0:0:0:
402,348,275674,1,2,0:2:0:0:
445,369,275764,1,0,0:0:0:0:
493,369,275854,5,10,0:2:0:0:
464,323,275943,1,0,0:0:0:0:
412,305,276033,1,2,0:2:0:0:
358,312,276123,1,0,0:0:0:0:
313,342,276213,6,0,P|268:354|212:310,1,119.999996337891,4|0,0:2|0:0,0:0:0:0:
148,231,276482,2,0,P|101:227|47:273,1,119.999996337891,2|0,0:0|0:0,0:0:0:0:
121,304,276752,1,2,0:2:0:0:
166,320,276842,1,0,0:0:0:0:
213,313,276931,1,2,0:2:0:0:
253,287,277021,1,0,0:0:0:0:
270,242,277111,1,2,0:2:0:0:
267,193,277201,1,0,0:0:0:0:
241,152,277291,5,10,0:2:0:0:
218,201,277381,1,0,0:0:0:0:
230,252,277470,1,2,0:2:0:0:
271,286,277560,1,0,0:0:0:0:
324,293,277650,6,0,B|355:280|381:287|381:287|408:295|441:282,1,119.999996337891,4|0,0:0|0:0,0:0:0:0:
508,217,277919,2,0,B|481:196|454:196|454:196|426:197|397:176,1,119.999996337891,2|0,0:0|0:0,0:0:0:0:
307,174,278189,1,2,0:2:0:0:
289,129,278279,1,0,0:0:0:0:
298,81,278369,1,2,0:2:0:0:
333,49,278458,1,0,0:0:0:0:
380,43,278548,1,2,0:2:0:0:
426,56,278638,1,0,0:0:0:0:
455,94,278728,5,10,0:2:0:0:
401,103,278818,1,0,0:0:0:0:
348,91,278907,1,2,0:2:0:0:
305,57,278997,1,0,0:0:0:0:
293,4,279087,6,0,B|315:1|315:1|354:17,2,59.9999981689454,4|0|2,0:0|0:0|0:2,0:0:0:0:
212,42,279357,1,0,0:0:0:0:
194,54,279446,2,0,B|169:59|169:59|135:41,2,59.9999981689454,4|0|2,0:0|0:0|0:2,0:0:0:0:
273,111,279716,1,0,0:0:0:0:
292,128,279806,2,0,B|321:159|308:204|308:204|316:215|316:215|295:264|312:303,1,179.999994506836,4|0,0:0|0:0,0:0:0:0:
364,359,280165,5,12,0:0:0:0:
325,321,280257,1,8,0:0:0:0:
271,310,280350,1,8,0:0:0:0:
218,318,280442,1,8,0:0:0:0:
175,351,280535,6,0,B|154:371|117:371|117:371|106:377|106:377|38:364|30:313,2,179.999994506836,4|8|2,0:0|0:2|0:0,0:0:0:0:
349,248,281249,2,0,B|370:268|407:268|407:268|418:274|418:274|486:261|494:210,2,179.999994506836,4|8|2,0:2|0:2|0:0,0:0:0:0:
177,163,281963,2,0,B|156:183|119:183|119:183|108:189|108:189|40:176|32:125,2,179.999994506836,4|8|2,0:2|0:2|0:0,0:0:0:0:
299,45,282677,2,0,B|339:6|397:22|397:22|404:16|404:16|468:29|483:102,1,239.999992675781,4|8,0:2|0:2,0:0:0:0:
458,304,283213,5,0,0:0:0:0:
412,326,283302,1,0,0:0:0:0:
363,318,283392,1,4,0:0:0:0:
243,144,283661,1,8,0:2:0:0:
453,127,283930,1,2,0:0:0:0:
326,339,284110,5,4,0:2:0:0:
242,101,284380,1,8,0:2:0:0:
489,147,284649,1,2,0:0:0:0:
326,339,284829,6,0,B|286:364|237:350|215:309|215:309|208:311|208:311|141:257|68:300|68:300|71:306|71:306|41:329|51:371|51:371,1,359.999989013672,4|8,0:0|0:2,0:0:0:0:
286,275,285547,1,8,0:2:0:0:
210,210,285727,1,8,0:2:0:0:
320,93,285906,1,8,0:0:0:0:
359,65,285996,1,8,0:0:0:0:
408,64,286086,1,8,0:0:0:0:
451,84,286176,1,8,0:0:0:0:
470,128,286266,6,0,B|485:154|483:188|483:188|473:217|445:235,1,119.999996337891,4|0,0:0|0:0,0:0:0:0:
386,312,286534,2,0,B|357:322|324:315|324:315|297:301|284:270,1,119.999996337891,2|0,0:0|0:0,0:0:0:0:
253,185,286803,1,2,0:2:0:0:
233,140,286893,1,0,0:0:0:0:
191,116,286982,1,2,0:2:0:0:
143,107,287072,1,0,0:0:0:0:
95,115,287162,1,2,0:2:0:0:
57,144,287251,1,0,0:0:0:0:
40,189,287341,5,10,0:2:0:0:
92,177,287430,1,0,0:0:0:0:
129,137,287520,1,2,0:2:0:0:
139,83,287610,1,0,0:0:0:0:
120,32,287699,6,0,B|99:17|72:18|72:18|34:29|21:65,1,119.999996337891,4|0,0:2|0:0,0:0:0:0:
91,176,287968,2,0,B|103:210|141:221|141:221|168:222|189:207,1,119.999996337891,2|0,0:0|0:0,0:0:0:0:
238,140,288237,1,2,0:2:0:0:
269,104,288326,1,0,0:0:0:0:
316,93,288416,1,2,0:2:0:0:
363,102,288506,1,0,0:0:0:0:
402,128,288595,1,2,0:2:0:0:
419,172,288685,1,0,0:0:0:0:
415,219,288774,5,10,0:2:0:0:
370,188,288864,1,0,0:0:0:0:
354,135,288954,1,2,0:2:0:0:
364,82,289043,1,0,0:0:0:0:
402,42,289133,6,0,P|442:30|505:68,1,119.999996337891,4|0,0:0|0:0,0:0:0:0:
481,259,289402,2,0,P|435:295|377:285,1,119.999996337891,2|0,0:0|0:0,0:0:0:0:
299,238,289671,1,2,0:2:0:0:
262,207,289760,1,0,0:0:0:0:
214,201,289850,1,2,0:2:0:0:
168,215,289939,1,0,0:0:0:0:
135,250,290029,1,2,0:2:0:0:
122,296,290119,1,0,0:0:0:0:
132,342,290208,5,10,0:2:0:0:
174,308,290298,1,0,0:0:0:0:
184,255,290387,1,2,0:2:0:0:
167,203,290477,1,0,0:0:0:0:
132,173,290567,6,0,P|120:145|124:114,2,59.9999981689454,4|0|2,0:0|0:0|0:2,0:0:0:0:
73,249,290834,1,0,0:0:0:0:
63,262,290924,2,0,P|51:290|55:321,2,59.9999981689454,4|0|2,0:0|0:0|0:2,0:0:0:0:
14,179,291192,1,0,0:0:0:0:
5,167,291281,2,0,B|-4:128|12:94|12:94|34:69|47:34|37:-4,1,179.999994506836,4|0,0:0|0:0,0:0:0:0:
56,26,291638,1,12,0:0:0:0:
71,57,291727,1,8,0:0:0:0:
105,75,291817,2,0,P|129:83|167:72,1,59.9999981689454,8|8,0:0|0:0,0:0:0:0:
230,37,291995,5,12,0:0:0:0:
262,74,292084,1,0,0:0:0:0:
268,123,292174,1,10,0:2:0:0:
253,171,292264,1,0,0:0:0:0:
222,211,292354,1,10,0:2:0:0:
195,253,292444,1,0,0:0:0:0:
190,302,292533,1,10,0:2:0:0:
209,348,292623,1,0,0:0:0:0:
251,374,292713,5,10,0:2:0:0:
204,355,292803,1,0,0:0:0:0:
173,314,292893,1,10,0:2:0:0:
172,263,292983,1,0,0:0:0:0:
186,215,293072,1,10,0:2:0:0:
216,175,293162,1,0,0:0:0:0:
245,134,293252,1,10,0:2:0:0:
262,87,293342,1,0,0:0:0:0:
250,38,293432,5,10,0:2:0:0:
220,77,293521,1,0,0:0:0:0:
219,127,293611,1,10,0:2:0:0:
242,171,293701,1,0,0:0:0:0:
288,190,293791,1,10,0:2:0:0:
337,194,293881,1,0,0:0:0:0:
381,216,293971,1,10,0:2:0:0:
410,255,294060,1,0,0:0:0:0:
417,304,294150,5,10,0:2:0:0:
426,254,294240,1,0,0:0:0:0:
402,209,294330,1,8,0:2:0:0:
360,180,294420,1,0,0:0:0:0:
311,170,294509,1,10,0:2:0:0:
262,156,294599,1,0,0:0:0:0:
236,113,294689,1,8,0:2:0:0:
239,62,294779,1,0,0:0:0:0:
274,26,294869,6,0,P|306:20|333:28,3,59.9999981689454,4|0|0|0,0:0|0:0|0:0|0:0,0:0:0:0:
433,69,295228,2,0,P|448:97|449:125,3,59.9999981689454,8|0|0|0,0:2|0:0|0:0|0:0,0:0:0:0:
441,233,295587,2,0,P|418:256|392:266,3,59.9999981689454,8|0|0|0,0:2|0:0|0:0|0:0,0:0:0:0:
287,291,295947,2,0,P|257:277|240:254,3,59.9999981689454,8|0|0|0,0:2|0:0|0:0|0:0,0:0:0:0:
184,162,296306,6,0,P|188:129|204:105,2,59.9999981689454,12|0|0,0:2|0:0|0:0,0:0:0:0:
287,291,296575,2,0,P|257:277|240:254,2,59.9999981689454,12|0|0,0:2|0:0|0:0,0:0:0:0:
441,233,296845,2,0,P|418:256|392:266,2,59.9999981689454,12|0|0,0:2|0:0|0:0,0:0:0:0:
433,69,297114,2,0,P|448:97|449:125,2,59.9999981689454,12|0|0,0:2|0:0|0:0,0:0:0:0:
274,26,297384,5,12,0:2:0:0:
274,26,297474,2,0,P|306:20|333:28,1,59.9999981689454,0|0,0:2|0:0,0:0:0:0:
184,162,297653,1,12,0:2:0:0:
184,162,297743,2,0,P|188:129|204:105,1,59.9999981689454,0|0,0:2|0:0,0:0:0:0:
287,291,297923,1,12,0:2:0:0:
287,291,298012,2,0,P|257:277|240:254,1,59.9999981689454,0|0,0:2|0:0,0:0:0:0:
441,233,298192,1,12,0:2:0:0:
441,233,298282,2,0,P|418:256|392:266,1,59.9999981689454,0|0,0:2|0:0,0:0:0:0:
433,69,298462,5,12,0:2:0:0:
433,69,298551,2,0,P|448:97|449:125,1,59.9999981689454,12|0,0:2|0:0,0:0:0:0:
274,26,298731,1,12,0:2:0:0:
274,26,298821,2,0,P|306:20|333:28,1,59.9999981689454,0|4,0:2|0:2,0:0:0:0:
184,162,299000,2,0,P|188:129|204:105,1,59.9999981689454,12|0,0:2|0:0,0:0:0:0:
318,145,299181,6,0,B|341:165|349:204|349:204|338:276|281:292,1,179.999994506836,4|0,0:0|0:0,0:0:0:0:
219,333,299532,2,0,P|172:336|120:286,1,119.999996337891,8|0,0:0|0:0,0:0:0:0:
23,206,299884,1,0,0:0:0:0:
199,88,300060,1,2,0:0:0:0:
199,88,300148,1,0,0:0:0:0:
199,88,300236,2,0,P|152:54|88:72,1,119.999996337891,8|0,0:0|0:0,0:0:0:0:
23,206,300588,1,2,0:0:0:0:
271,162,300764,1,0,0:0:0:0:
275,146,300852,1,0,0:0:0:0:
279,132,300940,2,0,B|291:85|291:85|288:58|288:58|300:16,1,119.999996337891,8|0,0:0|0:0,0:0:0:0:
340,215,301292,5,2,0:0:0:0:
306,241,301380,1,0,0:0:0:0:
264,245,301468,1,0,0:0:0:0:
223,235,301556,1,0,0:0:0:0:
188,212,301644,1,8,0:0:0:0:
147,201,301732,1,0,0:0:0:0:
105,206,301820,1,0,0:0:0:0:
68,228,301908,1,0,0:0:0:0:
53,268,301996,6,0,B|42:297|42:297|62:387,1,119.999996337891,4|0,0:0|0:0,0:0:0:0:
274,372,302348,2,0,L|395:357,1,119.999996337891,8|0,0:0|0:0,0:0:0:0:
199,304,302700,1,2,0:0:0:0:
433,243,302876,1,0,0:0:0:0:
433,243,302963,1,0,0:0:0:0:
433,243,303051,2,0,P|445:186|407:143,1,119.999996337891,8|0,0:0|0:0,0:0:0:0:
199,304,303403,1,2,0:0:0:0:
62,189,303579,1,0,0:0:0:0:
62,189,303667,1,0,0:0:0:0:
62,189,303755,2,0,P|50:131|88:88,1,119.999996337891,8|0,0:0|0:0,0:0:0:0:
199,304,304107,5,2,0:0:0:0:
237,328,304195,1,0,0:0:0:0:
283,328,304283,1,0,0:0:0:0:
323,304,304371,1,0,0:0:0:0:
345,263,304459,1,8,0:0:0:0:
341,217,304547,1,8,0:0:0:0:
323,174,304635,1,8,0:0:0:0:
327,127,304723,1,8,0:0:0:0:
363,99,304811,6,0,P|418:88|468:141,1,119.999996337891,4|0,0:0|0:0,0:0:0:0:
250,34,305163,2,0,B|210:15|210:15|133:29,1,119.999996337891,8|0,0:0|0:0,0:0:0:0:
43,315,305515,1,2,0:0:0:0:
150,232,305691,1,0,0:0:0:0:
150,232,305779,1,0,0:0:0:0:
150,232,305867,2,0,B|164:201|164:201|150:110,1,119.999996337891,8|0,0:0|0:0,0:0:0:0:
362,136,306219,1,2,0:0:0:0:
271,245,306395,1,0,0:0:0:0:
271,245,306483,1,0,0:0:0:0:
271,245,306571,2,0,B|257:276|257:276|270:361,1,119.999996337891,8|0,0:0|0:0,0:0:0:0:
430,139,306922,5,2,0:0:0:0:
415,100,307010,1,0,0:0:0:0:
380,76,307098,1,0,0:0:0:0:
338,70,307186,1,0,0:0:0:0:
297,82,307274,1,8,0:0:0:0:
256,94,307362,1,0,0:0:0:0:
214,90,307450,1,0,0:0:0:0:
178,68,307538,1,0,0:0:0:0:
170,26,307626,6,0,P|135:0|60:24,1,119.999996337891,4|0,0:0|0:0,0:0:0:0:
114,331,307978,2,0,P|154:342|215:292,1,119.999996337891,8|0,0:0|0:0,0:0:0:0:
398,288,308330,1,2,0:0:0:0:
291,169,308506,1,0,0:0:0:0:
291,169,308594,1,0,0:0:0:0:
291,169,308682,2,0,B|277:135|277:135|299:54,1,119.999996337891,8|0,0:0|0:0,0:0:0:0:
330,34,308946,1,0,0:0:0:0:
362,19,309034,1,4,0:0:0:0:
394,4,309122,1,0,0:0:0:0:
428,14,309210,1,0,0:0:0:0:
461,26,309298,1,0,0:0:0:0:
494,39,309386,2,0,B|514:85|514:85|492:151,1,119.999996337891,8|0,0:0|0:0,0:0:0:0:
351,337,309738,5,2,0:0:0:0:
315,358,309826,1,0,0:0:0:0:
272,358,309914,1,0,0:0:0:0:
235,337,310002,1,0,0:0:0:0:
215,299,310090,1,8,0:2:0:0:
191,264,310178,1,8,0:2:0:0:
150,252,310266,1,8,0:2:0:0:
109,258,310354,1,8,0:2:0:0:
76,287,310441,6,0,B|65:309|65:309|70:338,1,50,8|8,0:2|0:2,0:0:0:0:
294,280,310711,2,0,B|318:242|318:242|306:127,1,150,8|8,0:2|0:2,0:0:0:0:
343,72,311071,1,8,0:2:0:0:
198,8,311251,2,0,L|47:20,1,150,8|8,0:2|0:3,0:0:0:0:
14,91,311612,1,8,0:3:0:0:
5,129,311702,1,8,0:3:0:0:
12,168,311792,1,8,0:3:0:0:
37,198,311882,6,0,P|59:211|88:210,1,50,8|8,0:2|0:2,0:0:0:0:
238,150,312152,2,0,P|282:136|352:209,1,150,8|8,0:2|0:2,0:0:0:0:
341,275,312513,1,8,0:2:0:0:
183,202,312693,2,0,P|162:146|215:78,1,150,8|8,0:2|0:3,0:0:0:0:
273,31,313053,1,8,0:3:0:0:
312,29,313143,1,8,0:3:0:0:
351,27,313233,1,8,0:3:0:0:
390,25,313323,6,0,B|402:47|402:47|397:80,1,50,12|8,0:2|0:2,0:0:0:0:
192,351,313594,2,0,L|182:200,1,150,8|8,0:2|0:2,0:0:0:0:
238,150,313954,1,8,0:2:0:0:
405,181,314134,2,0,P|352:230|265:199,1,150,8|8,0:2|0:3,0:0:0:0:
238,150,314495,1,8,0:3:0:0:
201,115,314585,1,8,0:3:0:0:
151,108,314675,1,8,0:3:0:0:
102,120,314765,6,0,B|85:148|85:148|90:177,1,59.9999981689454,12|8,0:2|0:2,0:0:0:0:
185,365,315035,2,0,L|365:356,1,179.999994506836,8|8,0:2|0:2,0:0:0:0:
427,318,315395,1,8,0:2:0:0:
263,180,315576,2,0,P|237:118|308:46,1,179.999994506836,8|8,0:2|0:2,0:0:0:0:
382,59,315936,1,8,0:2:0:0:
135,10,316116,5,14,0:2:0:0:
