osu file format v14

[General]
AudioFilename: audio.mp3
AudioLeadIn: 0
PreviewTime: -1
Countdown: 1
SampleSet: None
StackLeniency: 0.7
Mode: 0
LetterboxInBreaks: 0
WidescreenStoryboard: 0

[Editor]
DistanceSpacing: 0.9
BeatDivisor: 8
GridSize: 4
TimelineZoom: 3.099999

[Metadata]
Title:Break through
TitleUnicode:Break through
Artist:Nasko
ArtistUnicode:Nasko
Creator:ZinedineZidane
Version:Infiltration
Source:
Tags:
BeatmapID:1396941
BeatmapSetID:659631

[Difficulty]
HPDrainRate:6
CircleSize:4
OverallDifficulty:9.5
ApproachRate:10
SliderMultiplier:1.4
SliderTickRate:1

[Events]
//Background and Video events
0,0,"bgg.jpg",0,0
//Break Periods
2,10056,13647
2,44100,45474
2,79447,82580
//Storyboard Layer 0 (Background)
//Storyboard Layer 1 (Fail)
//Storyboard Layer 2 (Pass)
//Storyboard Layer 3 (Foreground)
//Storyboard Sound Samples

[TimingPoints]
74,521.739130434783,4,2,1,20,1,0
74,-200,4,2,1,30,0,0
1083,-100,4,2,1,30,0,0
1996,-200,4,2,1,30,0,0
3170,-100,4,2,1,30,0,0
4083,-200,4,2,1,30,0,0
5518,-100,4,2,1,30,0,0
6170,-200,4,2,1,30,0,0
7213,-100,4,2,1,30,0,0
7474,-100,4,2,1,40,0,0
7605,-100,4,2,1,50,0,0
7735,-100,4,2,1,60,0,0
7866,-100,4,3,1,70,0,0
7996,-100,4,2,1,80,0,0
8126,-100,4,2,1,90,0,0
8257,-100,4,2,1,100,0,0
8386,-100,4,2,1,40,0,0
8908,-100,4,2,1,30,0,0
9430,-100,4,2,1,20,0,0
13866,-200,4,2,1,30,0,0
28605,-200,4,2,1,30,0,0
29648,-200,4,2,1,60,0,0
30822,-200,4,2,1,35,0,0
31735,-200,4,2,1,60,0,0
32909,-200,4,2,1,40,0,0
33822,-200,4,2,1,60,0,0
34083,-100,4,2,1,60,0,0
34996,-100,4,2,1,45,0,0
35126,-200,4,2,1,60,0,0
37083,-66.6666666666667,4,2,1,60,0,0
41648,-66.6666666666667,4,2,1,60,0,0
42856,-66.6666666666667,4,2,1,58,0,0
42921,-66.6666666666667,4,2,1,56,0,0
42987,-66.6666666666667,4,2,1,54,0,0
43052,-66.6666666666667,4,2,1,52,0,0
43117,-66.6666666666667,4,2,1,50,0,0
43182,-66.6666666666667,4,2,1,48,0,0
43247,-66.6666666666667,4,2,1,46,0,0
43313,-66.6666666666667,4,2,1,44,0,0
43378,-66.6666666666667,4,2,1,42,0,0
43443,-66.6666666666667,4,2,1,40,0,0
43508,-66.6666666666667,4,2,1,38,0,0
43574,-66.6666666666667,4,2,1,36,0,0
43639,-66.6666666666667,4,2,1,34,0,0
43704,-66.6666666666667,4,2,1,32,0,0
43769,-66.6666666666667,4,2,1,30,0,0
43834,-66.6666666666667,4,2,1,28,0,0
43900,-66.6666666666667,4,2,1,26,0,0
45822,-133.333333333333,4,3,1,100,0,1
53126,-66.6666666666667,4,3,1,100,0,0
53387,-100,4,3,1,100,0,0
53648,-133.333333333333,4,3,1,100,0,0
53909,-200,4,3,1,100,0,0
54170,-133.333333333333,4,3,1,100,0,1
54692,-66.6666666666667,4,3,1,100,0,1
56257,-133.333333333333,4,3,1,100,0,1
56844,-66.6666666666667,4,3,1,100,0,1
58344,-133.333333333333,4,3,1,100,0,1
58866,-66.6666666666667,4,3,1,100,0,1
60431,-133.333333333333,4,3,1,100,0,1
61213,-66.6666666666667,4,3,1,100,0,1
62518,-133.333333333333,4,3,1,100,0,0
63040,-50,4,3,1,100,0,0
63367,-50,4,3,1,5,0,0
63465,-50,4,3,1,100,0,0
63497,-50,4,3,1,5,0,0
63595,-50,4,3,1,100,0,0
63628,-50,4,3,1,5,0,0
63726,-50,4,3,1,100,0,0
63758,-50,4,3,1,5,0,0
63987,-50,4,3,1,100,0,0
64019,-50,4,3,1,5,0,0
64117,-50,4,3,1,100,0,0
64150,-50,4,3,1,5,0,0
64247,-50,4,3,1,100,0,0
64280,-50,4,3,1,5,0,0
64378,-50,4,3,1,100,0,0
64409,-33.3333333333333,4,3,1,5,0,0
64508,-33.3333333333333,4,3,1,100,0,0
64605,-133.333333333333,4,3,1,5,0,0
64769,-133.333333333333,4,3,1,100,0,0
65126,-50,4,3,1,100,0,0
65421,-50,4,3,1,5,0,0
65552,-50,4,3,1,100,0,0
65682,-50,4,3,1,5,0,0
65813,-50,4,3,1,100,0,0
65943,-50,4,3,1,5,0,0
66074,-50,4,3,1,100,0,0
66204,-50,4,3,1,5,0,0
66334,-50,4,3,1,100,0,0
66757,-133.333333333333,4,3,1,100,0,0
67409,-50,4,3,1,100,0,0
67541,-50,4,3,1,5,0,0
67639,-50,4,3,1,100,0,0
67671,-50,4,3,1,5,0,0
67769,-50,4,3,1,100,0,0
67802,-50,4,3,1,5,0,0
67900,-50,4,3,1,100,0,0
68063,-50,4,3,1,5,0,0
68160,-50,4,3,1,100,0,0
68193,-50,4,3,1,5,0,0
68291,-50,4,3,1,100,0,0
68324,-50,4,3,1,5,0,0
68421,-50,4,3,1,100,0,0
68584,-50,4,3,1,5,0,0
68682,-50,4,3,1,100,0,0
68715,-50,4,3,1,5,0,0
68813,-50,4,3,1,100,0,0
68844,-133.333333333333,4,3,1,5,0,0
68943,-133.333333333333,4,3,1,100,0,0
69887,-66.6666666666667,4,3,1,100,0,0
70953,-133.333333333333,4,3,1,100,0,0
71518,-50,4,3,1,100,0,0
71715,-50,4,3,1,5,0,0
71813,-50,4,3,1,100,0,0
71976,-50,4,3,1,5,0,0
72074,-50,4,3,1,100,0,0
72400,-50,4,3,1,5,0,0
72595,-50,4,3,1,100,0,0
72953,-133.333333333333,4,3,1,5,0,0
73117,-133.333333333333,4,3,1,100,0,0
73474,-50,4,3,1,100,0,0
73769,-50,4,3,1,5,0,0
73900,-50,4,3,1,100,0,0
74030,-50,4,3,1,5,0,0
74160,-50,4,3,1,100,0,0
74258,-50,4,3,1,5,0,0
74421,-50,4,3,1,100,0,0
74552,-50,4,3,1,5,0,0
74682,-50,4,3,1,100,0,0
75040,-133.333333333333,4,3,1,100,0,0
75626,-50,4,3,1,100,0,0
76410,-50,4,3,1,5,0,0
76508,-50,4,3,1,100,0,0
76541,-50,4,3,1,5,0,0
76639,-50,4,3,1,100,0,0
76671,-50,4,3,1,5,0,0
76769,-50,4,3,1,100,0,0
76932,-50,4,3,1,5,0,0
77030,-50,4,3,1,100,0,0
77063,-50,4,3,1,5,0,0
77160,-50,4,3,1,100,0,0
77192,-133.333333333333,4,3,1,5,0,0
77291,-133.333333333333,4,3,1,100,0,0
77648,-50,4,3,1,100,0,0
78692,-133.333333333333,4,3,1,100,0,0
83909,-50,4,3,1,100,0,0
85474,-133.333333333333,4,3,1,100,0,0
85996,-50,4,3,1,100,0,0
87692,-133.333333333333,4,3,1,100,0,1
88083,-50,4,3,1,100,0,1
89779,-133.333333333333,4,3,1,100,0,1
90170,-50,4,3,1,100,0,1
91866,-133.333333333333,4,3,1,100,0,1
92257,-50,4,3,1,100,0,1
93953,-133.333333333333,4,3,1,100,0,1
94344,-50,4,3,1,100,0,1
95943,-50,4,3,1,100,0,0

[HitObjects]
88,48,74,6,0,L|152:84,1,70
232,128,726,1,0,0:0:0:0:
300,76,856,1,0,0:0:0:0:
352,148,987,1,0,0:0:0:0:
412,88,1117,1,0,0:0:0:0:
460,168,1247,2,0,L|436:200,3,35
380,264,1769,5,0,0:0:0:0:
284,216,1900,1,0,0:0:0:0:
224,296,2030,1,0,0:0:0:0:
96,240,2160,6,0,L|144:176,1,70
204,96,2813,1,0,0:0:0:0:
288,44,2943,1,0,0:0:0:0:
320,140,3074,1,0,0:0:0:0:
256,216,3204,1,0,0:0:0:0:
328,284,3334,6,0,L|376:328,3,35
220,228,3856,1,0,0:0:0:0:
160,308,3987,1,0,0:0:0:0:
72,260,4117,1,0,0:0:0:0:
124,176,4247,6,0,L|168:116,1,70
236,36,4900,1,0,0:0:0:0:
304,108,5030,1,0,0:0:0:0:
208,128,5160,1,0,0:0:0:0:
236,36,5291,1,0,0:0:0:0:
208,128,5421,1,0,0:0:0:0:
140,68,5552,1,0,0:0:0:0:
236,36,5682,6,0,L|272:36,3,35
356,40,6204,1,0,0:0:0:0:
440,152,6334,6,0,L|384:216,1,70
320,288,6987,1,0,0:0:0:0:
248,220,7117,1,0,0:0:0:0:
192,304,7247,1,0,0:0:0:0:
124,232,7378,2,0,L|100:204,3,35
72,104,7900,1,4,0:0:0:0:
324,96,8030,1,0,0:0:0:0:
172,296,8160,1,0,0:0:0:0:
208,72,8291,1,0,0:0:0:0:
372,284,8421,6,2,L|400:308,3,35
280,280,8943,6,2,L|300:312,3,35
188,252,9465,6,2,L|192:288,3,35
56,284,14160,5,0,0:0:0:0:
64,140,14421,2,0,P|80:108|112:76,1,70
264,72,15204,1,0,0:0:0:0:
276,204,15465,2,0,P|296:244|320:272,1,70
424,332,16247,1,0,0:0:0:0:
332,147,16508,2,0,P|266:126|200:167,1,148.75
104,160,17813,6,0,L|92:132,1,17.5
168,104,18074,2,0,L|172:80,1,17.5
252,64,18334,2,0,L|264:40,1,17.5
390,92,18595,6,0,P|409:132|409:165,1,78.75
275,206,19378,1,0,0:0:0:0:
112,192,19639,2,0,P|88:228|88:260,1,70
238,369,20421,1,0,0:0:0:0:
384,248,20682,6,0,P|344:196|312:176,1,87.5
228,148,21465,2,0,L|256:108,1,35
308,44,21987,6,0,L|280:56,1,17.5
372,156,22247,2,0,L|396:164,1,17.5
296,256,22508,2,0,L|280:264,1,17.5
180,300,22769,6,0,B|160:272|160:272|160:272,1,35
56,192,23291,6,0,B|68:160|68:160|72:160,1,35
112,48,23813,1,0,0:0:0:0:
112,48,24074,2,0,L|144:48,1,17.5
200,128,24334,2,0,L|220:140,1,17.5
272,228,24595,2,0,L|292:248,1,17.5
360,320,24856,6,0,P|404:304|412:292,1,52.5
456,228,25378,1,0,0:0:0:0:
288,104,25639,1,0,0:0:0:0:
104,208,25900,2,0,P|128:248|136:256,1,52.5
196,323,26421,6,0,L|212:351,1,17.5
301,321,26682,2,0,L|317:345,1,26.25
406,300,26943,6,0,P|422:268|422:228,1,70
328,88,27726,2,0,P|304:80|304:80,1,17.5
160,112,27987,2,0,P|128:148|124:176,1,70
110,311,28769,5,4,0:0:0:0:
280,304,29030,2,0,P|324:288|356:256,1,87.5
404,180,29813,1,2,0:0:0:0:
468,244,29943,1,2,0:0:0:0:
420,324,30074,5,2,0:0:0:0:
264,184,30204,1,2,0:0:0:0:
212,108,30334,1,2,0:0:0:0:
272,36,30465,5,2,0:0:0:0:
188,288,30595,1,2,0:0:0:0:
116,344,30726,1,2,0:0:0:0:
48,284,30856,5,6,0:0:0:0:
96,76,30987,1,2,0:0:0:0:
212,108,31117,2,0,P|248:128|296:128,1,87.5
388,136,31900,5,2,0:0:0:0:
476,164,32030,1,2,0:0:0:0:
408,224,32160,5,2,0:0:0:0:
144,264,32291,1,2,0:0:0:0:
172,352,32421,1,2,0:0:0:0:
240,288,32552,5,2,0:0:0:0:
168,116,32682,1,2,0:0:0:0:
104,48,32813,1,2,0:0:0:0:
76,136,32943,5,4,0:0:0:0:
84,320,33074,5,2,0:0:0:0:
172,352,33204,2,0,P|208:328|236:292,1,87.5
296,187,33987,1,2,0:0:0:0:
355,104,34117,1,2,0:0:0:0:
257,92,34247,6,0,L|221:128,1,35,2|2,0:0|0:0,0:0:0:0:
88,220,34508,1,2,0:0:0:0:
140,280,34639,1,2,0:0:0:0:
328,292,34769,6,2,L|356:256,1,35
452,120,35030,1,4,0:0:0:0:
388,56,35160,1,2,0:0:0:0:
277,44,35291,6,0,P|261:84|221:124,1,87.5
136,260,36074,5,2,0:0:0:0:
216,216,36204,1,2,0:0:0:0:
216,308,36334,1,2,0:0:0:0:
296,264,36465,1,2,0:0:0:0:
216,216,36595,5,2,0:0:0:0:
96,76,36856,5,2,0:0:0:0:
278,41,37117,5,4,0:0:0:0:
388,288,37378,2,0,P|352:308|296:296,1,52.5000020027161
252,236,37639,2,0,P|216:232|176:200,1,52.5000020027161
152,128,37900,2,0,P|120:100|108:56,1,52.5000020027161
308,32,38160,2,0,P|344:68|344:112,1,52.5000020027161
412,172,38421,2,0,P|396:220|356:240,1,52.5000020027161
388,328,38682,2,0,P|356:352|316:360,1,52.5000020027161
84,304,38943,6,0,L|148:276,1,52.5000020027161
444,188,39204,2,0,L|368:160,1,52.5000020027161
64,128,39465,2,0,L|120:104,1,52.5000020027161
348,68,39726,5,0,0:0:0:0:
316,256,39856,1,0,0:0:0:0:
184,120,39987,1,0,0:0:0:0:
400,196,40117,1,0,0:0:0:0:
256,328,40247,5,0,0:0:0:0:
120,196,40378,1,0,0:0:0:0:
260,68,40508,1,0,0:0:0:0:
212,232,40639,1,0,0:0:0:0:
52,184,40769,5,0,0:0:0:0:
160,52,40900,1,0,0:0:0:0:
128,272,41030,1,0,0:0:0:0:
312,312,41160,1,0,0:0:0:0:
288,112,41290,5,0,0:0:0:0:
200,288,41421,1,0,0:0:0:0:
412,280,41552,1,0,0:0:0:0:
288,112,41682,1,0,0:0:0:0:
200,288,41813,2,0,L|176:320,3,26.2500010013581
140,212,42074,2,0,L|120:236,3,26.2500010013581
156,188,42334,5,0,0:0:0:0:
176,164,42400,1,0,0:0:0:0:
200,148,42465,1,0,0:0:0:0:
228,140,42530,1,0,0:0:0:0:
256,144,42595,1,0,0:0:0:0:
280,160,42660,1,0,0:0:0:0:
300,180,42726,1,0,0:0:0:0:
312,204,42791,1,0,0:0:0:0:
308,232,42856,5,0,0:0:0:0:
292,256,42921,1,0,0:0:0:0:
263,258,42987,1,0,0:0:0:0:
240,244,43052,1,0,0:0:0:0:
220,224,43117,1,0,0:0:0:0:
192,212,43182,1,0,0:0:0:0:
164,220,43247,1,0,0:0:0:0:
140,236,43313,1,0,0:0:0:0:
124,260,43378,5,0,0:0:0:0:
120,288,43443,1,0,0:0:0:0:
136,312,43508,1,0,0:0:0:0:
164,316,43574,1,0,0:0:0:0:
188,304,43639,1,0,0:0:0:0:
204,280,43704,1,0,0:0:0:0:
208,252,43769,1,0,0:0:0:0:
208,224,43834,1,0,0:0:0:0:
208,196,43900,5,0,0:0:0:0:
444,84,45987,6,0,P|392:56|376:52,1,52.5000020027161,8|2,0:0|0:0,0:0:0:0:
128,68,46508,1,4,0:0:0:0:
292,288,46639,1,0,0:0:0:0:
52,188,46769,1,2,0:0:0:0:
408,216,46900,5,0,0:0:0:0:
56,312,47030,1,8,0:0:0:0:
404,128,47160,1,0,0:0:0:0:
76,76,47291,1,2,0:0:0:0:
292,288,47421,5,0,0:0:0:0:
388,56,47552,1,4,0:0:0:0:
448,344,47682,1,0,0:0:0:0:
200,88,47813,1,2,0:0:0:0:
104,340,47943,5,0,0:0:0:0:
76,76,48074,2,0,L|129:90,1,52.5000020027161,8|2,0:0|0:0,0:0:0:0:
420,156,48595,1,4,0:0:0:0:
148,316,48726,1,0,0:0:0:0:
404,80,48856,5,2,0:0:0:0:
76,76,48987,1,0,0:0:0:0:
248,332,49117,1,8,0:0:0:0:
404,80,49247,1,0,0:0:0:0:
56,240,49378,5,2,0:0:0:0:
404,320,49508,1,0,0:0:0:0:
68,336,49639,1,4,0:0:0:0:
404,80,49769,1,0,0:0:0:0:
248,332,49900,5,2,0:0:0:0:
112,80,50030,1,0,0:0:0:0:
440,184,50160,2,0,L|384:236,1,52.5000020027161,8|2,0:0|0:0,0:0:0:0:
248,332,50682,1,4,0:0:0:0:
120,80,50813,5,0,0:0:0:0:
48,340,50943,1,2,0:0:0:0:
320,104,51074,1,0,0:0:0:0:
444,332,51204,1,8,0:0:0:0:
52,180,51334,5,0,0:0:0:0:
444,64,51465,1,2,0:0:0:0:
192,300,51595,1,0,0:0:0:0:
124,44,51726,1,4,0:0:0:0:
96,344,51856,5,0,0:0:0:0:
432,308,51987,1,2,0:0:0:0:
56,184,52117,1,0,0:0:0:0:
448,184,52247,2,0,L|388:144,1,52.5000020027161,8|2,0:0|0:0,0:0:0:0:
136,32,52769,5,4,0:0:0:0:
176,312,52900,1,0,0:0:0:0:
256,68,53030,1,2,0:0:0:0:
400,288,53160,1,0,0:0:0:0:
148,60,53291,6,0,L|176:128,1,52.5000020027161,8|0,0:0|0:0,0:0:0:0:
336,332,53552,2,0,L|312:288,1,35,2|0,0:0|0:0,0:0:0:0:
308,108,53813,2,0,L|292:136,1,26.2500010013581,4|0,0:0|0:0,0:0:0:0:
208,272,54074,2,0,L|220:252,1,17.5,2|0,0:0|0:0,0:0:0:0:
56,48,54334,6,0,L|68:124,1,52.5000020027161,8|2,0:0|0:0,0:0:0:0:
96,320,54856,1,4,0:0:0:0:
400,160,54987,1,0,0:0:0:0:
124,56,55117,1,2,0:0:0:0:
376,328,55248,5,0,0:0:0:0:
272,48,55378,1,8,0:0:0:0:
140,344,55509,1,0,0:0:0:0:
44,64,55639,1,2,0:0:0:0:
408,184,55770,5,0,0:0:0:0:
64,292,55900,1,4,0:0:0:0:
323,59,56030,1,0,0:0:0:0:
396,256,56160,1,2,0:0:0:0:
196,320,56291,5,0,0:0:0:0:
116,128,56421,2,0,P|144:200|144:200,1,52.5000020027161,8|2,0:0|0:0,0:0:0:0:
344,336,56943,1,4,0:0:0:0:
212,68,57074,1,0,0:0:0:0:
152,320,57204,5,2,0:0:0:0:
420,160,57334,1,0,0:0:0:0:
72,172,57465,1,8,0:0:0:0:
456,72,57595,1,0,0:0:0:0:
344,336,57726,5,2,0:0:0:0:
88,252,57856,1,0,0:0:0:0:
424,168,57987,1,4,0:0:0:0:
108,328,58117,1,0,0:0:0:0:
176,52,58247,5,2,0:0:0:0:
344,336,58378,1,0,0:0:0:0:
68,104,58508,2,0,L|132:132,1,52.5000020027161,8|2,0:0|0:0,0:0:0:0:
412,232,59030,1,4,0:0:0:0:
236,40,59160,5,0,0:0:0:0:
320,312,59291,1,2,0:0:0:0:
420,40,59421,1,0,0:0:0:0:
112,200,59552,1,8,0:0:0:0:
424,332,59682,5,0,0:0:0:0:
164,84,59813,1,2,0:0:0:0:
440,168,59943,1,0,0:0:0:0:
160,320,60074,1,4,0:0:0:0:
320,68,60204,5,0,0:0:0:0:
64,212,60334,1,2,0:0:0:0:
304,344,60465,1,0,0:0:0:0:
132,68,60595,2,0,L|204:60,1,52.5000020027161,8|2,0:0|0:0,0:0:0:0:
444,48,61117,5,4,0:0:0:0:
440,68,61247,1,0,0:0:0:0:
436,88,61378,1,2,0:0:0:0:
432,104,61508,2,0,L|420:164,1,52.5000020027161,0|8,0:0|0:0,0:0:0:0:
320,324,61769,5,0,0:0:0:0:
312,308,61900,1,2,0:0:0:0:
304,292,62030,2,0,L|272:232,1,52.5000020027161,0|4,0:0|0:0,0:0:0:0:
168,48,62291,1,0,0:0:0:0:
160,64,62421,5,2,0:0:0:0:
152,80,62552,1,0,0:0:0:0:
68,312,62682,2,0,L|176:300,1,105.000004005432,8|4,0:0|0:0,0:0:0:0:
396,268,63334,6,0,L|412:204,1,35
308,108,63465,2,0,L|324:44,1,35
164,196,63595,2,0,L|180:132,1,35
248,336,63726,2,0,L|264:272,1,35,8|0,0:0|0:0,0:0:0:0:
380,104,63987,2,0,L|348:80,1,35
132,104,64117,2,0,L|176:72,1,35
456,280,64247,2,0,L|420:248,1,35,4|0,0:0|0:0,0:0:0:0:
64,276,64378,2,0,L|104:236,1,35
224,56,64508,2,0,B|224:108|224:108|260:140|260:140|216:207,1,157.500006008148
76,256,64769,6,0,L|108:176,1,78.7500030040742,8|0,0:0|0:0,0:0:0:0:
404,256,65291,2,0,B|356:224|356:224|368:172,1,105,4|0,0:0|0:0,0:0:0:0:
252,68,65552,2,0,B|204:108|204:108|152:92,1,105
104,280,65813,2,0,B|160:296|160:296|184:336,1,105,8|0,0:0|0:0,0:0:0:0:
52,180,66074,2,0,B|96:180|96:180|124:156|124:156|176:176,1,105
244,72,66334,5,4,0:0:0:0:
184,336,66465,1,0,0:0:0:0:
136,132,66595,5,0,0:0:0:0:
396,200,66726,1,0,0:0:0:0:
432,44,66856,6,0,L|340:100,1,105.000004005432,8|4,0:0|0:0,0:0:0:0:
144,244,67508,2,0,L|132:300,1,35
360,240,67639,2,0,L|368:292,1,35
60,192,67769,2,0,L|40:232,1,35
436,184,67900,1,8,0:0:0:0:
140,112,68030,6,0,L|132:64,1,35
360,112,68160,2,0,L|372:52,1,35
60,168,68291,2,0,L|40:132,1,35
436,176,68421,1,4,0:0:0:0:
392,332,68552,6,0,L|340:336,1,35
132,236,68682,2,0,L|192:232,1,35
364,104,68813,2,0,L|316:108,1,35
80,120,68943,6,0,L|72:212,1,78.7500030040742,8|0,0:0|0:0,0:0:0:0:
72,236,69465,5,4,0:0:0:0:
356,208,69595,1,0,0:0:0:0:
144,64,69726,1,0,0:0:0:0:
436,144,69856,1,0,0:0:0:0:
184,240,69987,2,0,L|152:184,1,52.5000020027161,8|0,0:0|0:0,0:0:0:0:
320,128,70247,2,0,L|352:184,1,52.5000020027161
88,184,70508,2,0,L|96:116,1,52.5000020027161,4|0,0:0|0:0,0:0:0:0:
416,188,70769,2,0,L|412:252,1,52.5000020027161
284,328,71030,6,0,L|184:280,1,105.000004005432,8|4,0:0|0:0,0:0:0:0:
72,160,71682,2,0,L|108:176,1,26.2500010013581
96,48,71813,2,0,B|120:108|120:108|184:136,1,105
168,132,72074,1,8,0:0:0:0:
412,64,72204,2,0,B|392:120|392:120|312:148,1,140
144,188,72595,2,0,P|68:172|132:204,1,210,4|0,0:0|0:0,0:0:0:0:
296,300,73117,6,0,L|328:224,1,78.7500030040742,8|0,0:0|0:0,0:0:0:0:
160,72,73639,2,0,B|104:92|104:92|84:136,1,105,4|0,0:0|0:0,0:0:0:0:
352,72,73900,2,0,B|408:92|408:92|428:136,1,105
136,288,74160,2,0,B|176:256|176:256|176:200,1,105,8|0,0:0|0:0,0:0:0:0:
376,288,74421,2,0,B|336:256|336:256|336:200,1,105
192,168,74682,2,0,P|152:232|208:184,1,210,4|0,0:0|0:0,0:0:0:0:
84,44,75204,6,0,L|88:128,1,78.7500030040742,8|0,0:0|0:0,0:0:0:0:
120,272,75726,1,4,0:0:0:0:
164,312,75813,1,0,0:0:0:0:
184,256,75900,1,0,0:0:0:0:
124,264,75987,1,0,0:0:0:0:
156,316,76074,1,0,0:0:0:0:
184,264,76160,1,0,0:0:0:0:
128,252,76247,1,8,0:0:0:0:
92,104,76378,6,0,L|120:84,1,35
224,144,76508,2,0,L|252:124,1,35
352,188,76639,2,0,L|380:168,1,35
480,232,76769,1,4,0:0:0:0:
340,266,76900,2,0,L|304:236,1,35
176,92,77030,2,0,L|140:124,1,35
64,288,77160,2,0,L|104:272,1,35
256,328,77291,6,0,L|344:264,1,105.000004005432,8|4,0:0|0:0,0:0:0:0:
432,124,77943,1,0,0:0:0:0:
253,200,78074,1,0,0:0:0:0:
388,328,78204,1,0,0:0:0:0:
336,124,78334,1,8,0:0:0:0:
236,308,78465,1,0,0:0:0:0:
92,156,78595,1,0,0:0:0:0:
253,200,78726,1,0,0:0:0:0:
180,48,78856,2,0,L|172:96,3,26.2500010013581,4|0|0|0,0:0|0:0|0:0|0:0,0:0:0:0:
376,80,83030,5,4,0:0:0:0:
376,80,83552,6,0,L|364:176,1,78.7500030040742,8|0,0:0|0:0,0:0:0:0:
344,320,84074,1,4,0:0:0:0:
248,136,84204,1,0,0:0:0:0:
104,320,84334,1,2,0:0:0:0:
128,112,84465,1,0,0:0:0:0:
324,184,84595,1,8,0:0:0:0:
200,352,84726,1,0,0:0:0:0:
404,312,84856,5,2,0:0:0:0:
252,164,84987,1,0,0:0:0:0:
448,96,85117,1,4,0:0:0:0:
404,312,85247,1,0,0:0:0:0:
286,103,85378,1,2,0:0:0:0:
264,312,85508,1,0,0:0:0:0:
352,60,85639,6,0,L|280:108,1,78.7500030040742,8|0,0:0|0:0,0:0:0:0:
88,220,86160,2,0,L|216:248,1,70,4|0,0:0|0:0,0:0:0:0:
300,264,86421,1,2,0:0:0:0:
320,268,86552,1,0,0:0:0:0:
344,272,86682,6,0,L|308:192,1,70,8|0,0:0|0:0,0:0:0:0:
260,80,86943,1,2,0:0:0:0:
252,64,87074,1,0,0:0:0:0:
244,48,87204,6,0,L|192:116,1,70,4|0,0:0|0:0,0:0:0:0:
116,220,87465,1,2,0:0:0:0:
104,236,87595,1,0,0:0:0:0:
92,252,87726,2,0,L|180:288,1,78.7500030040742,8|0,0:0|0:0,0:0:0:0:
308,320,88247,1,4,0:0:0:0:
416,100,88378,1,0,0:0:0:0:
176,152,88508,1,2,0:0:0:0:
408,228,88639,1,0,0:0:0:0:
168,264,88769,5,8,0:0:0:0:
296,56,88900,1,0,0:0:0:0:
279,279,89030,1,2,0:0:0:0:
148,64,89160,1,0,0:0:0:0:
76,300,89291,1,4,0:0:0:0:
279,279,89421,5,0,0:0:0:0:
56,136,89552,1,2,0:0:0:0:
296,88,89682,1,0,0:0:0:0:
212,320,89813,2,8,L|300:268,1,78.7500030040742,8|0,0:0|0:0,0:0:0:0:
424,200,90334,5,4,0:0:0:0:
200,96,90465,1,0,0:0:0:0:
424,108,90595,1,2,0:0:0:0:
200,96,90726,1,0,0:0:0:0:
240,284,90856,1,8,0:0:0:0:
68,108,90987,5,0,0:0:0:0:
308,152,91117,1,2,0:0:0:0:
136,324,91247,1,0,0:0:0:0:
380,288,91378,1,4,0:0:0:0:
144,228,91508,5,0,0:0:0:0:
332,68,91639,1,2,0:0:0:0:
96,136,91769,1,0,0:0:0:0:
272,308,91900,2,0,L|340:240,1,78.7500030040742,8|0,0:0|0:0,0:0:0:0:
440,132,92421,1,4,0:0:0:0:
348,360,92552,5,0,0:0:0:0:
152,216,92682,1,2,0:0:0:0:
312,28,92813,1,0,0:0:0:0:
68,24,92943,1,8,0:0:0:0:
272,164,93074,1,0,0:0:0:0:
104,340,93204,5,2,0:0:0:0:
156,100,93334,1,0,0:0:0:0:
256,324,93465,1,4,0:0:0:0:
316,88,93595,1,0,0:0:0:0:
270,264,93726,1,2,0:0:0:0:
168,32,93856,1,0,0:0:0:0:
332,216,93987,2,0,L|256:276,1,78.7500030040742,8|0,0:0|0:0,0:0:0:0:
88,328,94508,1,4,0:0:0:0:
96,308,94639,5,0,0:0:0:0:
104,288,94769,2,0,L|136:200,1,70,2|0,0:0|0:0,0:0:0:0:
192,40,95030,1,8,0:0:0:0:
200,60,95160,5,0,0:0:0:0:
208,80,95291,2,0,L|244:152,1,70,2|0,0:0|0:0,0:0:0:0:
332,324,95552,1,4,0:0:0:0:
340,304,95682,5,0,0:0:0:0:
348,284,95813,2,0,L|376:204,1,70,2|0,0:0|0:0,0:0:0:0:
