osu file format v14

[General]
AudioFilename: audio.mp3
AudioLeadIn: 0
PreviewTime: 44355
Countdown: 0
SampleSet: Soft
StackLeniency: 0.7
Mode: 0
LetterboxInBreaks: 0
WidescreenStoryboard: 0

[Editor]
Bookmarks: 9920,12529,112703,121050,127311,229572
DistanceSpacing: 2
BeatDivisor: 8
GridSize: 4
TimelineZoom: 2.4

[Metadata]
Title:Break Through
TitleUnicode:Break Through
Artist:Nasko
ArtistUnicode:Nasko
Creator:Evgerable
Version:Ultra
Source:
Tags:JompaMusic Records Melodic Energetic Heavy MidTempo JMR Dance Electronic Jumps Full Size Instrumental English
BeatmapID:1391928
BeatmapSetID:657084

[Difficulty]
HPDrainRate:5
CircleSize:3.7
OverallDifficulty:8.7
ApproachRate:9.3
SliderMultiplier:2.1
SliderTickRate:1

[Events]
//Background and Video events
0,0,"BG.jpg",0,0
//Break Periods
2,112903,120211
//Storyboard Layer 0 (Background)
//Storyboard Layer 1 (Fail)
//Storyboard Layer 2 (Pass)
//Storyboard Layer 3 (Foreground)
//Storyboard Layer 4 (Overlay)
//Storyboard Sound Samples

[TimingPoints]
-1036,521.739130434783,4,2,1,100,1,0
7,-200,4,2,1,10,0,0
7311,-133.333333333333,4,2,1,20,0,0
7442,-133.333333333333,4,2,1,30,0,0
7572,-133.333333333333,4,2,1,40,0,0
7703,-133.333333333333,4,2,1,50,0,0
7833,-133.333333333333,4,2,1,60,0,0
14094,-200,4,2,1,60,0,0
29746,-142.857142857143,4,2,1,70,0,0
31833,-138.888888888889,4,2,1,73,0,0
33920,-135.135135135135,4,2,1,76,0,0
36007,-131.578947368421,4,2,1,79,0,0
38094,-128.205128205128,4,2,1,82,0,0
40181,-125,4,2,1,85,0,0
41746,-121.951219512195,4,2,1,88,0,0
42007,-121.951219512195,4,2,1,90,0,0
42268,-121.951219512195,4,2,1,92,0,0
42529,-121.951219512195,4,2,1,94,0,0
42790,-121.951219512195,4,2,1,96,0,0
43050,-121.951219512195,4,2,1,98,0,0
43311,-121.951219512195,4,2,1,100,0,0
44355,-111.111111111111,4,2,1,100,0,0
45659,-111.111111111111,4,2,1,100,0,0
45920,-90.9090909090909,4,2,1,100,0,1
62616,-90.9090909090909,4,2,1,90,0,0
68877,-90.9090909090909,4,2,1,100,0,1
70964,-90.9090909090909,4,2,1,90,0,0
77224,-90.9090909090909,4,2,1,100,0,1
79311,-200,4,2,1,10,0,0
81398,-200,4,2,1,30,0,0
81920,-142.857142857143,4,2,1,50,0,0
82181,-111.111111111111,4,2,1,70,0,0
82442,-90.9090909090909,4,2,1,90,0,0
83485,-90.9090909090909,4,2,1,100,0,1
96007,-90.9090909090909,4,2,1,90,0,0
102529,-66.6666666666667,4,2,1,90,0,0
103833,-90.9090909090909,4,2,1,90,0,0
106833,-66.6666666666667,4,2,1,90,0,0
107485,-90.9090909090909,4,2,1,90,0,0
111529,-66.6666666666667,4,2,1,90,0,0
112181,-90.9090909090909,4,2,1,90,0,0
127311,-90.9090909090909,4,2,1,5,0,0
129398,-200,4,2,1,60,0,0
146616,-142.857142857143,4,2,1,70,0,0
148703,-138.888888888889,4,2,1,73,0,0
150790,-135.135135135135,4,2,1,76,0,0
152877,-131.578947368421,4,2,1,79,0,0
154964,-128.205128205128,4,2,1,82,0,0
157050,-125,4,2,1,85,0,0
158616,-121.951219512195,4,2,1,88,0,0
158877,-121.951219512195,4,2,1,90,0,0
159137,-121.951219512195,4,2,1,92,0,0
159398,-121.951219512195,4,2,1,94,0,0
159659,-121.951219512195,4,2,1,96,0,0
159920,-121.951219512195,4,2,1,98,0,0
160181,-121.951219512195,4,2,1,100,0,0
161224,-111.111111111111,4,2,1,100,0,0
162790,-90.9090909090909,4,2,1,100,0,1
179485,-90.9090909090909,4,2,1,90,0,0
185746,-90.9090909090909,4,2,1,100,0,1
187833,-90.9090909090909,4,2,1,90,0,0
194094,-90.9090909090909,4,2,1,100,0,1
196181,-200,4,2,1,10,0,0
198790,-142.857142857143,4,2,1,50,0,0
199050,-111.111111111111,4,2,1,70,0,0
199311,-90.9090909090909,4,2,1,90,0,0
200355,-90.9090909090909,4,2,1,100,0,1
212877,-90.9090909090909,4,2,1,90,0,0
219398,-66.6666666666667,4,2,1,90,0,0
220311,-90.9090909090909,4,2,1,90,0,0
223703,-66.6666666666667,4,2,1,90,0,0
223964,-90.9090909090909,4,2,1,90,0,0
228398,-66.6666666666667,4,2,1,90,0,0
229050,-90.9090909090909,4,2,1,90,0,0

[Colours]
Combo1 : 140,26,255
Combo2 : 196,0,0
Combo3 : 255,146,36
Combo4 : 255,255,255
Combo5 : 0,0,145

[HitObjects]
408,324,7,6,0,P|416:296|408:240,1,78.75,0|0,0:0|0:0,0:0:0:0:
360,188,529,6,0,L|324:176,3,26.25,0|0|0|0,0:0|0:0|0:0|0:0,0:0:0:0:
272,232,1050,2,0,L|240:224,3,26.25,0|0|0|0,0:0|0:0|0:0|0:0,0:0:0:0:
184,276,1572,2,0,L|148:268,3,26.25,0|0|0|0,0:0|0:0|0:0|0:0,0:0:0:0:
96,220,2094,6,0,B|96:180|96:180|104:136,1,78.75,0|0,0:0|0:0,0:0:0:0:
184,136,2616,6,0,L|204:104,3,26.25,0|0|0|0,0:0|0:0|0:0|0:0,0:0:0:0:
264,156,3137,2,0,L|244:188,3,26.25,0|0|0|0,0:0|0:0|0:0|0:0,0:0:0:0:
320,220,3659,2,0,L|332:196,3,26.25,0|0|0|0,0:0|0:0|0:0|0:0,0:0:0:0:
372,128,4181,6,0,P|384:84|372:40,1,78.75,0|0,0:0|0:0,0:0:0:0:
304,84,4703,6,0,L|276:80,3,26.25,0|0|0|0,0:0|0:0|0:0|0:0,0:0:0:0:
272,160,5224,2,0,L|292:188,3,26.25,0|0|0|0,0:0|0:0|0:0|0:0,0:0:0:0:
228,236,5746,2,0,L|228:268,3,26.25,0|0|0|0,0:0|0:0|0:0|0:0,0:0:0:0:
288,316,6268,6,0,B|324:324|324:324|376:324,1,78.75,0|0,0:0|0:0,0:0:0:0:
344,244,6790,6,0,L|380:244,3,26.25,0|0|0|0,0:0|0:0|0:0|0:0,0:0:0:0:
432,188,7311,5,2,0:0:0:0:
364,132,7442,1,2,0:0:0:0:
436,84,7572,1,2,0:0:0:0:
364,36,7703,1,2,0:0:0:0:
292,96,7833,6,2,P|284:120|284:140,1,39.3750015020371,0|0,0:0|0:0,0:0:0:0:
424,223,8094,2,2,P|432:191|428:168,1,39.3750015020371,0|0,0:0|0:0,0:0:0:0:
312,240,8355,5,2,0:0:0:0:
256,192,9920,12,0,12529,0:0:0:0:
416,100,14094,6,2,L|400:136,1,26.25,0|0,0:0|0:0,0:0:0:0:
388,164,14355,2,0,B|332:168|332:168|260:148,1,131.25,0|0,0:0|0:0,0:0:0:0:
196,88,15137,6,2,L|184:116,1,26.25,0|0,0:0|0:0,0:0:0:0:
168,152,15398,2,0,B|152:196|152:196|144:280,1,131.25,0|0,0:0|0:0,0:0:0:0:
236,256,16181,6,2,P|252:248|272:244,1,26.25,0|0,0:0|0:0,0:0:0:0:
304,236,16442,2,0,B|384:216|456:256|456:256|400:228|336:256,1,262.5,0|0,0:0|0:0,0:0:0:0:
148,308,18203,6,2,P|140:292|140:264,1,39.375,0|0,0:0|0:0,0:0:0:0:
140,228,18529,2,0,P|124:168|92:132,1,105,0|0,0:0|0:0,0:0:0:0:
188,192,19246,6,2,L|232:208,1,39.375,0|0,0:0|0:0,0:0:0:0:
256,216,19572,2,0,P|304:224|360:204,1,105,0|0,0:0|0:0,0:0:0:0:
176,184,20355,6,2,P|168:204|168:220,1,26.25,0|0,0:0|0:0,0:0:0:0:
164,252,20616,2,0,P|172:288|256:316,1,131.25,0|0,0:0|0:0,0:0:0:0:
280,284,21398,6,2,L|312:276,1,26.25,0|0,0:0|0:0,0:0:0:0:
348,292,21659,2,0,P|380:280|392:268,1,52.5,0|0,0:0|0:0,0:0:0:0:
284,96,22442,6,2,L|272:124,1,26.25,0|0,0:0|0:0,0:0:0:0:
256,160,22703,2,0,P|248:192|248:220,1,52.5,0|0,0:0|0:0,0:0:0:0:
192,280,23224,2,0,P|160:284|136:276,1,52.5,0|0,0:0|0:0,0:0:0:0:
108,196,23746,2,0,P|136:188|164:192,1,52.5,0|0,0:0|0:0,0:0:0:0:
228,244,24268,5,0,0:0:0:0:
288,176,24529,1,0,0:0:0:0:
208,136,24790,2,0,P|193:121|184:92,2,52.5,0|0|0,0:0|0:0|0:0,0:0:0:0:
288,176,25572,1,0,0:0:0:0:
356,120,25833,2,0,P|380:112|412:116,1,52.5,0|0,0:0|0:0,0:0:0:0:
368,232,26616,6,2,L|332:244,1,26.25,0|0,0:0|0:0,0:0:0:0:
300,248,26877,2,0,B|252:244|252:244|196:256,1,105,0|0,0:0|0:0,0:0:0:0:
124,276,27659,6,2,L|108:244,1,26.25,0|0,0:0|0:0,0:0:0:0:
96,212,27920,2,0,B|64:136|64:136|88:160,1,105,0|0,0:0|0:0,0:0:0:0:
164,160,28703,6,2,L|180:192,1,26.25,0|0,0:0|0:0,0:0:0:0:
200,224,28964,2,0,P|212:252|212:276,1,52.5,0|0,0:0|0:0,0:0:0:0:
304,80,29746,6,0,L|340:72,3,36.749998878479,0|0|0|0,0:0|0:0|0:0|0:0,0:0:0:0:
380,144,30268,2,0,L|420:152,3,36.749998878479,0|0|0|0,0:0|0:0|0:0|0:0,0:0:0:0:
412,232,30790,2,0,L|448:260,3,36.749998878479,0|0|0|0,0:0|0:0|0:0|0:0,0:0:0:0:
388,312,31311,6,0,L|272:312,1,110.249996635437,0|0,0:0|0:0,0:0:0:0:
212,264,31833,6,0,P|204:240|204:216,1,37.8000009228516,0|0,0:0|0:0,0:0:0:0:
212,144,32094,2,0,P|216:116|212:96,1,37.8000009228516,0|0,0:0|0:0,0:0:0:0:
132,120,32355,6,0,L|88:92,3,37.8000009228516,0|0|0|0,0:0|0:0|0:0|0:0,0:0:0:0:
48,164,32877,6,2,P|44:188|48:216,1,37.8000009228516,0|0,0:0|0:0,0:0:0:0:
52,280,33137,2,2,P|48:304|32:328,1,37.8000009228516,0|0,0:0|0:0,0:0:0:0:
128,296,33398,6,0,B|176:288|176:288|244:296,1,113.400002768555,0|0,0:0|0:0,0:0:0:0:
284,228,33920,6,0,L|328:220,3,38.8500009484863,0|0|0|0,0:0|0:0|0:0|0:0,0:0:0:0:
312,140,34442,2,0,L|332:92,3,38.8500009484863,0|0|0|0,0:0|0:0|0:0|0:0,0:0:0:0:
248,84,34964,2,0,L|236:40,3,38.8500009484863,0|0|0|0,0:0|0:0|0:0|0:0,0:0:0:0:
168,84,35485,6,0,B|160:128|160:128|160:200,1,116.550002845459,0|0,0:0|0:0,0:0:0:0:
180,280,36007,5,0,0:0:0:0:
260,300,36137,1,0,0:0:0:0:
240,220,36268,2,0,P|276:212|296:216,1,39.8999995129395,0|0,0:0|0:0,0:0:0:0:
360,232,36529,6,0,P|384:236|412:228,1,39.8999995129395,0|0,0:0|0:0,0:0:0:0:
452,168,36790,2,0,P|460:140|456:112,1,39.8999995129395,0|0,0:0|0:0,0:0:0:0:
388,92,37050,6,2,P|404:68|428:56,1,39.8999995129395,0|0,0:0|0:0,0:0:0:0:
332,92,37311,2,2,P|308:92|280:84,1,39.8999995129395,0|0,0:0|0:0,0:0:0:0:
224,52,37572,6,0,P|240:80|228:168,1,119.699998538818,0|0,0:0|0:0,0:0:0:0:
164,212,38094,6,0,L|172:256,3,40.9500013746644,0|0|0|0,0:0|0:0|0:0|0:0,0:0:0:0:
248,284,38616,5,0,0:0:0:0:
288,212,38746,1,0,0:0:0:0:
360,260,38877,1,0,0:0:0:0:
384,180,39007,1,0,0:0:0:0:
456,140,39137,6,2,P|460:108|456:84,1,40.9500013746644,0|0,0:0|0:0,0:0:0:0:
384,180,39398,2,2,P|376:208|376:236,1,40.9500013746644,0|0,0:0|0:0,0:0:0:0:
452,340,39659,6,0,B|460:296|460:296|452:204,1,122.850004123993,0|0,0:0|0:0,0:0:0:0:
456,140,40181,6,2,P|440:124|412:112,1,42,0|0,0:0|0:0,0:0:0:0:
340,100,40442,2,2,P|312:88|296:68,1,42,0|0,0:0|0:0,0:0:0:0:
276,160,40703,6,0,L|276:208,3,42,0|0|0|0,0:0|0:0|0:0|0:0,0:0:0:0:
344,248,41225,2,0,L|328:292,3,42,0|0|0|0,0:0|0:0|0:0|0:0,0:0:0:0:
252,292,41746,6,0,L|240:260,3,21.5250003284454,0|0|0|0,0:0|0:0|0:0|0:0,0:0:0:0:
212,244,42007,2,0,L|180:236,3,21.5250003284454,0|0|0|0,0:0|0:0|0:0|0:0,0:0:0:0:
156,216,42268,2,0,L|144:188,3,21.5250003284454,0|0|0|0,0:0|0:0|0:0|0:0,0:0:0:0:
152,152,42529,2,0,L|164:124,3,21.5250003284454,0|0|0|0,0:0|0:0|0:0|0:0,0:0:0:0:
200,112,42790,2,0,L|228:100,3,21.5250003284454,0|0|0|0,0:0|0:0|0:0|0:0,0:0:0:0:
256,80,43050,2,0,L|264:52,3,21.5250003284454,0|0|0|0,0:0|0:0|0:0|0:0,0:0:0:0:
304,56,43311,2,0,L|328:72,3,21.5250003284454,0|0|0|0,0:0|0:0|0:0|0:0,0:0:0:0:
336,108,43572,6,2,L|336:140,4,21.5250003284454,0|0|0|0|0,0:0|0:0|0:0|0:0|0:0,0:0:0:0:
376,148,44355,6,0,P|388:184|384:212,1,47.2499985580445,0|0,0:0|0:0,0:0:0:0:
296,332,44616,2,0,B|280:312|284:272|284:272|256:252|256:252|284:224|280:196|280:196|264:156|276:116,1,236.249992790222,0|0,0:0|0:0,0:0:0:0:
376,148,45398,6,0,P|388:180|388:208,1,47.2499985580445,0|0,0:0|0:0,0:0:0:0:
232,60,45659,1,2,0:0:0:0:
256,80,45920,6,0,B|264:144|264:144|256:204|256:204|256:264,1,173.250005287171,12|0,0:0|0:0,0:0:0:0:
176,268,46442,5,0,0:0:0:0:
104,140,46572,1,0,0:0:0:0:
64,260,46703,1,0,0:0:0:0:
256,188,46833,1,0,0:0:0:0:
184,92,46964,6,0,L|108:92,1,57.7500017623902,8|0,0:0|0:0,0:0:0:0:
256,188,47224,2,0,L|328:188,1,57.7500017623902,0|0,0:0|0:0,0:0:0:0:
392,136,47485,5,2,0:0:0:0:
348,280,47616,1,2,0:0:0:0:
416,128,47746,1,2,0:0:0:0:
260,196,47877,1,2,0:0:0:0:
296,60,48007,6,0,B|352:48|352:48|488:48,1,173.250005287171,8|0,0:0|0:0,0:0:0:0:
472,129,48529,5,0,0:0:0:0:
456,208,48659,1,0,0:0:0:0:
380,232,48790,1,0,0:0:0:0:
308,200,48920,1,0,0:0:0:0:
364,132,49050,6,0,B|396:124|396:124|436:124,1,57.7500017623902,8|0,0:0|0:0,0:0:0:0:
308,200,49311,2,0,P|284:176|276:132,1,57.7500017623902,0|0,0:0|0:0,0:0:0:0:
312,76,49572,5,2,0:0:0:0:
336,328,49703,1,2,0:0:0:0:
400,176,49833,1,2,0:0:0:0:
252,268,49964,1,2,0:0:0:0:
416,160,50094,6,0,B|424:116|424:116|424:40|424:40|408:100,1,173.250005287171,8|0,0:0|0:0,0:0:0:0:
332,152,50616,6,0,P|300:160|260:152,1,57.7500017623902,0|0,0:0|0:0,0:0:0:0:
184,56,50877,2,0,P|200:88|200:124,1,57.7500017623902,0|0,0:0|0:0,0:0:0:0:
200,192,51137,5,8,0:0:0:0:
52,240,51268,1,0,0:0:0:0:
72,72,51398,1,0,0:0:0:0:
116,152,51529,1,0,0:0:0:0:
202,106,51659,6,2,P|206:66|188:32,1,57.7500017623902,0|0,0:0|0:0,0:0:0:0:
116,152,51920,2,2,P|112:200|120:228,1,57.7500017623902,0|0,0:0|0:0,0:0:0:0:
180,284,52181,6,0,B|212:300|232:284|232:284|264:308|256:252|292:304|348:284,1,173.250005287171,8|0,0:0|0:0,0:0:0:0:
236,172,52703,5,0,0:0:0:0:
284,332,52833,1,0,0:0:0:0:
328,136,52964,1,0,0:0:0:0:
228,268,53094,1,0,0:0:0:0:
140,144,53224,6,0,P|132:108|140:68,1,57.7500017623902,8|0,0:0|0:0,0:0:0:0:
56,188,53485,2,0,P|52:220|60:260,1,57.7500017623902,0|0,0:0|0:0,0:0:0:0:
140,304,53746,6,0,P|176:312|216:300,1,57.7500017623902,0|0,0:0|0:0,0:0:0:0:
284,268,54007,2,0,P|324:264|364:280,1,57.7500017623902,0|0,0:0|0:0,0:0:0:0:
416,212,54268,6,0,B|408:148|408:148|416:96|416:96|408:28,1,173.250005287171,8|0,0:0|0:0,0:0:0:0:
324,112,54790,5,0,0:0:0:0:
272,180,54920,1,0,0:0:0:0:
194,79,55050,1,0,0:0:0:0:
168,248,55181,1,0,0:0:0:0:
324,112,55311,6,0,P|328:84|320:44,1,57.7500017623902,8|0,0:0|0:0,0:0:0:0:
376,196,55572,2,0,P|412:204|452:196,1,57.7500017623902,0|0,0:0|0:0,0:0:0:0:
248,84,55833,6,2,P|216:76|180:84,1,57.7500017623902,0|0,0:0|0:0,0:0:0:0:
236,240,56094,2,2,P|272:248|304:240,1,57.7500017623902,0|0,0:0|0:0,0:0:0:0:
384,116,56355,6,0,B|400:176|400:176|400:304,1,173.250005287171,8|0,0:0|0:0,0:0:0:0:
308,124,56877,6,0,P|308:96|328:60,2,57.7500017623902,0|0|0,0:0|0:0|0:0,0:0:0:0:
356,192,57268,1,0,0:0:0:0:
224,88,57398,2,0,P|192:76|148:88,1,57.7500017623902,8|0,0:0|0:0,0:0:0:0:
100,208,57659,2,0,P|140:220|176:208,1,57.7500017623902,0|0,0:0|0:0,0:0:0:0:
272,120,57920,6,2,P|260:152|260:184,1,57.7500017623902,0|0,0:0|0:0,0:0:0:0:
304,248,58181,2,2,P|316:284|312:320,1,57.7500017623902,0|0,0:0|0:0,0:0:0:0:
157,204,58442,6,0,B|153:152|189:144|192:96|192:96|176:132|144:140,1,173.250005287171,8|0,0:0|0:0,0:0:0:0:
56,168,58964,5,0,0:0:0:0:
220,164,59094,1,0,0:0:0:0:
120,68,59224,1,0,0:0:0:0:
184,252,59355,1,0,0:0:0:0:
316,124,59485,6,0,P|320:92|312:56,1,57.7500017623902,8|0,0:0|0:0,0:0:0:0:
160,128,59746,2,0,P|152:160|156:192,1,57.7500017623902,0|0,0:0|0:0,0:0:0:0:
204,260,60007,5,2,0:0:0:0:
272,332,60137,1,2,0:0:0:0:
96,240,60268,1,2,0:0:0:0:
284,156,60398,1,2,0:0:0:0:
192,320,60529,6,0,B|172:344|124:304|44:324|44:324|64:312|76:312,1,173.250005287171,8|0,0:0|0:0,0:0:0:0:
284,156,61050,5,0,0:0:0:0:
216,328,61181,1,0,0:0:0:0:
160,192,61311,1,0,0:0:0:0:
320,256,61442,1,0,0:0:0:0:
116,260,61572,2,0,P|88:232|80:204,1,57.7500017623902,8|0,0:0|0:0,0:0:0:0:
216,84,61833,5,0,0:0:0:0:
160,192,61964,1,0,0:0:0:0:
336,176,62094,1,0,0:0:0:0:
76,76,62224,1,0,0:0:0:0:
336,212,62355,1,0,0:0:0:0:
224,60,62485,1,0,0:0:0:0:
124,184,62616,6,0,B|108:224|108:224|124:256|112:296|104:288|104:288|116:328|104:368,1,173.250005287171,12|0,0:0|0:0,0:0:0:0:
256,236,63137,6,0,L|296:224,1,28.8750008811951,0|0,0:0|0:0,0:0:0:0:
272,168,63268,2,0,L|304:136,1,28.8750008811951,0|0,0:0|0:0,0:0:0:0:
264,100,63398,2,0,L|268:52,1,28.8750008811951,0|0,0:0|0:0,0:0:0:0:
220,64,63529,2,0,L|208:20,1,28.8750008811951,0|0,0:0|0:0,0:0:0:0:
140,80,63659,6,2,P|130:121|136:156,1,57.7500017623902,0|0,0:0|0:0,0:0:0:0:
224,224,63920,6,0,L|272:224,1,28.8750008811951,0|0,0:0|0:0,0:0:0:0:
96,264,64050,2,0,L|52:276,1,28.8750008811951,0|0,0:0|0:0,0:0:0:0:
204,304,64181,2,0,L|224:344,1,28.8750008811951,0|0,0:0|0:0,0:0:0:0:
128,188,64311,2,0,L|116:140,1,28.8750008811951,0|0,0:0|0:0,0:0:0:0:
228,144,64442,6,2,P|236:184|224:224,1,57.7500017623902,0|0,0:0|0:0,0:0:0:0:
312,132,64703,6,0,B|336:124|336:124|424:156|496:128,1,173.250005287171,8|0,0:0|0:0,0:0:0:0:
316,240,65224,6,0,B|312:264|312:264|312:324,1,57.7500017623902,0|0,0:0|0:0,0:0:0:0:
408,216,65485,2,0,B|412:184|412:184|412:132,1,57.7500017623902,0|0,0:0|0:0,0:0:0:0:
348,100,65746,6,0,B|328:96|328:96|280:72,1,57.7500017623902,0|0,0:0|0:0,0:0:0:0:
188,160,66007,2,0,B|180:192|180:192|180:236,1,57.7500017623902,0|0,0:0|0:0,0:0:0:0:
280,120,66268,5,2,0:0:0:0:
104,96,66398,1,2,0:0:0:0:
300,152,66529,1,2,0:0:0:0:
88,60,66659,1,2,0:0:0:0:
188,152,66790,6,0,L|208:344,1,173.250005287171,8|0,0:0|0:0,0:0:0:0:
284,304,67311,6,0,L|276:248,1,28.8750008811951,0|0,0:0|0:0,0:0:0:0:
348,208,67442,2,0,L|356:256,1,28.8750008811951,0|0,0:0|0:0,0:0:0:0:
272,184,67572,2,0,L|232:168,1,28.8750008811951,0|0,0:0|0:0,0:0:0:0:
164,232,67703,6,2,L|152:304,1,57.7500017623902,0|0,0:0|0:0,0:0:0:0:
72,120,67964,6,0,L|40:80,1,28.8750008811951,0|0,0:0|0:0,0:0:0:0:
136,68,68094,2,0,L|172:84,1,28.8750008811951,0|0,0:0|0:0,0:0:0:0:
232,132,68224,6,2,L|308:116,1,57.7500017623902,0|0,0:0|0:0,0:0:0:0:
220,276,68485,6,0,L|188:304,1,28.8750008811951,0|0,0:0|0:0,0:0:0:0:
136,236,68616,2,0,L|100:268,1,28.8750008811951,0|0,0:0|0:0,0:0:0:0:
64,184,68746,2,0,L|20:216,1,28.8750008811951,0|0,0:0|0:0,0:0:0:0:
120,104,68877,6,0,P|176:96|268:168,1,173.250005287171,8|0,0:0|0:0,0:0:0:0:
304,236,69398,5,0,0:0:0:0:
348,328,69529,1,0,0:0:0:0:
336,128,69659,1,0,0:0:0:0:
236,300,69790,1,0,0:0:0:0:
432,212,69920,6,0,P|436:184|424:136,1,57.7500017623902,8|0,0:0|0:0,0:0:0:0:
264,68,70181,5,0,0:0:0:0:
400,72,70311,1,0,0:0:0:0:
212,216,70442,1,0,0:0:0:0:
308,64,70572,1,0,0:0:0:0:
312,304,70703,1,0,0:0:0:0:
228,112,70833,1,0,0:0:0:0:
392,172,70964,6,0,B|404:212|404:212|396:308|396:308|404:360,1,173.250005287171,8|0,0:0|0:0,0:0:0:0:
256,300,71485,6,0,L|248:256,1,28.8750008811951,0|0,0:0|0:0,0:0:0:0:
296,200,71616,2,0,L|316:172,1,28.8750008811951,0|0,0:0|0:0,0:0:0:0:
212,324,71746,2,2,P|180:332|136:320,1,57.7500017623902,0|0,0:0|0:0,0:0:0:0:
152,156,72007,5,0,0:0:0:0:
224,104,72137,2,0,P|256:100|292:112,1,57.7500017623902,0|0,0:0|0:0,0:0:0:0:
344,52,72398,5,0,0:0:0:0:
248,180,72529,2,0,B|236:208|236:208|248:236|248:236|228:272|244:352,1,173.250005287171,0|0,0:0|0:0,0:0:0:0:
332,192,73050,6,0,P|316:128|220:100,1,173.250005287171,8|0,0:0|0:0,0:0:0:0:
156,200,73572,6,0,P|120:216|88:216,1,57.7500017623902,0|0,0:0|0:0,0:0:0:0:
256,224,73833,2,0,P|260:252|248:288,1,57.7500017623902,0|0,0:0|0:0,0:0:0:0:
104,136,74094,2,0,P|100:108|112:68,1,57.7500017623902,0|0,0:0|0:0,0:0:0:0:
208,144,74355,6,0,P|240:148|272:144,1,57.7500017623902,0|0,0:0|0:0,0:0:0:0:
380,108,74616,2,0,P|376:40|376:108,1,202.125006168366,0|0,0:0|0:0,0:0:0:0:
408,156,75137,6,0,B|420:200|420:200|420:344,1,173.250005287171,8|0,0:0|0:0,0:0:0:0:
340,320,75659,6,0,L|340:264,5,38.5000011749268,0|0|0|0|0|0,0:0|0:0|0:0|0:0|0:0|0:0,0:0:0:0:
340,228,76181,1,2,0:0:0:0:
248,140,76311,6,0,L|252:108,1,28.8750008811951,0|0,0:0|0:0,0:0:0:0:
172,168,76442,2,0,L|152:132,1,28.8750008811951,0|0,0:0|0:0,0:0:0:0:
124,232,76572,2,0,L|68:208,1,57.7500017623902,0|0,0:0|0:0,0:0:0:0:
340,283,76834,6,0,L|384:300,1,28.8750008811951,0|0,0:0|0:0,0:0:0:0:
300,215,76964,2,0,L|264:220,1,28.8750008811951,0|0,0:0|0:0,0:0:0:0:
328,139,77094,2,0,L|376:156,1,28.8750008811951,0|0,0:0|0:0,0:0:0:0:
296,67,77224,6,0,L|120:92,1,173.250005287171,8|0,0:0|0:0,0:0:0:0:
148,252,77746,5,0,0:0:0:0:
244,120,77877,1,0,0:0:0:0:
124,60,78007,1,0,0:0:0:0:
240,220,78137,1,0,0:0:0:0:
320,156,78268,6,0,P|328:124|320:88,1,57.7500017623902,8|0,0:0|0:0,0:0:0:0:
400,188,78529,2,0,P|424:196|460:188,1,57.7500017623902,0|0,0:0|0:0,0:0:0:0:
360,272,78790,6,0,P|332:276|292:268,1,57.7500017623902,0|0,0:0|0:0,0:0:0:0:
216,292,79050,2,0,P|200:332|200:364,1,57.7500017623902,0|0,0:0|0:0,0:0:0:0:
256,188,79311,5,8,0:0:0:0:
240,168,79833,6,0,L|204:160,3,26.25,0|0|0|0,0:0|0:0|0:0|0:0,0:0:0:0:
136,160,80355,2,0,L|104:168,3,26.25,0|0|0|0,0:0|0:0|0:0|0:0,0:0:0:0:
180,92,80877,2,0,L|180:56,3,26.25,0|0|0|0,0:0|0:0|0:0|0:0,0:0:0:0:
215,161,81398,6,0,P|256:176|300:168,1,78.75,0|0,0:0|0:0,0:0:0:0:
368,156,81920,6,0,L|400:180,1,36.749998878479,0|0,0:0|0:0,0:0:0:0:
348,248,82181,2,0,L|360:300,1,47.2499985580445,0|0,0:0|0:0,0:0:0:0:
272,296,82442,2,0,L|260:356,1,57.7500017623902,0|0,0:0|0:0,0:0:0:0:
176,256,82703,6,0,P|168:224|176:176,1,57.7500017623902,0|0,0:0|0:0,0:0:0:0:
272,120,82964,2,0,P|280:144|276:192,1,57.7500017623902,0|0,0:0|0:0,0:0:0:0:
168,104,83224,2,0,P|164:72|176:36,1,57.7500017623902,0|0,0:0|0:0,0:0:0:0:
80,144,83485,6,0,B|64:220|64:220|64:332,1,173.250005287171,8|0,0:0|0:0,0:0:0:0:
248,184,84007,5,0,0:0:0:0:
144,332,84137,1,0,0:0:0:0:
284,200,84267,1,0,0:0:0:0:
152,184,84398,1,0,0:0:0:0:
280,320,84529,2,0,P|312:324|348:316,1,57.7500017623902,8|0,0:0|0:0,0:0:0:0:
424,212,84790,6,0,P|436:240|436:276,1,57.7500017623902,0|0,0:0|0:0,0:0:0:0:
252,236,85050,2,0,P|240:204|244:168,1,57.7500017623902,0|0,0:0|0:0,0:0:0:0:
332,92,85311,2,0,P|356:96|404:80,1,57.7500017623902,0|0,0:0|0:0,0:0:0:0:
248,104,85572,6,0,B|124:80|124:80|72:48,1,173.250005287171,8|0,0:0|0:0,0:0:0:0:
212,208,86094,5,0,0:0:0:0:
120,112,86224,1,0,0:0:0:0:
128,284,86355,1,0,0:0:0:0:
248,104,86485,1,0,0:0:0:0:
320,164,86616,6,0,P|332:196|324:240,1,57.7500017623902,8|0,0:0|0:0,0:0:0:0:
125,165,86877,2,0,P|117:125|124:96,1,57.7500017623902,0|0,0:0|0:0,0:0:0:0:
252,204,87137,5,0,0:0:0:0:
196,128,87268,1,0,0:0:0:0:
128,248,87398,2,0,P|120:280|132:316,1,57.7500017623902,0|0,0:0|0:0,0:0:0:0:
200,104,87659,6,0,B|128:80|60:84|60:84|84:92|104:104,1,173.250005287171,8|0,0:0|0:0,0:0:0:0:
132,168,88181,2,0,B|164:212|132:292|132:292|128:260|140:224,1,173.250005287171,0|0,0:0|0:0,0:0:0:0:
280,128,88703,6,0,P|284:92|276:64,1,57.7500017623902,8|0,0:0|0:0,0:0:0:0:
248,216,88964,2,0,P|276:224|316:216,1,57.7500017623902,0|0,0:0|0:0,0:0:0:0:
376,176,89224,2,0,P|412:164|444:168,1,57.7500017623902,0|0,0:0|0:0,0:0:0:0:
328,300,89485,2,0,P|284:308|248:296,1,57.7500017623902,0|0,0:0|0:0,0:0:0:0:
152,172,89746,6,0,B|160:240|160:240|152:232|152:232|168:292|152:344,1,173.250005287171,8|0,0:0|0:0,0:0:0:0:
276,192,90268,5,0,0:0:0:0:
60,228,90398,1,0,0:0:0:0:
224,104,90529,1,0,0:0:0:0:
200,280,90659,1,0,0:0:0:0:
92,124,90790,6,0,P|88:92|96:48,1,57.7500017623902,8|0,0:0|0:0,0:0:0:0:
224,104,91050,2,0,P|252:112|292:104,1,57.7500017623902,0|0,0:0|0:0,0:0:0:0:
356,68,91311,2,0,P|384:60|432:68,1,57.7500017623902,0|0,0:0|0:0,0:0:0:0:
208,204,91572,2,0,P|204:176|216:132,1,57.7500017623902,0|0,0:0|0:0,0:0:0:0:
392,140,91833,6,0,P|404:180|360:312,1,173.250005287171,8|0,0:0|0:0,0:0:0:0:
324,96,92355,5,0,0:0:0:0:
232,228,92485,1,0,0:0:0:0:
352,64,92616,1,0,0:0:0:0:
152,100,92746,1,0,0:0:0:0:
324,208,92877,6,0,P|356:216|404:200,1,57.7500017623902,8|0,0:0|0:0,0:0:0:0:
268,272,93137,2,0,P|260:300|264:344,1,57.7500017623902,0|0,0:0|0:0,0:0:0:0:
196,164,93398,2,0,P|204:196|200:232,1,57.7500017623902,0|0,0:0|0:0,0:0:0:0:
280,64,93659,2,0,P|268:104|272:136,1,57.7500017623902,0|0,0:0|0:0,0:0:0:0:
352,252,93920,6,0,B|400:264|456:252|456:252|436:232|392:248,1,173.250005287171,8|0,0:0|0:0,0:0:0:0:
196,164,94442,5,0,0:0:0:0:
404,160,94572,1,0,0:0:0:0:
276,220,94703,1,0,0:0:0:0:
396,48,94833,1,0,0:0:0:0:
268,200,94964,6,0,P|236:208|204:204,1,57.7500017623902,8|0,0:0|0:0,0:0:0:0:
108,112,95224,2,0,P|128:136|136:176,1,57.7500017623902,0|0,0:0|0:0,0:0:0:0:
104,244,95485,2,0,P|88:276|88:312,1,57.7500017623902,0|0,0:0|0:0,0:0:0:0:
214,205,95746,2,0,P|226:176|220:132,1,57.7500017623902,0|0,0:0|0:0,0:0:0:0:
328,68,96007,6,0,B|348:96|336:124|336:124|352:132|352:132|328:176|344:232,1,173.250005287171,2|0,0:0|0:0,0:0:0:0:
240,120,96529,6,0,L|176:112,1,57.7500017623902,0|0,0:0|0:0,0:0:0:0:
120,248,96790,2,0,L|168:188,1,57.7500017623902,0|0,0:0|0:0,0:0:0:0:
264,152,97050,2,0,L|280:220,1,57.7500017623902,0|0,0:0|0:0,0:0:0:0:
140,116,97311,2,0,L|136:44,1,57.7500017623902,0|0,0:0|0:0,0:0:0:0:
264,124,97572,6,0,L|332:128,1,57.7500017623902,0|0,0:0|0:0,0:0:0:0:
308,212,97833,2,0,L|372:232,1,57.7500017623902,0|0,0:0|0:0,0:0:0:0:
336,308,98094,2,0,L|396:348,1,57.7500017623902,0|0,0:0|0:0,0:0:0:0:
188,256,98355,5,2,0:0:0:0:
336,168,98485,1,2,0:0:0:0:
184,296,98616,1,2,0:0:0:0:
244,120,98746,5,2,0:0:0:0:
280,288,98877,1,2,0:0:0:0:
220,152,99007,1,2,0:0:0:0:
344,232,99137,6,0,P|364:244|344:224,1,86.6250026435853,2|0,0:0|0:0,0:0:0:0:
296,244,99398,2,0,P|272:256|300:248,1,86.6250026435853,2|0,0:0|0:0,0:0:0:0:
312,196,99659,2,0,B|360:152|340:104|340:104|292:120|288:192,1,202.125006168366,2|0,0:0|0:0,0:0:0:0:
252,220,100181,6,0,P|204:184|252:212,1,202.125006168366,2|0,0:0|0:0,0:0:0:0:
268,276,100703,6,0,B|268:300|268:300|260:336,1,57.7500017623902,0|0,0:0|0:0,0:0:0:0:
148,264,100964,2,0,B|120:256|120:256|80:256,1,57.7500017623902,0|0,0:0|0:0,0:0:0:0:
196,184,101225,6,0,B|208:160|208:160|212:116,1,57.7500017623902,0|0,0:0|0:0,0:0:0:0:
124,104,101485,2,0,B|120:76|120:76|124:32,1,57.7500017623902,0|0,0:0|0:0,0:0:0:0:
240,184,101746,6,0,P|276:192|308:184,1,57.7500017623902,0|0,0:0|0:0,0:0:0:0:
356,64,102007,2,0,P|344:104|348:140,1,57.7500017623902,0|0,0:0|0:0,0:0:0:0:
352,256,102268,2,0,P|360:292|384:320,1,57.7500017623902,0|0,0:0|0:0,0:0:0:0:
220,208,102529,6,0,B|212:204|212:204|172:220|116:192,1,78.7500030040742,0|0,0:0|0:0,0:0:0:0:
292,152,102790,5,2,0:0:0:0:
164,288,102920,1,2,0:0:0:0:
180,132,103050,1,2,0:0:0:0:
288,248,103181,6,0,B|284:264|284:264|304:304|284:348,1,78.7500030040742,0|0,0:0|0:0,0:0:0:0:
212,304,103442,5,2,0:0:0:0:
204,228,103572,1,2,0:0:0:0:
368,288,103703,1,2,0:0:0:0:
184,228,103833,6,0,B|172:188|172:188|204:172|188:148|176:128|164:88|192:44,1,173.250005287171,0|0,0:0|0:0,0:0:0:0:
264,136,104355,6,0,B|272:172|264:192|264:192|288:176|288:176|336:188|376:176,1,173.250005287171,2|0,0:0|0:0,0:0:0:0:
304,264,104877,6,0,P|292:296|292:320,1,57.7500017623902,0|0,0:0|0:0,0:0:0:0:
448,212,105137,2,0,P|456:184|452:152,1,57.7500017623902,0|0,0:0|0:0,0:0:0:0:
344,136,105398,6,0,P|304:140|276:128,1,57.7500017623902,0|0,0:0|0:0,0:0:0:0:
192,92,105659,2,0,P|204:124|204:164,1,57.7500017623902,0|0,0:0|0:0,0:0:0:0:
140,208,105920,6,0,P|100:212|72:200,1,57.7500017623902,0|0,0:0|0:0,0:0:0:0:
212,252,106181,2,0,P|212:288|204:312,1,57.7500017623902,0|0,0:0|0:0,0:0:0:0:
284,204,106442,2,0,P|288:168|276:128,1,57.7500017623902,0|0,0:0|0:0,0:0:0:0:
208,176,106703,5,2,0:0:0:0:
368,244,106833,2,0,B|392:256|392:256|472:256,1,78.7500030040742,0|0,0:0|0:0,0:0:0:0:
440,176,107094,5,2,0:0:0:0:
368,328,107224,1,2,0:0:0:0:
320,176,107355,1,2,0:0:0:0:
280,284,107485,6,0,B|256:304|240:280|240:280|172:308|108:276,1,173.250005287171,2|0,0:0|0:0,0:0:0:0:
148,176,108007,2,0,P|188:152|148:180,1,173.250005287171,2|0,0:0|0:0,0:0:0:0:
216,72,108529,6,0,B|256:64|256:64|284:76|284:76|344:56|396:80,1,173.250005287171,2|0,0:0|0:0,0:0:0:0:
404,156,109050,6,0,L|424:220,1,57.7500017623902,0|0,0:0|0:0,0:0:0:0:
344,240,109311,2,0,L|324:304,1,57.7500017623902,0|0,0:0|0:0,0:0:0:0:
248,272,109572,2,0,L|188:312,1,57.7500017623902,0|0,0:0|0:0,0:0:0:0:
148,240,109833,2,0,L|76:240,1,57.7500017623902,0|0,0:0|0:0,0:0:0:0:
192,148,110094,6,0,L|224:204,1,57.7500017623902,0|0,0:0|0:0,0:0:0:0:
296,160,110355,2,0,L|304:232,1,57.7500017623902,0|0,0:0|0:0,0:0:0:0:
384,104,110616,2,0,L|372:176,1,57.7500017623902,0|0,0:0|0:0,0:0:0:0:
424,244,110877,6,0,L|444:212,3,28.8750008811951,0|0|0|0,0:0|0:0|0:0|0:0,0:0:0:0:
420,276,111137,1,2,0:0:0:0:
296,160,111268,6,0,L|280:108,2,28.8750008811951,0|0|0,0:0|0:0|0:0,0:0:0:0:
260,272,111529,6,0,P|252:300|268:356,1,78.7500030040742,0|0,0:0|0:0,0:0:0:0:
332,308,111790,5,2,0:0:0:0:
320,184,111920,1,2,0:0:0:0:
200,272,112050,1,2,0:0:0:0:
396,224,112181,6,0,B|416:184|396:144|396:144|408:116|408:116|392:88|400:40,1,173.250005287171,2|0,0:0|0:0,0:0:0:0:
320,184,112703,5,2,0:0:0:0:
256,192,121050,12,0,127311,0:0:0:0:
320,124,129398,6,0,B|380:108|320:160|280:260|316:312|316:312|312:264|348:224,1,315,0|0,0:0|0:0,0:0:0:0:
412,172,131224,2,0,P|408:80|356:44,1,157.5,0|0,0:0|0:0,0:0:0:0:
340,128,132268,2,0,P|328:152|208:168,1,157.5,0|0,0:0|0:0,0:0:0:0:
260,104,133311,2,0,B|252:140|276:180|276:180|236:216|296:256|256:284|256:284|272:316|264:352,1,262.5,0|0,0:0|0:0,0:0:0:0:
356,192,135072,6,2,P|356:168|348:144,1,39.375,0|0,0:0|0:0,0:0:0:0:
332,112,135398,2,0,P|308:92|228:88,1,105,0|0,0:0|0:0,0:0:0:0:
152,120,136116,6,2,P|120:128|104:128,1,39.375,0|0,0:0|0:0,0:0:0:0:
68,136,136442,2,0,P|48:176|68:268,1,131.25,0|0,0:0|0:0,0:0:0:0:
152,204,137224,6,2,P|168:200|188:200,1,26.25,0|0,0:0|0:0,0:0:0:0:
216,208,137485,2,0,P|280:220|352:200,1,131.25,0|0,0:0|0:0,0:0:0:0:
444,128,138268,6,2,P|440:144|440:164,1,26.25,0|0,0:0|0:0,0:0:0:0:
440,200,138529,2,0,P|440:220|432:252,1,52.5,0|0,0:0|0:0,0:0:0:0:
296,304,139246,6,2,L|272:260,1,39.375,0|0,0:0|0:0,0:0:0:0:
256,232,139572,2,0,B|244:200|244:200|232:120,1,105,0|0,0:0|0:0,0:0:0:0:
84,68,140616,2,0,P|72:104|72:124,1,52.5,0|0,0:0|0:0,0:0:0:0:
160,112,141137,5,0,0:0:0:0:
196,196,141398,1,0,0:0:0:0:
128,256,141659,2,0,P|96:260|68:248,1,52.5,0|0,0:0|0:0,0:0:0:0:
108,172,142181,5,0,0:0:0:0:
196,304,142442,1,0,0:0:0:0:
288,204,142703,2,0,P|292:172|284:144,1,52.5,0|0,0:0|0:0,0:0:0:0:
256,148,143485,6,2,L|224:148,1,26.25,0|0,0:0|0:0,0:0:0:0:
184,148,143746,2,0,B|140:148|140:148|80:128,1,105,0|0,0:0|0:0,0:0:0:0:
144,192,144529,6,2,L|152:224,1,26.25,0|0,0:0|0:0,0:0:0:0:
172,256,144790,2,0,L|172:320,1,52.5,0|0,0:0|0:0,0:0:0:0:
272,260,145311,1,0,0:0:0:0:
360,320,145572,2,0,P|380:328|420:324,1,52.5,0|0,0:0|0:0,0:0:0:0:
464,220,146094,6,0,B|468:192|468:192|464:160,1,52.5,0|0,0:0|0:0,0:0:0:0:
320,104,146616,6,0,L|304:68,3,36.749998878479,0|0|0|0,0:0|0:0|0:0|0:0,0:0:0:0:
240,120,147137,2,0,L|224:80,3,36.749998878479,0|0|0|0,0:0|0:0|0:0|0:0,0:0:0:0:
164,140,147659,2,0,L|148:104,3,36.749998878479,0|0|0|0,0:0|0:0|0:0|0:0,0:0:0:0:
84,152,148181,6,0,B|76:204|76:204|80:272,1,110.249996635437,0|0,0:0|0:0,0:0:0:0:
160,244,148703,6,0,P|184:236|208:240,1,37.8000009228516,0|0,0:0|0:0,0:0:0:0:
276,256,148964,2,0,P|304:264|324:260,1,37.8000009228516,0|0,0:0|0:0,0:0:0:0:
392,244,149224,6,0,P|416:244|440:252,1,37.8000009228516,0|0,0:0|0:0,0:0:0:0:
360,204,149485,2,0,P|356:180|360:156,1,37.8000009228516,0|0,0:0|0:0,0:0:0:0:
392,92,149746,6,2,P|396:68|392:40,1,37.8000009228516,0|0,0:0|0:0,0:0:0:0:
312,64,150007,2,2,P|288:68|268:64,1,37.8000009228516,0|0,0:0|0:0,0:0:0:0:
196,56,150268,6,0,B|188:72|188:72|208:120|200:172,1,113.400002768555,0|0,0:0|0:0,0:0:0:0:
184,244,150790,6,0,L|176:288,3,38.8500009484863,0|0|0|0,0:0|0:0|0:0|0:0,0:0:0:0:
248,320,151312,6,2,P|272:324|304:320,1,38.8500009484863,0|0,0:0|0:0,0:0:0:0:
364,304,151573,2,2,P|392:300|420:304,1,38.8500009484863,0|0,0:0|0:0,0:0:0:0:
364,224,151834,6,0,L|372:176,3,38.8500009484863,0|0|0|0,0:0|0:0|0:0|0:0,0:0:0:0:
296,148,152355,6,0,L|316:32,1,116.550002845459,0|0,0:0|0:0,0:0:0:0:
232,64,152877,6,0,L|184:80,3,39.8999995129395,0|0|0|0,0:0|0:0|0:0|0:0,0:0:0:0:
200,164,153398,2,0,P|156:156|108:56,1,159.599998051758,0|0,0:0|0:0,0:0:0:0:
276,128,154181,1,0,0:0:0:0:
100,140,154442,2,0,P|84:112|80:52,1,79.7999990258789,0|0,0:0|0:0,0:0:0:0:
240,144,154964,6,0,L|252:196,3,40.9500013746644,0|0|0|0,0:0|0:0|0:0|0:0,0:0:0:0:
316,228,155485,2,0,L|316:280,3,40.9500013746644,0|0|0|0,0:0|0:0|0:0|0:0,0:0:0:0:
392,296,156007,2,2,L|404:340,3,40.9500013746644,0|0|0|0,0:0|0:0|0:0|0:0,0:0:0:0:
436,232,156529,6,0,P|408:220|324:256,1,122.850004123993,0|0,0:0|0:0,0:0:0:0:
292,176,157050,6,2,L|312:132,3,42,0|0|0|0,0:0|0:0|0:0|0:0,0:0:0:0:
364,76,157572,2,0,L|340:36,3,42,0|0|0|0,0:0|0:0|0:0|0:0,0:0:0:0:
264,72,158094,6,0,P|256:104|240:124,1,42,0|0,0:0|0:0,0:0:0:0:
200,176,158355,2,0,P|192:200|192:224,1,42,0|0,0:0|0:0,0:0:0:0:
248,284,158616,6,0,L|280:268,3,21.5250003284454,0|0|0|0,0:0|0:0|0:0|0:0,0:0:0:0:
292,240,158877,2,0,L|304:212,3,21.5250003284454,0|0|0|0,0:0|0:0|0:0|0:0,0:0:0:0:
324,184,159138,2,0,L|356:168,3,21.5250003284454,0|0|0|0,0:0|0:0|0:0|0:0,0:0:0:0:
380,156,159399,2,0,L|392:128,3,21.5250003284454,0|0|0|0,0:0|0:0|0:0|0:0,0:0:0:0:
384,92,159660,2,0,L|364:60,3,21.5250003284454,0|0|0|0,0:0|0:0|0:0|0:0,0:0:0:0:
332,64,159920,2,0,L|296:68,3,21.5250003284454,0|0|0|0,0:0|0:0|0:0|0:0,0:0:0:0:
276,92,160181,2,0,L|268:124,3,21.5250003284454,0|0|0|0,0:0|0:0|0:0|0:0,0:0:0:0:
264,156,160442,6,2,L|280:180,4,21.5250003284454,0|0|0|0|0,0:0|0:0|0:0|0:0|0:0,0:0:0:0:
292,200,161224,6,0,P|324:204|356:192,1,47.2499985580445,0|0,0:0|0:0,0:0:0:0:
216,64,161485,2,0,B|196:104|216:160|216:160|196:200|216:240|216:240|208:252|208:252|216:272|212:304,1,236.249992790222,0|0,0:0|0:0,0:0:0:0:
292,200,162268,6,0,P|300:160|296:136,1,47.2499985580445,0|0,0:0|0:0,0:0:0:0:
136,284,162529,1,2,0:0:0:0:
372,216,162790,6,0,B|384:168|376:132|376:132|380:112|380:112|368:72|384:24,1,173.250005287171,12|0,0:0|0:0,0:0:0:0:
272,140,163311,5,0,0:0:0:0:
448,160,163442,1,0,0:0:0:0:
344,56,163572,1,0,0:0:0:0:
296,248,163703,1,0,0:0:0:0:
192,176,163833,6,0,P|184:144|188:108,1,57.7500017623902,8|0,0:0|0:0,0:0:0:0:
344,56,164094,2,0,P|352:92|348:116,1,57.7500017623902,0|0,0:0|0:0,0:0:0:0:
312,192,164355,5,2,0:0:0:0:
220,276,164485,1,2,0:0:0:0:
400,300,164616,1,2,0:0:0:0:
272,92,164746,1,2,0:0:0:0:
176,176,164877,6,0,B|168:236|168:236|176:284|176:284|172:364,1,173.250005287171,8|0,0:0|0:0,0:0:0:0:
256,184,165398,6,0,P|252:148|236:120,1,57.7500017623902,0|0,0:0|0:0,0:0:0:0:
316,256,165659,2,0,P|352:264|388:252,1,57.7500017623902,0|0,0:0|0:0,0:0:0:0:
432,200,165920,2,0,P|436:164|428:132,1,57.7500017623902,8|0,0:0|0:0,0:0:0:0:
368,92,166181,2,0,P|340:88|308:64,1,57.7500017623902,0|0,0:0|0:0,0:0:0:0:
288,220,166442,5,2,0:0:0:0:
396,112,166572,1,2,0:0:0:0:
388,332,166703,1,2,0:0:0:0:
312,136,166833,1,2,0:0:0:0:
444,200,166964,6,0,B|464:252|464:252|476:376,1,173.250005287171,8|0,0:0|0:0,0:0:0:0:
260,140,167485,5,0,0:0:0:0:
416,200,167616,1,0,0:0:0:0:
224,324,167746,1,0,0:0:0:0:
315,72,167877,1,0,0:0:0:0:
484,156,168007,6,0,P|496:188|495:220,1,57.7500017623902,8|0,0:0|0:0,0:0:0:0:
248,176,168268,5,0,0:0:0:0:
356,60,168398,1,0,0:0:0:0:
236,196,168529,2,0,P|204:204|172:200,1,57.7500017623902
380,40,168790,2,0,P|420:36|448:44,1,57.7500017623902
268,96,169050,6,0,L|88:96,1,173.250005287171,8|0,0:0|0:0,0:0:0:0:
164,180,169572,5,0,0:0:0:0:
260,264,169703,1,0,0:0:0:0:
100,232,169833,2,0,P|84:192|84:168,1,57.7500017623902
272,276,170094,6,0,P|308:280|344:264,1,57.7500017623902,8|0,0:0|0:0,0:0:0:0:
392,200,170355,2,0,P|424:184|468:184,1,57.7500017623902,0|0,0:0|0:0,0:0:0:0:
300,168,170616,2,0,P|280:136|280:96,1,57.7500017623902
320,40,170877,2,0,P|352:32|392:40,1,57.7500017623902
312,212,171137,6,0,B|276:228|240:212|240:212|128:212,1,173.250005287171,8|0,0:0|0:0,0:0:0:0:
104,304,171659,5,0,0:0:0:0:
276,140,171790,1,0,0:0:0:0:
232,304,171920,1,0,0:0:0:0:
212,64,172050,1,0,0:0:0:0:
368,224,172181,5,8,0:0:0:0:
120,152,172311,1,0,0:0:0:0:
440,144,172442,1,0,0:0:0:0:
72,252,172572,1,0,0:0:0:0:
276,140,172703,6,2,B|304:136|304:136|356:136,1,57.7500017623902,0|0,0:0|0:0,0:0:0:0:
444,172,172964,1,2,0:0:0:0:
300,56,173094,1,2,0:0:0:0:
432,184,173224,2,0,B|456:236|456:308|456:308|440:292|440:252,1,173.250005287171,8|0,0:0|0:0,0:0:0:0:
340,172,173746,6,0,P|348:136|368:116,1,57.7500017623902,0|0,0:0|0:0,0:0:0:0:
252,244,174007,2,0,P|224:248|180:240,1,57.7500017623902,0|0,0:0|0:0,0:0:0:0:
84,152,174268,6,0,P|88:184|80:212,1,57.7500017623902,8|0,0:0|0:0,0:0:0:0:
220,164,174529,2,0,P|244:132|248:104,1,57.7500017623902,0|0,0:0|0:0,0:0:0:0:
168,104,174790,5,2,0:0:0:0:
252,244,174920,1,2,0:0:0:0:
340,132,175050,1,2,0:0:0:0:
124,184,175181,1,2,0:0:0:0:
272,268,175311,6,0,B|392:268|392:268|328:252,1,173.250005287171,8|0,0:0|0:0,0:0:0:0:
92,152,175833,5,0,0:0:0:0:
396,184,175964,1,0,0:0:0:0:
124,184,176094,1,0,0:0:0:0:
428,148,176224,1,0,0:0:0:0:
208,292,176355,5,8,0:0:0:0:
264,60,176485,1,0,0:0:0:0:
388,220,176616,1,0,0:0:0:0:
136,144,176746,1,0,0:0:0:0:
372,240,176877,6,2,P|388:276|388:308,1,57.7500017623902,0|0,0:0|0:0,0:0:0:0:
168,140,177137,1,2,0:0:0:0:
308,292,177267,1,2,0:0:0:0:
96,192,177398,2,0,P|84:120|159:51,1,173.250005287171,8|0,0:0|0:0,0:0:0:0:
208,112,177920,5,0,0:0:0:0:
248,204,178050,1,0,0:0:0:0:
344,108,178181,1,0,0:0:0:0:
96,192,178311,1,0,0:0:0:0:
224,280,178442,6,0,P|256:284|296:268,1,57.7500017623902,8|0,0:0|0:0,0:0:0:0:
276,136,178703,5,0,0:0:0:0:
364,328,178833,1,0,0:0:0:0:
128,144,178964,1,2,0:0:0:0:
400,176,179094,1,2,0:0:0:0:
172,220,179224,1,2,0:0:0:0:
272,44,179355,1,2,0:0:0:0:
424,184,179485,6,0,B|440:244|440:244|444:364,1,173.250005287171,12|0,0:0|0:0,0:0:0:0:
312,280,180007,6,0,L|276:276,1,28.8750008811951,0|0,0:0|0:0,0:0:0:0:
264,240,180137,2,0,L|236:220,1,28.8750008811951,0|0,0:0|0:0,0:0:0:0:
240,184,180268,2,0,L|228:156,1,28.8750008811951,0|0,0:0|0:0,0:0:0:0:
256,128,180398,2,0,L|256:80,1,28.8750008811951,0|0,0:0|0:0,0:0:0:0:
340,48,180529,6,2,P|356:88|352:120,1,57.7500017623902,0|0,0:0|0:0,0:0:0:0:
312,280,180790,6,0,L|276:276,1,28.8750008811951,0|0,0:0|0:0,0:0:0:0:
264,240,180920,2,0,L|232:216,1,28.8750008811951,0|0,0:0|0:0,0:0:0:0:
292,156,181050,6,0,L|316:132,1,28.8750008811951,0|0,0:0|0:0,0:0:0:0:
352,144,181181,2,0,L|384:128,1,28.8750008811951,0|0,0:0|0:0,0:0:0:0:
432,220,181311,6,2,P|436:240|424:220,1,57.7500017623902,0|0,0:0|0:0,0:0:0:0:
292,156,181572,6,0,B|280:96|280:96|288:44|288:44|300:108,1,173.250005287171,8|0,0:0|0:0,0:0:0:0:
208,156,182094,6,0,L|144:172,1,57.7500017623902,0|0,0:0|0:0,0:0:0:0:
124,248,182355,2,0,L|76:288,1,57.7500017623902,0|0,0:0|0:0,0:0:0:0:
60,200,182616,6,0,L|60:132,1,57.7500017623902,0|0,0:0|0:0,0:0:0:0:
140,124,182877,2,0,L|168:64,1,57.7500017623902,0|0,0:0|0:0,0:0:0:0:
188,236,183137,5,2,0:0:0:0:
280,72,183268,1,2,0:0:0:0:
216,264,183398,1,2,0:0:0:0:
240,92,183529,1,2,0:0:0:0:
312,188,183659,6,0,B|320:248|320:248|308:308|308:308|312:384,1,173.250005287171,8|0,0:0|0:0,0:0:0:0:
216,264,184181,6,0,L|172:256,1,28.8750008811951,0|0,0:0|0:0,0:0:0:0:
260,192,184311,2,0,L|292:192,1,28.8750008811951,0|0,0:0|0:0,0:0:0:0:
216,124,184442,2,0,L|176:116,1,28.8750008811951,0|0,0:0|0:0,0:0:0:0:
256,56,184572,6,2,L|336:56,1,57.7500017623902,0|0,0:0|0:0,0:0:0:0:
376,188,184833,6,0,L|364:224,1,28.8750008811951,0|0,0:0|0:0,0:0:0:0:
424,272,184963,2,0,L|428:312,1,28.8750008811951,0|0,0:0|0:0,0:0:0:0:
352,320,185094,6,2,L|284:336,1,57.7500017623902,0|0,0:0|0:0,0:0:0:0:
180,240,185355,6,0,L|160:208,1,28.8750008811951,0|0,0:0|0:0,0:0:0:0:
184,140,185485,2,0,L|196:104,1,28.8750008811951,0|0,0:0|0:0,0:0:0:0:
124,80,185616,2,0,L|112:40,1,28.8750008811951,0|0,0:0|0:0,0:0:0:0:
84,156,185746,6,0,B|76:208|76:208|76:332,1,173.250005287171,8|0,0:0|0:0,0:0:0:0:
156,208,186268,2,0,B|164:144,1,57.7500017623902,0|0,0:0|0:0,0:0:0:0:
264,128,186529,5,2,0:0:0:0:
120,84,186659,1,2,0:0:0:0:
244,208,186790,2,0,P|272:212|316:192,1,57.7500017623902,8|0,0:0|0:0,0:0:0:0:
392,56,187050,6,0,P|380:88|380:120,1,57.7500017623902,0|0,0:0|0:0,0:0:0:0:
436,172,187311,2,0,P|440:200|424:248,1,57.7500017623902,0|0,0:0|0:0,0:0:0:0:
372,280,187572,2,0,P|364:312|372:356,1,57.7500017623902,0|0,0:0|0:0,0:0:0:0:
356,200,187833,6,0,B|312:188|312:188|184:180,1,173.250005287171,8|0,0:0|0:0,0:0:0:0:
92,272,188355,6,0,L|56:292,1,28.8750008811951,0|0,0:0|0:0,0:0:0:0:
156,316,188485,2,0,L|164:352,1,28.8750008811951,0|0,0:0|0:0,0:0:0:0:
208,256,188615,2,2,L|216:184,1,57.7500017623902,0|0,0:0|0:0,0:0:0:0:
176,96,188877,5,0,0:0:0:0:
320,176,189007,2,0,P|360:184|400:172,1,57.7500017623902,0|0,0:0|0:0,0:0:0:0:
408,96,189268,5,0,0:0:0:0:
240,168,189398,2,0,B|228:200|228:200|244:224|228:256|228:256|240:288|232:336,1,173.250005287171,0|0,0:0|0:0,0:0:0:0:
148,176,189920,6,0,B|200:60|200:60|192:120,1,173.250005287171,8|0,0:0|0:0,0:0:0:0:
88,120,190442,6,0,P|48:116|24:96,1,57.7500017623902,0|0,0:0|0:0,0:0:0:0:
148,176,190703,2,0,P|164:220|160:256,1,57.7500017623902,0|0,0:0|0:0,0:0:0:0:
124,304,190964,2,0,P|84:312|56:304,1,57.7500017623902,0|0,0:0|0:0,0:0:0:0:
212,208,191224,2,0,P|244:204|280:216,1,57.7500017623902,0|0,0:0|0:0,0:0:0:0:
344,296,191485,6,0,B|424:332|424:332|356:268,1,173.250005287171,0|0,0:0|0:0,0:0:0:0:
260,300,192007,6,0,B|224:316|224:316|84:316,1,173.250005287171,8|0,0:0|0:0,0:0:0:0:
56,232,192529,6,0,L|104:232,5,38.5000011749268,0|0|0|0|0|0,0:0|0:0|0:0|0:0|0:0|0:0,0:0:0:0:
132,208,193050,1,2,0:0:0:0:
224,128,193181,6,0,L|232:80,1,28.8750008811951,0|0,0:0|0:0,0:0:0:0:
304,112,193312,2,0,L|320:68,1,28.8750008811951,0|0,0:0|0:0,0:0:0:0:
388,108,193442,2,0,L|424:60,1,57.7500017623902,0|0,0:0|0:0,0:0:0:0:
190,264,193704,6,0,L|144:268,1,28.8750008811951,0|0,0:0|0:0,0:0:0:0:
286,224,193834,2,0,L|328:220,1,28.8750008811951,0|0,0:0|0:0,0:0:0:0:
158,216,193964,2,0,L|120:200,1,28.8750008811951,0|0,0:0|0:0,0:0:0:0:
328,256,194094,6,0,B|360:300|368:356|368:356|338:328|336:288,1,173.250005287171,8|0,0:0|0:0,0:0:0:0:
232,192,194616,6,0,P|228:152|236:116,1,57.7500017623902,0|0,0:0|0:0,0:0:0:0:
428,120,194877,5,2,0:0:0:0:
308,160,195007,1,2,0:0:0:0:
368,68,195137,2,0,P|392:48|440:44,1,57.7500017623902,8|0,0:0|0:0,0:0:0:0:
308,160,195398,2,0,P|272:164|236:152,1,57.7500017623902,0|0,0:0|0:0,0:0:0:0:
184,116,195659,2,0,P|144:96|108:100,1,57.7500017623902,0|0,0:0|0:0,0:0:0:0:
64,144,195920,2,0,P|56:172|60:204,1,57.7500017623902,0|0,0:0|0:0,0:0:0:0:
280,84,196181,5,8,0:0:0:0:
348,220,196703,6,0,L|360:252,3,26.25,0|0|0|0,0:0|0:0|0:0|0:0,0:0:0:0:
276,176,197225,2,0,L|264:212,3,26.25,0|0|0|0,0:0|0:0|0:0|0:0,0:0:0:0:
196,120,197747,2,0,L|200:156,3,26.25,0|0|0|0,0:0|0:0|0:0|0:0,0:0:0:0:
116,128,198268,6,0,B|120:172|120:172|116:212,1,78.75,0|0,0:0|0:0,0:0:0:0:
88,280,198790,6,0,L|56:320,1,36.749998878479,0|0,0:0|0:0,0:0:0:0:
200,280,199050,2,0,L|160:312,1,47.2499985580445,0|0,0:0|0:0,0:0:0:0:
320,316,199311,2,0,L|256:332,1,57.7500017623902,0|0,0:0|0:0,0:0:0:0:
380,256,199572,6,0,P|396:276|404:316,1,57.7500017623902,0|0,0:0|0:0,0:0:0:0:
248,232,199833,2,0,P|228:200|228:168,1,57.7500017623902,0|0,0:0|0:0,0:0:0:0:
158,309,200094,2,0,P|130:321|92:320,1,57.7500017623902,0|0,0:0|0:0,0:0:0:0:
156,140,200355,6,0,P|208:104|304:160,1,173.250005287171,12|0,0:0|0:0,0:0:0:0:
340,220,200877,5,0,0:0:0:0:
380,296,201007,1,0,0:0:0:0:
266,259,201137,1,0,0:0:0:0:
226,180,201268,1,0,0:0:0:0:
300,104,201398,6,0,P|324:92|368:96,1,57.7500017623902,8|0,0:0|0:0,0:0:0:0:
420,140,201659,2,0,P|436:108|432:72,1,57.7500017623902,0|0,0:0|0:0,0:0:0:0:
344,172,201920,2,0,P|352:200|348:240,1,57.7500017623902,0|0,0:0|0:0,0:0:0:0:
220,132,202181,2,0,P|216:96|232:52,1,57.7500017623902,0|0,0:0|0:0,0:0:0:0:
272,212,202442,6,0,B|228:232|228:232|96:232,1,173.250005287171,8|0,0:0|0:0,0:0:0:0:
184,272,202964,2,0,L|204:332,1,57.7500017623902,0|0,0:0|0:0,0:0:0:0:
280,296,203224,5,2,0:0:0:0:
168,184,203355,1,2,0:0:0:0:
300,308,203485,2,0,P|336:320|376:312,1,57.7500017623902,8|0,0:0|0:0,0:0:0:0:
428,284,203746,6,0,P|440:256|436:208,1,57.7500017623902,0|0,0:0|0:0,0:0:0:0:
432,144,204007,2,0,P|436:116|452:80,1,57.7500017623902,0|0,0:0|0:0,0:0:0:0:
372,132,204268,2,0,P|340:140|304:132,1,57.7500017623902,0|0,0:0|0:0,0:0:0:0:
212,60,204529,6,0,B|224:112|224:112|220:156|220:156|228:192|228:192|224:248,1,173.250005287171,8|0,0:0|0:0,0:0:0:0:
316,128,205050,5,0,0:0:0:0:
132,192,205181,1,0,0:0:0:0:
284,232,205311,1,0,0:0:0:0:
160,88,205442,1,0,0:0:0:0:
288,248,205572,6,0,P|304:276|308:320,1,57.7500017623902,0|0,0:0|0:0,0:0:0:0:
344,124,205833,2,0,P|336:152|340:192,1,57.7500017623902,0|0,0:0|0:0,0:0:0:0:
424,116,206094,6,0,L|456:60,1,57.7500017623902,0|0,0:0|0:0,0:0:0:0:
364,264,206355,2,0,P|332:268|300:260,1,57.7500017623902,0|0,0:0|0:0,0:0:0:0:
256,196,206616,6,0,B|228:204|204:192|204:192|188:208|188:208|168:188|144:184|144:184|112:196|84:184,1,173.250005287171,8|0,0:0|0:0,0:0:0:0:
108,112,207137,5,0,0:0:0:0:
92,280,207268,1,0,0:0:0:0:
80,92,207398,1,0,0:0:0:0:
160,220,207529,1,0,0:0:0:0:
248,132,207659,6,0,P|256:100|248:56,1,57.7500017623902,8|0,0:0|0:0,0:0:0:0:
324,160,207920,2,0,P|356:168|396:156,1,57.7500017623902,0|0,0:0|0:0,0:0:0:0:
456,60,208181,6,0,P|444:96|444:128,1,57.7500017623902,0|0,0:0|0:0,0:0:0:0:
432,248,208442,2,0,P|396:260|360:256,1,57.7500017623902,0|0,0:0|0:0,0:0:0:0:
288,236,208703,6,0,B|232:212|160:232|160:232|176:208|208:212,1,173.250005287171,8|0,0:0|0:0,0:0:0:0:
244,136,209224,5,0,0:0:0:0:
348,168,209355,1,0,0:0:0:0:
128,180,209485,1,0,0:0:0:0:
168,80,209616,1,0,0:0:0:0:
288,236,209746,6,0,P|296:276|288:308,1,57.7500017623902,8|0,0:0|0:0,0:0:0:0:
128,180,210007,2,0,P|128:140|136:112,1,57.7500017623902,0|0,0:0|0:0,0:0:0:0:
204,228,210268,6,0,P|172:260|140:268,1,57.7500017623902,0|0,0:0|0:0,0:0:0:0:
216,80,210529,2,0,P|252:64|288:68,1,57.7500017623902,0|0,0:0|0:0,0:0:0:0:
392,88,210790,6,0,B|384:144|384:144|396:216|396:216|400:164,1,173.250005287171,8|0,0:0|0:0,0:0:0:0:
468,120,211311,2,0,L|476:48,1,57.7500017623902,0|0,0:0|0:0,0:0:0:0:
328,136,211572,5,2,0:0:0:0:
344,288,211703,1,2,0:0:0:0:
400,172,211833,2,0,P|408:132|400:100,1,57.7500017623902,8|0,0:0|0:0,0:0:0:0:
328,136,212094,2,0,P|288:136|252:116,1,57.7500017623902,0|0,0:0|0:0,0:0:0:0:
188,64,212355,6,0,P|196:100|188:132,1,57.7500017623902,0|0,0:0|0:0,0:0:0:0:
168,200,212616,2,0,P|164:228|172:272,1,57.7500017623902,0|0,0:0|0:0,0:0:0:0:
88,176,212877,6,0,P|40:156|88:184,1,173.250005287171,2|0,0:0|0:0,0:0:0:0:
197,117,213398,6,0,B|229:109|229:109|272:108,1,57.7500017623902,0|0,0:0|0:0,0:0:0:0:
332,144,213659,2,0,B|368:144|368:144|412:132,1,57.7500017623902,0|0,0:0|0:0,0:0:0:0:
264,188,213920,6,0,B|256:212|256:212|256:256,1,57.7500017623902,0|0,0:0|0:0,0:0:0:0:
336,276,214181,2,0,B|340:300|340:300|332:352,1,57.7500017623902,0|0,0:0|0:0,0:0:0:0:
176,252,214442,6,0,B|148:252|148:252|104:240,1,57.7500017623902,0|0,0:0|0:0,0:0:0:0:
100,164,214703,2,0,B|68:156|68:156|28:160,1,57.7500017623902,0|0,0:0|0:0,0:0:0:0:
208,148,214964,6,0,B|212:116|212:116|208:80,1,57.7500017623902,0|0,0:0|0:0,0:0:0:0:
128,88,215224,5,2,0:0:0:0:
232,272,215355,1,2,0:0:0:0:
148,220,215485,1,2,0:0:0:0:
256,172,215616,5,2,0:0:0:0:
328,256,215746,1,2,0:0:0:0:
264,136,215877,1,2,0:0:0:0:
340,272,216007,6,0,P|364:264|336:268,1,86.6250026435853,2|0,0:0|0:0,0:0:0:0:
284,284,216268,2,0,P|280:316|292:288,1,86.6250026435853,2|0,0:0|0:0,0:0:0:0:
288,236,216529,2,0,P|272:180|280:244,1,202.125006168366,2|0,0:0|0:0,0:0:0:0:
332,232,217050,6,0,B|344:200|344:200|332:164|332:164|352:112|328:64,1,173.250005287171,2|0,0:0|0:0,0:0:0:0:
248,116,217572,6,0,L|188:140,1,57.7500017623902,0|0,0:0|0:0,0:0:0:0:
132,84,217833,2,0,L|72:56,1,57.7500017623902,0|0,0:0|0:0,0:0:0:0:
80,156,218094,6,0,L|56:232,1,57.7500017623902,0|0,0:0|0:0,0:0:0:0:
148,232,218355,2,0,L|152:296,1,57.7500017623902,0|0,0:0|0:0,0:0:0:0:
212,156,218616,6,0,L|136:132,1,57.7500017623902,0|0,0:0|0:0,0:0:0:0:
256,252,218877,2,0,L|272:332,1,57.7500017623902,0|0,0:0|0:0,0:0:0:0:
304,156,219137,2,0,L|324:80,1,57.7500017623902,0|0,0:0|0:0,0:0:0:0:
224,232,219398,6,0,B|208:240|208:240|116:240,1,78.7500030040742,0|0,0:0|0:0,0:0:0:0:
267,305,219659,5,2,0:0:0:0:
332,232,219790,1,2,0:0:0:0:
372,332,219920,1,2,0:0:0:0:
448,240,220050,6,0,B|456:224|456:224|456:144,1,78.7500030040742,0|0,0:0|0:0,0:0:0:0:
368,148,220311,5,2,0:0:0:0:
304,224,220442,1,2,0:0:0:0:
368,300,220572,1,2,0:0:0:0:
272,200,220703,6,0,B|260:168|264:152|276:152|260:132|260:132|276:104|248:60|272:24,1,173.250005287171,0|0,0:0|0:0,0:0:0:0:
352,152,221224,6,0,P|408:128|348:140,1,173.250005287171,2|0,0:0|0:0,0:0:0:0:
272,200,221746,6,0,B|272:224|272:224|284:272,1,57.7500017623902,0|0,0:0|0:0,0:0:0:0:
360,284,222007,2,0,B|372:304|372:304|380:364,1,57.7500017623902,0|0,0:0|0:0,0:0:0:0:
404,200,222268,6,0,B|436:200|436:200|476:216,1,57.7500017623902,0|0,0:0|0:0,0:0:0:0:
384,116,222529,2,0,B|372:84|372:84|372:40,1,57.7500017623902,0|0,0:0|0:0,0:0:0:0:
304,148,222790,6,0,B|272:144|272:144|240:128,1,57.7500017623902,0|0,0:0|0:0,0:0:0:0:
188,80,223050,2,0,B|160:60|160:60|120:48,1,57.7500017623902,0|0,0:0|0:0,0:0:0:0:
56,120,223311,6,0,B|48:148|48:148|48:200,1,57.7500017623902,0|0,0:0|0:0,0:0:0:0:
176,276,223572,5,2,0:0:0:0:
252,216,223703,2,0,P|268:188|260:128,1,78.7500030040742,0|0,0:0|0:0,0:0:0:0:
188,164,223964,5,2,0:0:0:0:
176,276,224094,1,2,0:0:0:0:
288,292,224224,1,2,0:0:0:0:
352,208,224355,6,0,B|348:176|348:176|368:144|352:120|352:120|368:100|368:100|352:60|368:28,1,173.250005287171,2|0,0:0|0:0,0:0:0:0:
272,152,224877,6,0,P|212:156|272:144,1,173.250005287171,2|0,0:0|0:0,0:0:0:0:
356,268,225398,6,0,B|320:280|320:280|284:276|284:276|244:284|244:284|208:280|208:280|168:284,1,173.250005287171,2|0,0:0|0:0,0:0:0:0:
352,188,225920,6,0,P|356:152|340:112,1,57.7500017623902,0|0,0:0|0:0,0:0:0:0:
432,80,226181,2,0,P|444:112|444:152,1,57.7500017623902,0|0,0:0|0:0,0:0:0:0:
432,216,226442,2,0,P|432:244|440:280,1,57.7500017623902,0|0,0:0|0:0,0:0:0:0:
372,324,226703,2,0,P|340:312|304:312,1,57.7500017623902,0|0,0:0|0:0,0:0:0:0:
180,232,226964,6,0,P|176:196|188:160,1,57.7500017623902,0|0,0:0|0:0,0:0:0:0:
128,308,227224,2,0,P|84:308|60:296,1,57.7500017623902,0|0,0:0|0:0,0:0:0:0:
260,212,227485,2,0,P|260:252|240:288,1,57.7500017623902,0|0,0:0|0:0,0:0:0:0:
144,136,227746,6,0,L|128:100,3,28.8750008811951,0|0|0|0,0:0|0:0|0:0|0:0,0:0:0:0:
184,152,228006,1,2,0:0:0:0:
148,272,228137,6,0,L|124:308,2,28.8750008811951,0|0|0,0:0|0:0|0:0,0:0:0:0:
260,192,228398,6,0,P|268:164|260:112,1,78.7500030040742,0|0,0:0|0:0,0:0:0:0:
140,68,228659,5,2,0:0:0:0:
148,272,228789,1,2,0:0:0:0:
184,152,228919,1,2,0:0:0:0:
260,272,229050,6,0,B|284:284|320:276|320:276|352:288|352:288|404:272|448:296,1,173.250005287171,2|0,0:0|0:0,0:0:0:0:
292,196,229572,5,2,0:0:0:0:
