osu file format v14

[General]
AudioFilename: audio.mp3
AudioLeadIn: 0
PreviewTime: -1
Countdown: 1
SampleSet: None
StackLeniency: 0.7
Mode: 0
LetterboxInBreaks: 0
WidescreenStoryboard: 0

[Editor]
Bookmarks: 6912,7303,7825,8346,81390
DistanceSpacing: 1.5
BeatDivisor: 4
GridSize: 8
TimelineZoom: 2.7

[Metadata]
Title:Break Through
TitleUnicode:Break Through
Artist:Nasko
ArtistUnicode:Nasko
Creator:Emukko
Version:Redemption
Source:
Tags:
BeatmapID:1943655
BeatmapSetID:930764

[Difficulty]
HPDrainRate:6
CircleSize:4.2
OverallDifficulty:7
ApproachRate:9
SliderMultiplier:1.7
SliderTickRate:1

[Events]
//Background and Video events
0,0,"41ef36b1613a06b53bd96e89b3a9dc8a.png",0,0
//Break Periods
//Storyboard Layer 0 (Background)
//Storyboard Layer 1 (Fail)
//Storyboard Layer 2 (Pass)
//Storyboard Layer 3 (Foreground)
//Storyboard Sound Samples

[TimingPoints]
-1.036,521.739130434783,4,1,0,10,1,0
7303,-100,4,1,0,25,0,0
7825,-100,4,1,0,50,0,0
8346,-100,4,1,0,75,0,0
31825,-66.6666666666667,4,1,0,75,0,0
43825,-133.333333333333,4,1,0,75,0,0
44346,-50,4,1,0,75,0,0
44607,-133.333333333333,4,1,0,75,0,0
44672,-50,4,1,0,75,0,0
45325,-133.333333333333,4,1,0,75,0,0
45651,-50,4,1,0,75,0,0
45912,-66.6666666666667,4,1,0,75,0,1
47998,-133.333333333333,4,1,0,75,0,1
48520,-66.6666666666667,4,1,0,75,0,1
52172,-100,4,1,0,75,0,1
53477,-66.6666666666667,4,1,0,75,0,1
53738,-50,4,1,0,75,0,1
53998,-40,4,1,0,75,0,1
54259,-86.9565217391304,4,1,0,75,0,1
56346,-133.333333333333,4,1,0,75,0,1
56738,-86.9565217391304,4,1,0,75,0,1
58433,-133.333333333333,4,1,0,75,0,1
58825,-86.9565217391303,4,1,0,75,0,1
60520,-133.333333333333,4,1,0,75,0,1
63651,-66.6666666666667,4,1,0,75,0,1
70955,-133.333333333333,4,1,0,75,0,1
71477,-86.9565217391304,4,1,0,75,0,1
73042,-45.4545454545455,4,1,0,75,0,1
73564,-100,4,1,0,75,0,1
73825,-111.111111111111,4,1,0,75,0,1
74085,-125,4,1,0,75,0,1
74346,-142.857142857143,4,1,0,75,0,1
74607,-166.666666666667,4,1,0,75,0,1
75129,-66.6666666666667,4,1,0,75,0,1
77216,-133.333333333333,4,1,0,75,0,1
77738,-86.9565217391303,4,1,0,75,0,1
79303,-86.9565217391303,4,1,0,15,0,0
80346,-86.9565217391303,4,1,0,30,0,0
80868,-86.9565217391303,4,1,0,60,0,0
82433,-86.9565217391303,4,1,0,75,0,0
82955,-66.6666666666667,4,1,0,85,0,1
85564,-133.333333333333,4,1,0,75,0,1
86085,-86.9565217391303,4,1,0,75,0,1
86868,-66.6666666666667,4,1,0,75,0,1
87129,-57.1428571428571,4,1,0,75,0,1
87390,-50,4,1,0,75,0,1
87651,-86.9565217391304,4,1,0,75,0,1
95998,-66.6666666666667,4,1,0,75,0,1
96520,-86.9565217391304,4,1,0,75,0,1
99129,-66.6666666666667,4,1,0,75,0,1
100172,-43.4782608695652,4,1,0,75,0,1
100825,-86.9565217391304,4,1,0,75,0,1
102520,-42.5531914893617,4,1,0,75,0,1
104868,-86.9565217391304,4,1,0,75,0,1
107477,-133.333333333333,4,1,0,75,0,1
107998,-66.6666666666667,4,1,0,75,0,1
108520,-133.333333333333,4,1,0,75,0,1

[HitObjects]
288,112,520,6,0,L|240:80,1,42.5
88,120,781,2,0,L|144:144,1,42.5
248,224,1042,2,0,L|192:240,3,42.5
48,264,1564,2,0,L|72:216,1,42.5
216,88,1825,2,0,L|192:160,1,42.5
64,152,2085,6,0,P|112:200|184:184,1,127.5
304,64,2607,1,0,0:0:0:0:
424,64,2738,1,0,0:0:0:0:
304,64,2868,2,0,L|264:96,1,42.5
384,240,3129,1,0,0:0:0:0:
264,240,3260,1,0,0:0:0:0:
384,240,3390,2,0,L|424:208,1,42.5
128,248,3651,2,0,L|80:264,1,42.5
8,104,3912,2,0,L|32:152,1,42.5
144,80,4172,6,0,P|200:80|240:144,1,127.5
328,176,4694,6,0,L|376:160,3,42.5
312,304,5216,2,0,L|264:288,3,42.5
432,232,5738,2,0,L|464:192,1,42.5
328,40,5998,2,0,L|376:56,1,42.5
320,224,6259,2,0,P|256:208|224:144,1,127.5
72,144,6781,1,0,0:0:0:0:
208,176,6912,1,0,0:0:0:0:
168,96,7042,1,0,0:0:0:0:
128,208,7172,1,0,0:0:0:0:
224,304,7303,6,0,L|288:328,1,42.5
360,200,7564,2,0,L|392:160,1,42.5
184,72,7825,2,0,L|224:104,1,42.5
88,288,8085,2,0,L|136:240,1,42.5
256,192,8346,12,0,12520,0:0:0:0:
256,192,14085,5,0,0:0:0:0:
232,328,14346,2,0,B|192:288|165:205|136:328|81:346|-8:240,1,255
280,56,15390,2,0,B|320:96|346:178|376:56|430:37|520:144,1,255
400,336,16433,2,0,B|400:288|424:240|368:288|330:333|245:275|216:272|224:232|272:112|240:112|176:32|152:24,1,425
128,224,18259,5,0,0:0:0:0:
128,112,18520,2,0,L|392:112,1,255
368,208,19564,2,0,L|112:328,1,255
56,272,20607,2,0,L|56:96,1,170
224,128,21390,1,0,0:0:0:0:
56,102,21651,1,0,0:0:0:0:
408,152,22433,6,0,L|432:200,1,42.5
416,288,22694,2,0,P|360:296|256:232,1,170
96,96,23738,2,0,P|152:88|256:152,1,170
400,56,24520,1,0,0:0:0:0:
248,140,24781,1,0,0:0:0:0:
160,312,25042,2,0,P|112:272|96:256,1,85
80,88,25564,1,0,0:0:0:0:
248,32,25825,2,0,P|272:96|272:112,1,85
440,48,26346,5,0,0:0:0:0:
272,111,26607,1,0,0:0:0:0:
72,128,26868,2,0,P|48:200|184:280,1,255
184,112,27912,2,0,P|296:148|288:266,1,255
184,112,28955,1,0,0:0:0:0:
288,256,29216,1,0,0:0:0:0:
416,32,29738,5,0,0:0:0:0:
368,48,29868,1,0,0:0:0:0:
376,120,29998,2,0,P|352:144|336:168,1,42.5
296,56,30259,5,0,0:0:0:0:
256,87,30389,1,0,0:0:0:0:
288,152,30519,2,0,P|272:184|266:210,1,42.5
192,312,30781,2,0,L|160:272,1,42.5
304,248,31042,2,0,L|344:208,1,42.5
192,312,31303,1,0,0:0:0:0:
80,304,31825,6,0,P|104:312|144:304,1,63.7500024318696
264,192,32085,2,0,P|244:206|211:232,1,63.7500024318696
208,304,32346,2,0,P|232:312|272:304,1,63.7500024318696
392,192,32607,2,0,P|368:192|328:192,2,63.7500024318696
399,298,32998,1,0,0:0:0:0:
464,152,33129,2,0,L|464:224,2,63.7500024318696
68,74,33912,6,0,L|124:114,1,63.7500024318696
200,64,34172,1,0,0:0:0:0:
120,112,34303,1,0,0:0:0:0:
64,176,34433,6,0,L|120:216,1,63.7500024318696
196,166,34693,1,0,0:0:0:0:
116,214,34824,1,0,0:0:0:0:
64,280,34955,6,0,L|120:320,1,63.7500024318696
272,240,35216,6,0,L|232:296,1,63.7500024318696
64,280,35477,1,0,0:0:0:0:
272,64,35998,6,0,L|336:96,1,63.7500024318696
368,176,36259,1,0,0:0:0:0:
368,192,36390,1,0,0:0:0:0:
256,363,36520,1,0,0:0:0:0:
84,191,36781,1,0,0:0:0:0:
256,20,37042,1,0,0:0:0:0:
427,192,37303,1,0,0:0:0:0:
256,192,37564,1,0,0:0:0:0:
96,64,38085,6,0,L|160:104,1,63.7500024318696
192,224,38346,2,0,L|192:144,1,63.7500024318696
264,40,38607,6,0,L|224:104,1,63.7500024318696
192,224,38868,2,0,L|192:144,1,63.7500024318696
96,64,39129,6,0,L|160:104,1,63.7500024318696
192,224,39390,2,0,L|192:144,1,63.7500024318696
264,40,39651,1,0,0:0:0:0:
312,304,40172,5,0,0:0:0:0:
328,296,40303,1,0,0:0:0:0:
344,280,40433,1,0,0:0:0:0:
352,264,40564,1,0,0:0:0:0:
225,273,40694,5,0,0:0:0:0:
257,257,40825,1,0,0:0:0:0:
290,226,40955,1,0,0:0:0:0:
306,194,41086,1,0,0:0:0:0:
140,239,41215,5,0,0:0:0:0:
195,212,41346,1,0,0:0:0:0:
242,173,41477,1,0,0:0:0:0:
269,118,41607,1,0,0:0:0:0:
112,128,41738,6,0,L|80:152,3,31.8750012159348
152,192,41998,2,0,L|152:232,3,31.8750012159348
224,176,42259,2,0,L|264:200,3,31.8750012159348
200,104,42520,2,0,L|240:88,3,31.8750012159348
224,176,42781,2,0,L|264:200,3,31.8750012159348
152,192,43042,2,0,L|152:232,3,31.8750012159348
112,128,43303,6,0,L|80:152,3,31.8750012159348
112,48,43564,2,0,L|64:48,3,31.8750012159348
88,296,44346,6,0,L|176:296,1,85
272,288,44607,2,0,P|320:216|312:168,1,127.500004863739
472,56,45390,6,0,L|408:80,1,42.5
392,176,45651,2,0,L|208:176,1,170
88,200,46433,5,0,0:0:0:0:
232,104,46564,1,0,0:0:0:0:
88,280,46694,2,0,L|152:320,1,63.7500024318696
160,224,46955,5,0,0:0:0:0:
214,59,47086,1,0,0:0:0:0:
209,287,47216,2,0,L|284:279,1,63.7500024318696
240,248,47477,5,0,0:0:0:0:
294,83,47608,1,0,0:0:0:0:
289,311,47738,2,0,L|364:303,1,63.7500024318696
408,112,47998,6,0,P|432:152|416:216,1,95.6250036478044
296,240,48520,6,0,L|392:288,1,63.7500024318696
216,144,48781,6,0,L|120:96,1,63.7500024318696
296,168,49042,6,0,L|403:167,1,63.7500024318696
216,216,49303,6,0,L|108:216,1,63.7500024318696
296,96,49564,6,0,L|354:70,1,63.7500024318696
226,286,49825,6,0,L|168:312,1,63.7500024318696
240,192,50085,2,0,L|272:192,8,21.2500008106232
368,224,50607,6,0,P|432:240|432:256,1,63.7500024318696
304,112,50868,2,0,L|256:48,1,63.7500024318696
304,288,51129,6,0,P|368:304|368:320,1,63.7500024318696
176,80,51390,2,0,L|128:16,1,63.7500024318696
256,268,51651,1,0,0:0:0:0:
256,115,51781,1,0,0:0:0:0:
179,192,51912,1,0,0:0:0:0:
332,192,52042,1,0,0:0:0:0:
384,64,52172,6,0,P|448:128|448:160,1,127.5
64,256,52694,5,0,0:0:0:0:
160,112,52825,1,0,0:0:0:0:
256,256,52955,1,0,0:0:0:0:
32,128,53085,1,0,0:0:0:0:
160,192,53216,6,0,P|192:176|176:160,1,42.5
224,96,53477,2,0,P|256:80|240:112,1,63.7500024318696
272,208,53738,2,0,P|288:224|304:176,1,85
320,80,53998,2,0,P|336:64|384:112,1,106.25
427,224,54259,6,0,L|253:223,1,146.62500279665
89,230,54781,5,0,0:0:0:0:
203,74,54912,1,0,0:0:0:0:
268,234,55042,2,0,L|345:230,1,48.8750009322167
64,94,55303,1,0,0:0:0:0:
298,96,55433,1,0,0:0:0:0:
89,230,55564,2,0,L|88:299,1,48.8750009322167
203,74,55825,1,0,0:0:0:0:
268,234,55955,1,0,0:0:0:0:
64,94,56085,2,0,L|-2:95,1,48.8750009322167
158,261,56346,6,0,P|195:204|190:176,1,95.6250036478044
266,93,56868,5,0,0:0:0:0:
364,214,56998,1,0,0:0:0:0:
266,93,57129,2,0,L|304:40,1,48.8750009322167
364,214,57390,1,0,0:0:0:0:
254,303,57520,1,0,0:0:0:0:
364,214,57651,2,0,L|412:266,1,48.8750009322167
254,303,57912,1,0,0:0:0:0:
165,204,58042,1,0,0:0:0:0:
254,303,58172,2,0,L|325:300,1,48.8750009322167
165,204,58433,6,0,P|144:146|105:141,1,95.6250036478044
208,88,58955,6,0,L|261:50,1,48.8750009322167
229,187,59216,1,0,0:0:0:0:
135,156,59346,1,0,0:0:0:0:
156,255,59477,6,0,L|103:293,1,48.8750009322167
135,156,59738,1,0,0:0:0:0:
229,187,59868,1,0,0:0:0:0:
287,285,59998,2,0,L|321:342,1,48.8750009322167
378,152,60259,2,0,L|345:195,1,48.8750009322167
240,142,60520,2,0,P|272:119|268:62,1,95.6250036478044
374,138,61042,6,0,L|407:138,3,31.8750012159348
200,263,61564,6,0,P|222:206|206:190,1,63.7500024318696
93,75,62085,6,0,P|150:97|166:81,1,63.7500024318696
240,190,62607,1,0,0:0:0:0:
338,203,63129,1,0,0:0:0:0:
424,261,63259,1,0,0:0:0:0:
426,170,63390,1,0,0:0:0:0:
344,291,63520,1,0,0:0:0:0:
220,321,63651,6,0,P|178:295|205:293,1,127.500004863739
236,205,64042,1,0,0:0:0:0:
187,68,64172,1,0,0:0:0:0:
106,215,64303,1,0,0:0:0:0:
320,80,64433,6,0,B|336:88|336:88|320:96|320:96|336:104|336:104|320:112|320:112|336:120|336:120|320:128|320:128|336:136|336:136|320:144|320:144,1,127.500004863739
416,288,64955,1,0,0:0:0:0:
136,112,65216,6,0,P|88:120|128:88,1,127.500004863739
136,112,65477,6,0,P|184:104|144:136,1,127.500004863739
136,112,65738,6,0,P|88:120|128:88,1,127.500004863739
136,112,65998,6,0,P|184:104|144:136,1,127.500004863739
56,160,66390,1,0,0:0:0:0:
96,288,66520,1,0,0:0:0:0:
176,176,66651,1,0,0:0:0:0:
176,264,66781,6,0,B|184:256|184:256|184:264|184:264|192:256|192:256|192:264|192:264|200:256|200:256|200:264|200:264|208:256|208:256|208:264|208:264|216:256|216:256|216:264|216:264|224:256|224:256|224:264|224:264|232:256|232:256|232:264|232:264,1,127.500004863739
344,256,67172,1,0,0:0:0:0:
360,104,67303,6,0,L|336:136,1,31.8750012159348
240,72,67433,2,0,L|271:65,1,31.8750012159348
280,176,67564,2,0,L|240:192,1,31.8750012159348
184,120,67694,2,0,L|200:160,1,31.8750012159348
64,240,67955,6,0,L|96:240,1,31.8750012159348
176,288,68085,2,0,L|136:312,1,31.8750012159348
128,176,68216,2,0,L|160:200,1,31.8750012159348
344,112,68477,6,0,L|368:80,1,31.8750012159348
400,160,68607,2,0,L|368:176,1,31.8750012159348
264,128,68738,2,0,L|304:152,1,31.8750012159348
312,192,68868,6,0,B|312:184|312:184|304:192|304:192|296:184|296:184|288:192|288:192|280:184|280:184|272:192|272:192|264:184|264:184|256:192|256:192|248:184|248:184|240:192|240:192|232:184|232:184|224:192|224:192|216:184|216:184|208:192|208:192|200:184|200:184|192:192|192:192|184:184|184:184|176:192|176:192|168:184|168:184|160:192|160:192|152:184|152:184|144:192|144:192|136:184|136:184,1,255.000009727478
24,112,69520,1,0,0:0:0:0:
96,240,69651,1,0,0:0:0:0:
176,112,69781,1,0,0:0:0:0:
192,248,69912,6,0,L|248:280,1,63.7500024318696
320,128,70172,2,0,L|280:192,1,63.7500024318696
408,280,70433,2,0,L|344:256,1,63.7500024318696
286,182,70694,2,0,L|320:128,1,63.7500024318696
264,302,70955,2,0,P|192:294|176:260,1,95.6250036478044
194,91,71477,6,0,L|224:86,1,24.4375004661083
254,145,71607,2,0,L|213:153,1,24.4375004661083
154,183,71738,2,0,P|119:180|106:163,1,48.8750009322167
115,257,71998,2,0,L|144:270,1,24.4375004661083
179,321,72129,2,0,P|206:307|210:282,1,48.8750009322167
311,219,72390,2,0,L|337:247,1,24.4375004661083
353,239,72520,6,0,P|409:211|351:194,1,146.62500279665
359,186,73042,6,0,P|445:257|353:239,1,293.2500055933
204,261,73564,6,0,P|147:285|137:282,1,42.5
97,137,73825,2,0,P|120:152|128:168,1,38.2499988327027
82,294,74085,2,0,P|115:265|116:260,1,34
210,132,74346,2,0,P|203:157|180:178,1,29.7499990921021
286,274,74607,2,0,L|287:187,1,76.4999976654053
405,48,75129,2,0,L|406:259,1,191.250007295609
166,146,75651,6,0,L|121:128,2,42.5000016212464
248,158,75912,2,0,L|301:157,2,42.5000016212464
270,231,76172,6,0,L|269:322,1,63.7500024318696
336,288,76433,1,0,0:0:0:0:
387,221,76564,1,0,0:0:0:0:
454,210,76694,6,0,L|453:301,1,63.7500024318696
387,221,76955,1,0,0:0:0:0:
336,288,77086,1,0,0:0:0:0:
211,255,77216,2,0,P|229:203|268:184,1,95.6250036478044
332,119,77738,5,0,0:0:0:0:
410,31,77868,1,0,0:0:0:0:
445,126,77998,1,0,0:0:0:0:
325,37,78129,1,0,0:0:0:0:
224,83,78259,6,0,P|168:82|142:47,2,97.7500018644333
70,128,79042,2,0,L|133:225,1,97.7500018644333
74,304,79825,5,0,0:0:0:0:
81,302,79955,1,0,0:0:0:0:
89,297,80085,1,0,0:0:0:0:
99,287,80216,1,0,0:0:0:0:
109,277,80346,5,0,0:0:0:0:
119,261,80477,1,0,0:0:0:0:
131,248,80607,1,0,0:0:0:0:
143,231,80738,1,0,0:0:0:0:
160,210,80868,5,0,0:0:0:0:
186,191,80998,1,0,0:0:0:0:
217,172,81129,1,0,0:0:0:0:
244,154,81259,1,0,0:0:0:0:
279,136,81390,1,0,0:0:0:0:
410,183,81912,6,0,P|444:232|438:257,1,48.8750009322167
369,319,82172,6,0,P|335:270|341:245,1,48.8750009322167
216,156,82433,1,0,0:0:0:0:
320,45,82564,1,0,0:0:0:0:
371,159,82694,1,0,0:0:0:0:
212,37,82825,1,0,0:0:0:0:
124,183,82955,6,0,P|151:233|136:279,1,63.7500024318696
56,297,83216,2,0,L|119:335,1,63.7500024318696
253,316,83477,2,0,P|282:252|399:174,1,191.250007295609
294,131,83998,5,0,0:0:0:0:
371,21,84129,1,0,0:0:0:0:
379,147,84259,1,0,0:0:0:0:
461,46,84390,1,0,0:0:0:0:
452,181,84520,2,0,L|452:256,1,63.7500024318696
311,270,84781,2,0,P|358:318|387:325,1,63.7500024318696
162,208,85042,5,0,0:0:0:0:
256,58,85172,1,0,0:0:0:0:
311,205,85303,1,0,0:0:0:0:
143,80,85433,1,0,0:0:0:0:
359,87,85564,2,0,P|347:153|314:194,1,95.6250036478044
130,335,86085,6,0,P|129:268|137:259,1,48.8750009322167
211,280,86346,1,0,0:0:0:0:
105,190,86477,1,0,0:0:0:0:
384,257,86607,6,0,L|354:210,1,48.8750009322167
389,53,86868,2,0,L|354:118,1,63.7500024318696
209,95,87129,2,0,L|293:144,1,74.3750007092953
218,322,87390,2,0,L|295:237,1,85
440,200,87651,6,0,B|440:192|440:192|432:192|432:192|432:184|432:184|424:184|424:184|424:176|424:176|416:176|416:176|416:168|416:168|408:168|408:168|408:160|408:160|400:160|400:160|400:152|400:152|392:152|392:152|392:144|392:144|384:144|384:144|384:136|384:136|376:136|376:136|376:128|376:128|368:128|368:128|368:120|368:120,1,146.62500279665
240,144,88172,6,0,B|240:152|240:152|248:152|248:152|248:160|248:160|256:160|256:160|256:168|256:168|264:168|264:168|264:176|264:176|272:176|272:176|272:184|272:184|280:184|280:184|280:192|280:192|288:192|288:192|288:200|288:200|296:200|296:200|296:208|296:208|304:208|304:208|304:216|304:216|312:216|312:216|312:224|312:224,1,146.62500279665
400,288,88694,6,0,P|392:304|352:304,1,48.8750009322167
400,176,88955,2,0,L|352:136,1,48.8750009322167
304,24,89216,2,0,L|264:72,1,48.8750009322167
168,208,89477,2,0,L|216:176,1,48.8750009322167
40,232,89738,6,0,B|40:240|40:240|48:240|48:240|48:248|48:248|56:248|56:248|56:256|56:256|64:256|64:256|64:264|64:264|72:264|72:264|72:272|72:272|80:272|80:272|80:280|80:280|88:280|88:280|88:288|88:288|96:288|96:288|96:296|96:296|104:296|104:296|104:304|104:304|112:304|112:304|112:312|112:312,1,146.62500279665
144,200,90259,6,0,B|144:192|144:192|136:192|136:192|136:184|136:184|128:184|128:184|128:176|128:176|120:176|120:176|120:168|120:168|112:168|112:168|112:160|112:160|104:160|104:160|104:152|104:152|96:152|96:152|96:144|96:144|88:144|88:144|88:136|88:136|80:136|80:136|80:128|80:128|72:128|72:128|72:120|72:120,1,146.62500279665
224,112,90781,6,0,P|280:128|288:120,1,48.8750009322167
360,72,91042,6,0,P|304:56|296:64,1,48.8750009322167
312,192,91303,1,0,0:0:0:0:
376,296,91433,1,0,0:0:0:0:
424,176,91564,2,0,L|456:128,1,48.8750009322167
376,56,91825,6,0,B|368:56|368:56|368:64|368:64|360:64|360:64|360:72|360:72|352:72|352:72|352:80|352:80|344:80|344:80|344:88|344:88|336:88|336:88|336:96|336:96|328:96|328:96|328:104|328:104|320:104|320:104|320:112|320:112|312:112|312:112|312:120|312:120|304:120|304:120|304:128|304:128|296:128|296:128,1,146.62500279665
392,168,92346,6,0,B|392:176|392:176|400:176|400:176|400:184|400:184|408:184|408:184|408:192|408:192|416:192|416:192|416:200|416:200|424:200|424:200|424:208|424:208|432:208|432:208|432:216|432:216|440:216|440:216|440:224|440:224|448:224|448:224|448:232|448:232|456:232|456:232|456:240|456:240|464:240|464:240|464:248|464:248,1,146.62500279665
224,280,92868,1,0,0:0:0:0:
240,144,92998,1,0,0:0:0:0:
320,232,93129,1,0,0:0:0:0:
136,192,93259,1,0,0:0:0:0:
136,56,93390,2,0,P|152:24|176:0,1,48.8750009322167
88,264,93651,2,0,P|80:296|48:312,1,48.8750009322167
168,200,93912,6,0,B|168:192|168:192|176:192|176:192|176:184|176:184|184:184|184:184|184:176|184:176|192:176|192:176|192:168|192:168|200:168|200:168|200:176|200:176|208:176|208:176|208:168|208:168|216:168|216:168|216:176|216:176|224:176|224:176|232:176|232:176|232:184|232:184|240:184|240:184|240:192|240:192|248:192|248:192|248:200|248:200|256:200|256:200|256:208|256:208|264:208|264:208|264:216|264:216|272:216,1,195.500003728867
336,104,94564,1,0,0:0:0:0:
448,232,94694,1,0,0:0:0:0:
288,280,94825,1,0,0:0:0:0:
216,136,94955,6,0,L|104:88,1,97.7500018644333
192,64,95477,2,0,L|144:168,1,97.7500018644333
96,240,95998,6,0,P|136:280|96:224,1,244.375004661083
288,80,96781,1,0,0:0:0:0:
368,216,97042,2,0,L|288:288,1,97.7500018644333
328,32,97564,2,0,L|416:104,1,97.7500018644333
424,200,98085,1,0,0:0:0:0:
176,200,98346,5,0,0:0:0:0:
128,120,98477,1,0,0:0:0:0:
64,216,98607,2,0,L|64:304,1,48.8750009322167
136,328,98868,1,0,0:0:0:0:
200,264,98998,1,0,0:0:0:0:
368,224,99129,6,0,P|384:184|344:96,1,127.500004863739
357,107,99390,2,0,P|312:160|256:168,1,127.500004863739
257,168,99651,2,0,P|321:224|208:272,1,255.000009727478
209,274,100172,2,0,P|343:209|200:165,1,293.2500055933
128,88,100694,1,0,0:0:0:0:
64,200,100955,1,0,0:0:0:0:
160,104,101216,6,0,B|192:104|192:104|256:56,1,97.7500018644333
368,280,101738,6,0,B|336:280|336:280|272:328,1,97.7500018644333
264,160,102259,1,0,0:0:0:0:
160,208,102520,6,0,P|176:224|160:168,1,195.500003728867
256,64,102912,6,0,L|304:104,1,49.9374992380142
336,64,103042,2,0,L|376:104,1,49.9374992380142
392,176,103172,6,0,P|453:221|377:231,1,195.500003728867
304,288,103498,6,0,L|256:248,1,49.9374992380142
224,288,103628,2,0,L|184:248,1,49.9374992380142
104,312,103825,2,0,B|104:304|104:304|96:304|96:304|96:296|96:296|104:296|104:296|104:288|104:288|96:288|96:288|96:280|96:280|104:280|104:280|104:272|104:272|96:272|96:272|96:264|96:264|104:264|104:264|104:256|104:256|96:256|96:256|96:248|96:248|104:248|104:248|104:240|104:240|96:240|96:240|96:232|96:232|104:232|104:232|104:224|104:224|96:224|96:224|96:216|96:216|104:216|104:216|104:208|104:208|96:208|96:208|96:200|96:200|104:200|104:200|104:192|104:192|96:192|96:192|96:184|96:184|104:184|104:184|104:176|104:176|96:176|96:176|96:168|96:168|104:168|104:168|104:160|104:160|96:160|96:160,1,299.624995428085
320,192,104346,6,0,B|320:184|320:184|312:184|312:184|312:176|312:176|304:176|304:176|304:168|304:168|296:168|296:168|296:160|296:160|288:160|288:160|288:152|288:152|280:152|280:152|280:144|280:144|272:144|272:144|272:136|272:136|264:136|264:136|264:128|264:128|256:128|256:128|256:136|256:136|248:136|248:136|248:128|248:128|240:128|240:128|240:136|240:136|232:136|232:136|232:128|232:128|224:128|224:128|224:136|224:136|216:136|216:136|216:144|216:144|208:144|208:144|208:152|208:152|200:152|200:152|200:160|200:160|192:160|192:160|192:168|192:168|184:168|184:168|184:176|184:176|176:176|176:176|176:184|176:184|168:184|168:184,1,299.624995428085
72,144,104868,6,0,P|80:96|120:64,1,97.7500018644333
224,256,105390,2,0,L|136:192,1,97.7500018644333
312,48,105912,2,0,P|344:104|336:144,2,97.7500018644333
464,224,106694,1,0,0:0:0:0:
384,224,106825,2,0,B|384:216|384:216|376:216|376:216|376:224|376:224,1,24.4375004661083
304,152,107020,2,0,L|272:144,1,24.4375004661083
240,184,107151,2,0,L|264:192,1,24.4375004661083
272,240,107281,2,0,L|248:232,1,24.4375004661083
104,240,107477,6,0,L|104:112,1,127.500004863739
104,112,107998,2,0,P|176:112|320:0,1,255.000009727478
317,6,108520,2,0,L|448:80,1,127.500004863739
