osu file format v14

[General]
AudioFilename: audio.mp3
AudioLeadIn: 0
PreviewTime: -1
Countdown: 1
SampleSet: None
StackLeniency: 0.7
Mode: 0
LetterboxInBreaks: 0
WidescreenStoryboard: 0

[Editor]
DistanceSpacing: 0.6
BeatDivisor: 4
GridSize: 32
TimelineZoom: 1

[Metadata]
Title:Fuck You, PTA[Melost]
TitleUnicode:Fuck You, PTA[Melost]
Artist:Nashimoto-P
ArtistUnicode:Nashimoto-P
Creator:Naikou Iwamoto
Version:Insane
Source:
Tags:
BeatmapID:1578919
BeatmapSetID:749609

[Difficulty]
HPDrainRate:7
CircleSize:5.2
OverallDifficulty:8
ApproachRate:8
SliderMultiplier:1.4
SliderTickRate:1

[Events]
//Background and Video events
//Break Periods
2,25734,29379
//Storyboard Layer 0 (Background)
//Storyboard Layer 1 (Fail)
//Storyboard Layer 2 (Pass)
//Storyboard Layer 3 (Foreground)
//Storyboard Sound Samples

[TimingPoints]
670,270.27027027027,4,1,0,100,1,0

[HitObjects]
96,96,12967,6,4,P|160:64|224:128,1,140,12|0,0:0|0:0,0:0:0:0:
96,192,13507,2,0,P|160:160|224:224,1,140
192,96,14048,1,0,0:0:0:0:
384,128,14318,2,0,P|288:160|288:192,1,140
352,192,14859,1,0,0:0:0:0:
64,96,15129,2,0,P|96:160|160:160,1,140
128,96,15669,1,0,0:0:0:0:
192,64,15940,2,0,P|288:96|320:128,1,140
160,128,16480,2,0,P|256:160|288:192,1,140
64,96,17021,1,0,0:0:0:0:
128,192,17291,1,8,0:0:0:0:
192,96,17561,1,0,0:0:0:0:
288,96,17832,2,0,L|416:192,1,140
352,256,18373,2,0,L|224:160,1,140
160,96,18913,1,0,0:0:0:0:
160,192,19183,1,0,0:0:0:0:
96,96,19453,2,0,L|256:96,1,140
160,160,19994,1,0,0:0:0:0:
160,160,20264,1,0,0:0:0:0:
224,160,20534,1,0,0:0:0:0:
192,192,20805,2,4,B|128:160|128:160|192:128|192:128|96:96|96:96|64:192|64:192|128:224|128:224,1,385
256,192,21751,12,4,25534,0:0:0:0:
128,96,30129,5,0,0:0:0:0:
224,96,30399,2,0,L|384:96,1,140
352,160,30940,1,0,0:0:0:0:
352,224,31210,1,0,0:0:0:0:
128,192,31480,2,0,L|288:192,1,140
288,192,31886,2,0,L|384:192,2,70
160,96,32426,6,0,L|320:96,1,140
416,96,32967,2,0,L|288:192,1,140
64,192,33372,2,0,L|256:192,1,175
224,64,33913,2,0,L|288:96,1,70
224,128,34183,2,0,L|288:160,1,70
128,96,34521,2,0,L|256:96,1,105
192,128,34926,1,0,0:0:0:0:
192,128,34994,1,0,0:0:0:0:
192,128,35061,1,0,0:0:0:0:
192,128,35129,1,0,0:0:0:0:
192,128,35197,1,0,0:0:0:0:
192,128,35264,2,0,L|256:128,1,35
96,192,35467,2,0,L|160:192,5,35
224,64,36075,6,0,L|288:96,1,70
224,128,36345,2,0,L|288:160,1,70
320,160,36818,2,0,L|480:160,2,140
160,64,37561,1,0,0:0:0:0:
160,64,37629,6,0,L|320:96,1,140,4|4,0:0|0:0,0:0:0:0:
384,192,38169,2,0,L|224:160,1,140,4|4,0:0|0:0,0:0:0:0:
128,128,38710,1,0,0:0:0:0:
160,96,38980,1,0,0:0:0:0:
224,160,39251,2,0,L|384:160,1,140
128,96,39791,2,0,L|288:96,1,140
288,96,40197,1,0,0:0:0:0:
320,96,40332,1,0,0:0:0:0:
96,128,40602,1,0,0:0:0:0:
256,128,40873,1,0,0:0:0:0:
288,192,41144,1,0,0:0:0:0:
192,192,41414,1,0,0:0:0:0:
160,64,41683,1,0,0:0:0:0:
96,96,41953,2,0,L|192:96,1,70
192,96,42224,1,0,0:0:0:0:
224,96,42359,1,0,0:0:0:0:
256,96,42494,2,0,L|384:96,1,105
128,128,42967,2,0,P|192:96|224:160,1,140
128,224,43507,1,0,0:0:0:0:
256,224,43778,1,0,0:0:0:0:
160,128,44048,2,0,L|256:128,1,70
64,224,44318,2,0,L|160:224,1,70
224,224,44588,1,0,0:0:0:0:
128,64,45129,1,0,0:0:0:0:
224,96,45400,1,0,0:0:0:0:
96,160,45670,2,0,L|256:128,1,140
288,64,46075,1,0,0:0:0:0:
320,64,46210,1,0,0:0:0:0:
352,64,46345,2,0,L|448:224,1,175
128,64,47426,6,0,L|192:128,1,70
224,64,47697,2,0,L|288:128,1,70
0,160,47967,2,0,L|192:160,1,175
224,160,48507,1,0,0:0:0:0:
288,160,48642,1,0,0:0:0:0:
64,224,48913,1,0,0:0:0:0:
96,96,49183,2,0,L|224:96,1,105
256,96,49656,2,0,L|320:288,1,175
64,128,50197,2,0,L|128:128,4,35
384,192,50669,1,0,0:0:0:0:
384,192,50805,1,0,0:0:0:0:
384,192,50940,1,0,0:0:0:0:
384,192,51075,2,0,L|416:64,1,105
320,256,51548,1,0,0:0:0:0:
128,96,51751,2,0,L|192:128,1,70,4|0,0:0|0:0,0:0:0:0:
96,160,52021,2,0,L|160:192,1,70
128,96,52291,2,0,L|192:128,1,70
128,96,52561,2,0,L|288:96,1,140
128,224,53169,1,0,0:0:0:0:
288,192,53372,1,0,0:0:0:0:
160,128,53642,1,0,0:0:0:0:
160,128,53710,1,0,0:0:0:0:
320,128,53913,1,0,0:0:0:0:
160,192,54183,1,0,0:0:0:0:
160,192,54318,1,0,0:0:0:0:
160,192,54453,1,0,0:0:0:0:
160,192,54588,1,0,0:0:0:0:
96,32,54724,1,0,0:0:0:0:
96,32,54859,2,0,L|192:96,1,105
384,64,55264,2,0,L|288:128,1,105
288,128,55534,1,0,0:0:0:0:
224,96,55805,5,0,0:0:0:0:
320,32,56075,1,0,0:0:0:0:
352,128,56210,1,0,0:0:0:0:
160,128,56615,1,0,0:0:0:0:
160,224,56751,1,0,0:0:0:0:
288,192,56886,1,0,0:0:0:0:
224,64,57291,1,0,0:0:0:0:
224,96,57697,1,0,0:0:0:0:
416,96,57967,2,0,L|288:192,1,140
224,192,58507,1,0,0:0:0:0:
224,224,58778,1,0,0:0:0:0:
96,128,59048,1,0,0:0:0:0:
256,128,59318,1,0,0:0:0:0:
384,96,59588,2,0,L|256:192,1,140
192,96,60129,2,0,P|256:64|352:160,1,210
64,192,60872,1,0,0:0:0:0:
192,96,61210,2,0,P|256:64|352:160,1,210
192,192,61953,1,0,0:0:0:0:
64,96,62291,2,0,L|224:96,1,140
320,96,62832,2,0,L|320:256,1,140
