osu file format v14

[General]
AudioFilename: audio.mp3
AudioLeadIn: 0
PreviewTime: 66096
Countdown: 0
SampleSet: Soft
StackLeniency: 0.7
Mode: 2
LetterboxInBreaks: 0
WidescreenStoryboard: 1

[Editor]
DistanceSpacing: 0.6
BeatDivisor: 4
GridSize: 8
TimelineZoom: 2.1

[Metadata]
Title:AaAaAaAAaAaAAa (Cut Ver.)
TitleUnicode:あぁあぁあぁああぁあぁああぁ (Cut Ver.)
Artist:Nashimoto Ui
ArtistUnicode:梨本うい
Creator:Mochi -
Version:Verti's Overdose
Source:
Tags:hatsune miku vocaloid 初音ミク 梨本p nashimotop japanese rock jrock j-rock original cut short version ver fa featured artist mg mpg mappers' guild stardust prism -hex- -Aku bad_mapper overranked verti sotarks mniam おわり end
BeatmapID:4523577
BeatmapSetID:2147529

[Difficulty]
HPDrainRate:5.5
CircleSize:4.2
OverallDifficulty:9.2
ApproachRate:9.2
SliderMultiplier:2.1
SliderTickRate:2

[Events]
//Background and Video events
0,0,"bg.jpg",0,0
//Break Periods
//Storyboard Layer 0 (Background)
//Storyboard Layer 1 (Fail)
//Storyboard Layer 2 (Pass)
//Storyboard Layer 3 (Foreground)
//Storyboard Layer 4 (Overlay)
//Storyboard Sound Samples

[TimingPoints]
1253,312.5,4,2,22,52,1,0
1253,-100,4,2,22,52,0,0
5628,-100,4,2,22,52,0,0
6253,-100,4,2,22,62,0,0
9846,-100,4,2,22,62,0,0
10315,-100,4,2,22,52,0,0
10940,-100,4,2,22,62,0,0
11253,-100,4,2,22,72,0,0
21253,-100,4,2,22,62,0,0
31253,-100,4,2,22,62,0,0
41253,-100,4,2,22,62,0,0
46253,-100,4,2,22,62,0,0
66253,-100,4,2,22,72,0,0
76253,-100,4,2,22,82,0,1
80940,-100,4,2,22,82,0,1
81174,-100,4,2,22,82,0,1
81253,-100,4,2,22,82,0,1
83674,-100,4,2,22,5,0,1
83753,-100,4,2,22,82,0,1
85940,-100,4,2,22,82,0,1
86174,-100,4,2,22,5,0,1
86253,-100,4,2,22,82,0,1
96253,-100,4,2,22,62,0,0

[Colours]
Combo1 : 217,126,36
Combo2 : 119,131,170
Combo3 : 49,170,191

[HitObjects]
107,223,1253,6,0,P|37:176|116:117,1,210,2|0,1:2|1:2,0:0:0:0:
226,215,1721,1,2,0:0:0:0:
107,222,1878,1,2,1:2:0:0:
226,215,2034,2,0,L|342:219,1,105,0|0,0:0|1:2,0:0:0:0:
102,284,2346,6,0,L|96:172,1,105,2|0,0:0|0:0,0:0:0:0:
243,163,2659,2,0,L|245:51,1,105,2|0,0:0|0:0,0:0:0:0:
104,282,2971,1,2,0:0:0:0:
328,212,3128,2,0,L|435:210,2,105,2|0|2,1:2|0:0|1:2,0:0:0:0:
224,213,3596,1,0,0:0:0:0:
458,286,3753,6,0,L|238:284,1,210,2|0,1:2|1:2,0:0:0:0:
376,237,4221,1,2,0:0:0:0:
249,284,4378,1,2,1:2:0:0:
404,195,4534,2,0,L|407:73,1,105,0|0,0:0|1:2,0:0:0:0:
176,206,4846,6,0,L|171:97,1,105,2|0,0:0|1:2,0:0:0:0:
319,164,5159,2,0,L|325:33,1,105,2|0,0:0|1:2,0:0:0:0:
173,251,5471,1,2,0:0:0:0:
413,243,5628,2,0,L|291:243,1,105,2|0,1:2|0:0,0:0:0:0:
176,231,5940,2,0,L|171:121,1,105,2|0,1:2|0:0,0:0:0:0:
416,305,6253,6,0,L|420:183,1,105,10|0,1:2|1:2,0:0:0:0:
272,169,6565,2,0,L|162:166,1,105,8|2,0:0|1:2,0:0:0:0:
408,127,6878,1,10,0:0:0:0:
173,200,7034,2,0,L|170:91,1,105,8|0,0:0|1:2,0:0:0:0:
411,248,7346,6,0,L|287:243,1,105,10|0,0:0|0:0,0:0:0:0:
177,187,7659,2,0,L|290:184,1,105,10|8,0:0|0:0,0:0:0:0:
51,117,7971,1,2,1:2:0:0:
279,199,8128,2,0,L|281:78,1,105,10|0,0:0|1:2,0:0:0:0:
46,197,8440,2,0,L|161:190,1,105,8|2,0:0|1:2,0:0:0:0:
367,298,8753,6,0,L|369:173,1,105,10|0,0:0|0:0,0:0:0:0:
224,165,9065,2,0,L|217:58,1,105,8|2,0:0|1:2,0:0:0:0:
462,164,9378,1,10,0:0:0:0:
216,200,9534,2,0,L|102:199,1,105,8|0,0:0|1:2,0:0:0:0:
328,384,9846,6,0,P|496:192|312:0,1,525,14|0,0:0|0:0,0:0:0:0:
206,149,10784,2,0,L|143:145,1,52.5,0|0,1:0|0:0,0:0:0:0:
328,178,10940,2,0,L|445:175,1,105,8|0,0:0|0:0,0:0:0:0:
199,311,11253,6,2,L|191:198,1,105,6|2,1:2|0:0,0:0:0:0:
343,189,11565,2,0,L|352:73,1,105,8|0,0:0|0:0,0:0:0:0:
127,157,11878,2,0,L|20:155,2,105,2|0|8,1:2|1:2|0:0,0:0:0:0:
361,268,12346,6,0,L|143:260,1,210,2|0,0:0|0:0,0:0:0:0:
387,314,12815,2,0,L|390:204,1,105,8|0,0:0|1:2,0:0:0:0:
244,185,13128,2,0,L|235:76,1,105,0|0,0:0|1:2,0:0:0:0:
469,182,13440,2,0,L|340:178,1,105,8|0,0:0|0:0,0:0:0:0:
123,274,13753,6,0,L|112:165,1,105,2|0,1:2|0:0,0:0:0:0:
258,155,14065,2,0,L|262:38,1,105,8|0,0:0|0:0,0:0:0:0:
40,312,14378,1,2,1:2:0:0:
171,309,14534,1,0,1:2:0:0:
303,304,14690,1,8,0:0:0:0:
88,192,14846,6,0,P|16:136|88:73,1,210,2|0,0:0|0:0,0:0:0:0:
330,196,15315,2,0,L|210:191,1,105,8|0,0:0|1:2,0:0:0:0:
375,147,15628,2,0,L|387:32,1,105,0|0,0:0|1:2,0:0:0:0:
154,127,15940,2,0,L|40:123,1,105,8|0,0:0|0:0,0:0:0:0:
298,293,16253,6,0,L|305:171,1,105,2|0,1:2|0:0,0:0:0:0:
156,181,16565,2,0,L|153:69,1,105,8|0,0:0|0:0,0:0:0:0:
379,175,16878,2,0,L|488:175,2,105,2|0|8,1:2|1:2|0:0,0:0:0:0:
137,183,17346,6,0,L|349:181,1,210,2|0,0:0|0:0,0:0:0:0:
107,233,17815,2,0,L|95:123,1,105,8|0,0:0|1:2,0:0:0:0:
238,103,18128,2,0,L|346:97,1,105,0|0,0:0|1:2,0:0:0:0:
115,293,18440,2,0,L|108:180,1,105,8|0,0:0|0:0,0:0:0:0:
345,189,18753,6,0,L|223:185,1,105,2|0,1:2|0:0,0:0:0:0:
114,147,19065,2,0,L|223:144,1,105,8|0,0:0|0:0,0:0:0:0:
448,84,19378,1,2,1:2:0:0:
317,77,19534,1,0,1:2:0:0:
186,87,19690,1,8,0:0:0:0:
418,265,19846,6,0,P|492:205|416:148,1,210,2|0,0:0|0:0,0:0:0:0:
202,257,20315,2,0,L|196:148,1,105,8|0,0:0|1:2,0:0:0:0:
343,158,20628,2,0,L|352:51,1,105,0|0,0:0|1:2,0:0:0:0:
132,171,20940,2,0,L|73:162,1,52.5,8|8,0:0|0:0,0:0:0:0:
286,106,21096,2,0,L|340:103,1,52.5,8|8,0:0|0:0,0:0:0:0:
135,298,21253,6,0,P|61:258|135:195,1,210,6|8,1:2|0:2,0:0:0:0:
245,200,21721,1,0,0:0:0:0:
458,129,21878,2,0,L|326:121,1,105,0|0,1:2|1:2,0:0:0:0:
246,111,22190,1,8,0:2:0:0:
470,298,22346,6,0,L|477:69,1,210,0|0,1:2|0:0,0:0:0:0:
238,208,22815,2,0,L|228:97,1,105,8|0,0:2|1:2,0:0:0:0:
370,110,23128,2,0,L|377:56,2,52.5,2|0|0,1:2|3:0|1:2,0:0:0:0:
245,248,23440,2,0,L|363:243,1,105,8|0,0:0|1:2,0:0:0:0:
115,204,23753,6,0,L|333:198,1,210,2|8,1:2|0:2,0:0:0:0:
432,193,24221,1,0,0:0:0:0:
208,263,24378,2,0,L|204:146,1,105,0|0,1:2|1:2,0:0:0:0:
324,142,24690,1,8,0:2:0:0:
96,185,24846,6,0,P|21:133|92:80,1,210,0|0,1:2|0:0,0:0:0:0:
318,242,25315,2,0,L|426:238,1,105,8|0,0:2|1:2,0:0:0:0:
278,140,25628,1,0,1:2:0:0:
225,138,25706,1,0,3:0:0:0:
173,137,25784,1,0,1:2:0:0:
321,93,25940,2,0,L|188:91,1,105,8|0,0:0|1:2,0:0:0:0:
463,317,26253,6,0,L|461:101,1,210,6|8,1:2|0:2,0:0:0:0:
358,108,26721,1,0,0:0:0:0:
131,194,26878,2,0,L|248:190,1,105,0|0,1:2|1:2,0:0:0:0:
343,183,27190,1,8,0:2:0:0:
115,264,27346,6,0,P|38:210|114:142,1,210,0|0,1:2|0:0,0:0:0:0:
335,287,27815,2,0,L|338:177,1,105,8|0,0:2|1:2,0:0:0:0:
188,149,28128,2,0,L|130:150,2,52.5,2|0|0,1:2|3:0|1:2,0:0:0:0:
333,318,28440,2,0,L|446:315,1,105,8|0,0:0|1:2,0:0:0:0:
207,214,28753,6,0,L|429:211,1,210,2|8,1:2|0:2,0:0:0:0:
312,163,29221,1,0,0:0:0:0:
88,307,29378,2,0,L|200:302,1,105,0|0,1:2|1:2,0:0:0:0:
303,296,29690,1,8,0:2:0:0:
71,243,29846,6,0,L|65:25,1,210,0|0,1:2|0:0,0:0:0:0:
315,194,30315,2,0,L|315:83,1,105,8|0,0:2|1:2,0:0:0:0:
183,79,30628,1,0,1:2:0:0:
314,197,30784,1,8,0:0:0:0:
445,260,30940,1,8,0:0:0:0:
181,122,31096,2,0,L|123:120,1,52.5,8|8,0:0|0:0,0:0:0:0:
293,301,31253,6,0,L|417:298,1,105,6|0,1:2|0:0,0:0:0:0:
274,236,31565,1,10,0:2:0:0:
495,210,31721,2,0,L|494:100,1,105,2|0,0:0|1:2,0:0:0:0:
384,88,32034,1,2,1:2:0:0:
159,209,32190,2,0,L|270:203,1,105,10|2,0:2|1:2,0:0:0:0:
39,221,32503,6,0,L|33:112,1,105,2|0,1:2|0:0,0:0:0:0:
150,93,32815,1,10,0:2:0:0:
367,254,32971,2,0,L|253:248,1,105,2|2,1:2|1:2,0:0:0:0:
153,239,33284,1,2,1:2:0:0:
368,190,33440,2,0,L|482:185,1,105,10|2,0:0|1:2,0:0:0:0:
246,285,33753,6,0,L|239:179,1,105,2|0,1:2|0:0,0:0:0:0:
361,137,34065,1,10,0:2:0:0:
127,188,34221,2,0,L|245:186,1,105,2|0,0:0|1:2,0:0:0:0:
345,182,34534,1,2,1:2:0:0:
117,217,34690,2,0,L|110:106,1,105,10|2,0:2|1:2,0:0:0:0:
350,115,35003,6,0,L|244:107,1,105,2|0,1:2|0:0,0:0:0:0:
136,214,35315,1,10,0:2:0:0:
364,217,35471,2,0,L|371:105,1,105,2|2,1:2|1:2,0:0:0:0:
264,89,35784,1,2,1:2:0:0:
45,188,35940,2,0,L|42:74,1,105,10|2,0:0|1:2,0:0:0:0:
270,253,36253,6,0,L|284:138,1,105,6|0,1:2|0:0,0:0:0:0:
153,121,36565,1,10,0:2:0:0:
376,172,36721,2,0,L|256:165,1,105,2|0,0:0|1:2,0:0:0:0:
166,159,37034,1,2,1:2:0:0:
389,247,37190,2,0,L|403:118,1,105,10|2,0:2|1:2,0:0:0:0:
178,235,37503,6,0,L|169:127,1,105,2|0,1:2|0:0,0:0:0:0:
279,102,37815,1,10,0:2:0:0:
496,184,37971,2,0,L|376:184,1,105,2|2,1:2|1:2,0:0:0:0:
280,168,38284,1,2,1:2:0:0:
496,184,38440,2,0,L|496:80,1,105,10|2,0:0|1:2,0:0:0:0:
276,249,38753,6,0,L|271:139,1,105,2|0,1:2|0:0,0:0:0:0:
389,114,39065,1,10,0:2:0:0:
163,187,39221,2,0,L|43:184,1,105,2|0,0:0|1:2,0:0:0:0:
166,137,39534,1,2,1:2:0:0:
391,172,39690,2,0,L|395:57,1,105,10|2,0:2|1:2,0:0:0:0:
170,227,40003,6,0,L|289:223,1,105,2|0,1:2|0:0,0:0:0:0:
381,213,40315,1,10,0:2:0:0:
149,170,40471,2,0,L|139:57,1,105,2|2,1:2|1:2,0:0:0:0:
248,43,40784,1,10,0:0:0:0:
26,238,40940,1,10,0:0:0:0:
250,101,41096,1,2,1:2:0:0:
25,310,41253,6,0,L|22:92,1,210,6|8,1:2|0:2,0:0:0:0:
168,306,41721,1,2,0:0:0:0:
25,310,41878,1,0,1:2:0:0:
258,232,42034,2,0,L|388:224,1,105,0|10,1:2|0:2,0:0:0:0:
140,166,42346,6,0,L|33:162,1,105,2|0,0:0|0:0,0:0:0:0:
176,176,42659,2,0,L|182:58,1,105,2|8,0:0|0:2,0:0:0:0:
41,202,42971,1,2,1:2:0:0:
272,238,43128,2,0,L|381:234,1,105,2|0,0:0|1:2,0:0:0:0:
231,178,43440,2,0,L|221:65,1,105,8|2,0:2|0:0,0:0:0:0:
455,338,43753,6,0,L|458:122,1,210,2|8,1:2|0:2,0:0:0:0:
322,124,44221,1,2,0:0:0:0:
456,125,44378,1,2,1:2:0:0:
235,178,44534,2,0,L|121:177,1,105,0|10,1:2|0:2,0:0:0:0:
380,287,44846,6,0,L|380:142,1,105,2|0,0:0|1:2,0:0:0:0:
237,206,45159,2,0,L|232:93,1,105,2|8,0:0|0:2,0:0:0:0:
378,311,45471,1,2,1:2:0:0:
150,267,45628,2,0,L|35:264,1,105,0|8,1:2|0:2,0:0:0:0:
101,232,45862,1,8,0:2:0:0:
313,180,45940,2,0,L|365:181,1,52.5,8|8,0:2|0:2,0:0:0:0:
156,113,46096,2,0,L|101:117,1,52.5,8|8,0:2|0:2,0:0:0:0:
316,264,46253,6,0,P|388:212|313:148,1,210,6|8,1:2|0:2,0:0:0:0:
207,158,46721,1,0,0:0:0:0:
440,92,46878,1,0,1:2:0:0:
309,75,47034,1,0,1:2:0:0:
178,66,47190,1,8,0:2:0:0:
309,75,47346,1,0,1:2:0:0:
77,183,47503,6,0,L|69:64,1,105,2|0,1:2|0:0,0:0:0:0:
216,177,47815,2,0,L|324:176,1,105,8|0,0:2|1:2,0:0:0:0:
97,253,48128,2,0,L|36:251,2,52.5,2|0|0,1:2|0:0|1:2,0:0:0:0:
237,222,48440,2,0,L|119:221,1,105,8|0,0:0|1:2,0:0:0:0:
362,298,48753,6,0,P|434:232|363:181,1,210,2|8,1:2|0:2,0:0:0:0:
263,185,49221,1,0,0:0:0:0:
45,188,49378,1,0,1:2:0:0:
176,186,49534,1,0,1:2:0:0:
307,182,49690,1,8,0:2:0:0:
176,186,49846,1,0,1:2:0:0:
406,306,50003,6,0,L|410:194,1,105,0|0,1:0|0:0,0:0:0:0:
265,143,50315,2,0,L|381:145,1,105,8|0,0:2|1:2,0:0:0:0:
148,184,50628,2,0,L|91:181,2,52.5,0|0|0,1:2|3:0|1:2,0:0:0:0:
289,194,50940,2,0,L|413:195,1,105,8|0,0:0|1:2,0:0:0:0:
159,265,51253,6,0,P|87:213|162:149,1,210,6|8,1:2|0:2,0:0:0:0:
268,159,51721,1,0,0:0:0:0:
35,93,51878,1,0,1:2:0:0:
166,76,52034,1,0,1:2:0:0:
297,67,52190,1,8,0:2:0:0:
166,76,52346,1,0,1:2:0:0:
398,184,52503,6,0,L|406:65,1,105,2|0,1:2|0:0,0:0:0:0:
259,178,52815,2,0,L|151:177,1,105,8|0,0:2|1:2,0:0:0:0:
378,254,53128,2,0,L|439:252,2,52.5,2|0|0,1:2|0:0|1:2,0:0:0:0:
238,223,53440,2,0,L|356:222,1,105,8|0,0:0|1:2,0:0:0:0:
109,292,53753,6,0,P|37:226|108:175,1,210,2|8,1:2|0:2,0:0:0:0:
208,179,54221,1,0,0:0:0:0:
426,182,54378,1,0,1:2:0:0:
295,180,54534,1,0,1:2:0:0:
164,176,54690,1,8,0:2:0:0:
295,180,54846,1,0,1:2:0:0:
65,300,55003,6,0,L|61:188,1,105
206,137,55315,2,0,L|90:139,1,105,8|0,0:2|1:2,0:0:0:0:
323,178,55628,2,0,L|380:175,2,52.5,0|0|8,1:2|0:0|0:0,0:0:0:0:
182,188,55940,2,0,L|58:189,1,105,8|8,0:0|0:0,0:0:0:0:
138,147,56174,1,8,0:0:0:0:
316,269,56253,6,0,P|388:217|313:153,1,210,6|8,1:2|0:2,0:0:0:0:
207,163,56721,1,0,0:0:0:0:
440,97,56878,1,0,1:2:0:0:
309,80,57034,1,0,1:2:0:0:
178,71,57190,1,8,0:2:0:0:
309,80,57346,1,0,1:2:0:0:
77,188,57503,6,0,L|69:69,1,105,2|0,1:2|0:0,0:0:0:0:
216,182,57815,2,0,L|324:181,1,105,8|0,0:2|1:2,0:0:0:0:
97,258,58128,2,0,L|36:256,2,52.5,2|0|0,1:2|0:0|1:2,0:0:0:0:
237,227,58440,2,0,L|119:226,1,105,8|0,0:0|1:2,0:0:0:0:
362,303,58753,6,0,P|434:237|363:186,1,210,2|8,1:2|0:2,0:0:0:0:
263,190,59221,1,0,0:0:0:0:
45,193,59378,1,0,1:2:0:0:
176,191,59534,1,0,1:2:0:0:
307,187,59690,1,8,0:2:0:0:
176,191,59846,1,0,1:2:0:0:
406,311,60003,6,0,L|410:199,1,105,0|0,1:0|0:0,0:0:0:0:
265,148,60315,2,0,L|381:150,1,105,8|0,0:2|1:2,0:0:0:0:
148,189,60628,6,0,L|91:186,2,52.5,2|0|0,1:2|3:0|1:2,0:0:0:0:
289,199,60940,2,0,L|413:200,1,105,8|0,0:0|1:2,0:0:0:0:
159,270,61253,6,0,P|87:218|162:154,1,210,6|8,1:2|0:2,0:0:0:0:
268,164,61721,1,0,0:0:0:0:
35,98,61878,1,0,1:2:0:0:
166,81,62034,1,0,1:2:0:0:
297,72,62190,1,8,0:2:0:0:
166,81,62346,1,0,1:2:0:0:
398,189,62503,6,0,L|280:187,1,105,2|0,1:2|0:0,0:0:0:0:
149,60,62815,2,0,L|151:182,1,105,8|0,0:2|1:2,0:0:0:0:
378,259,63128,2,0,L|439:257,2,52.5,2|0|0,1:2|0:0|1:2,0:0:0:0:
238,228,63440,2,0,L|356:227,1,105,8|0,0:0|1:2,0:0:0:0:
109,297,63753,6,0,P|37:231|108:180,1,210,2|8,1:2|0:2,0:0:0:0:
208,184,64221,1,0,0:0:0:0:
426,187,64378,1,0,1:2:0:0:
295,185,64534,1,0,1:2:0:0:
164,181,64690,1,8,0:2:0:0:
295,185,64846,1,0,1:2:0:0:
65,305,65003,6,0,L|61:193,1,105,2|0,1:2|0:0,0:0:0:0:
206,142,65315,2,0,L|90:144,1,105,10|0,0:2|1:2,0:0:0:0:
323,183,65628,2,0,L|380:180,2,52.5,2|0|8,1:2|0:0|0:0,0:0:0:0:
89,190,65940,2,0,L|84:77,1,105,10|0,0:0|1:0,0:0:0:0:
330,266,66253,6,0,L|110:257,1,210,6|10,1:2|0:2,0:0:0:0:
228,208,66721,1,0,0:0:0:0:
462,168,66878,2,0,L|329:165,2,105,2|0|10,1:2|1:2|0:2,0:0:0:0:
236,294,67346,6,0,P|166:238|234:167,1,210,2|2,1:2|0:0,0:0:0:0:
343,165,67815,1,8,0:2:0:0:
123,125,67971,1,2,1:2:0:0:
255,111,68128,1,0,0:0:0:0:
386,103,68284,1,2,1:2:0:0:
129,177,68440,2,0,L|119:61,1,105,10|0,0:2|1:2,0:0:0:0:
394,205,68753,6,0,P|470:151|394:97,1,210,2|10,1:2|0:2,0:0:0:0:
288,105,69221,1,0,0:0:0:0:
56,192,69378,2,0,L|166:194,2,105,2|0|10,1:2|1:2|0:2,0:0:0:0:
280,176,69846,6,0,L|69:170,1,210,2|0,1:2|0:0,0:0:0:0:
173,120,70315,1,8,0:2:0:0:
392,224,70471,2,0,L|496:224,2,105,0|0|0,1:2|0:0|1:2,0:0:0:0:
160,200,70940,2,0,L|158:64,1,105,12|0,0:2|0:0,0:0:0:0:
376,88,71253,6,0,L|156:81,1,210,6|10,1:2|0:2,0:0:0:0:
272,152,71721,1,0,0:0:0:0:
496,208,71878,2,0,L|392:208,2,105,2|0|10,1:2|1:2|0:2,0:0:0:0:
265,268,72346,6,0,L|259:151,1,105,2|0,1:2|0:0,0:0:0:0:
399,151,72659,2,0,L|407:27,1,105,2|8,0:0|0:2,0:0:0:0:
162,153,72971,1,2,1:2:0:0:
294,148,73128,1,0,0:0:0:0:
425,142,73284,1,2,1:2:0:0:
168,184,73440,2,0,L|53:184,1,105,10|0,0:2|1:2,0:0:0:0:
280,216,73753,6,0,L|67:214,1,210,2|10,1:2|0:2,0:0:0:0:
173,156,74221,1,0,0:0:0:0:
392,160,74378,2,0,L|496:160,2,105,2|0|10,1:2|1:2|0:2,0:0:0:0:
173,253,74846,6,0,P|95:207|171:148,1,210,2|0,1:2|0:0,0:0:0:0:
276,144,75315,1,8,0:2:0:0:
42,199,75471,2,0,L|149:197,2,105,0|0|0,1:2|0:0|1:2,0:0:0:0:
276,193,75940,2,0,L|386:195,1,105,12|0,0:2|0:0,0:0:0:0:
146,288,76253,5,2,1:2:0:0:
296,240,76409,1,0,1:2:0:0:
146,288,76565,1,10,0:0:0:0:
296,240,76721,1,0,1:2:0:0:
146,288,76878,1,10,0:0:0:0:
296,240,77034,1,0,1:2:0:0:
72,152,77190,1,10,0:0:0:0:
224,128,77346,1,0,1:2:0:0:
72,152,77503,5,10,0:0:0:0:
224,128,77659,1,0,1:2:0:0:
72,152,77815,1,10,0:0:0:0:
224,128,77971,1,0,1:2:0:0:
448,168,78128,2,0,L|448:56,1,105,10|0,0:0|1:2,0:0:0:0:
224,168,78440,1,8,0:0:0:0:
448,208,78596,2,0,L|384:208,1,52.5,0|0,1:2|0:0,0:0:0:0:
232,272,78753,5,14,0:0:0:0:
82,224,78909,1,0,1:2:0:0:
232,272,79065,1,10,0:0:0:0:
82,224,79221,1,0,1:2:0:0:
232,272,79378,1,10,0:0:0:0:
82,224,79534,1,0,1:2:0:0:
312,136,79690,1,10,0:0:0:0:
464,112,79846,1,0,1:2:0:0:
312,136,80003,5,10,0:0:0:0:
464,112,80159,1,0,1:2:0:0:
312,136,80315,1,10,0:0:0:0:
464,112,80471,1,0,1:2:0:0:
224,168,80628,2,0,L|112:168,1,105,10|0,0:0|1:2,0:0:0:0:
359,80,80940,1,12,0:0:0:0:
119,168,81096,2,0,L|47:168,1,52.5
272,280,81253,5,14,0:0:0:0:
422,232,81409,1,0,1:2:0:0:
272,280,81565,1,10,0:0:0:0:
422,232,81721,1,0,1:2:0:0:
272,280,81878,1,10,0:0:0:0:
422,232,82034,1,0,1:2:0:0:
192,144,82190,1,10,0:0:0:0:
40,120,82346,1,0,1:2:0:0:
192,144,82503,5,10,0:0:0:0:
40,120,82659,1,0,1:2:0:0:
192,144,82815,1,10,0:0:0:0:
40,120,82971,1,0,1:2:0:0:
272,192,83128,2,0,L|384:192,1,105,10|0,0:0|1:2,0:0:0:0:
152,88,83440,1,8,0:0:0:0:
377,192,83596,2,0,L|441:192,1,52.5,0|0,1:2|0:0,0:0:0:0:
264,264,83753,5,14,0:0:0:0:
114,216,83909,1,0,1:2:0:0:
264,264,84065,1,10,0:0:0:0:
114,216,84221,1,0,1:2:0:0:
264,264,84378,1,10,0:0:0:0:
114,216,84534,1,0,1:2:0:0:
352,120,84690,1,10,0:0:0:0:
200,96,84846,1,0,1:2:0:0:
352,120,85003,5,10,0:0:0:0:
200,96,85159,1,0,1:2:0:0:
352,120,85315,1,10,0:0:0:0:
200,96,85471,1,0,1:2:0:0:
432,176,85628,2,0,L|432:72,1,105,10|0,0:0|1:2,0:0:0:0:
200,136,85940,1,12,0:0:0:0:
432,208,86096,2,0,L|368:208,1,52.5
200,176,86253,6,0,L|80:176,1,105,6|0,1:2|0:0,0:0:0:0:
320,280,86565,2,0,L|208:280,1,105,10|0,1:2|0:0,0:0:0:0:
440,168,86878,1,10,1:2:0:0:
208,176,87034,2,0,L|96:176,1,105,8|2,0:0|1:2,0:0:0:0:
328,184,87346,6,0,L|328:64,1,105,8|2,0:0|1:2,0:0:0:0:
96,80,87659,1,8,0:0:0:0:
328,216,87815,2,0,L|432:216,1,105,10|0,1:2|0:0,0:0:0:0:
200,176,88128,2,0,L|200:64,1,105,10|0,1:2|0:0,0:0:0:0:
432,152,88440,2,0,L|432:40,1,105,8|0,1:2|1:2,0:0:0:0:
200,216,88753,6,0,L|304:216,1,105,6|0,1:2|0:0,0:0:0:0:
80,184,89065,2,0,L|80:64,1,105,10|0,1:2|0:0,0:0:0:0:
320,80,89378,1,10,1:2:0:0:
80,216,89534,2,0,L|80:104,1,105,8|2,0:0|1:2,0:0:0:0:
320,136,89846,6,0,L|424:136,1,105,8|2,0:0|1:2,0:0:0:0:
200,248,90159,1,8,0:0:0:0:
432,224,90315,2,0,L|432:112,1,105,10|0,1:2|0:0,0:0:0:0:
200,184,90628,2,0,L|96:184,1,105,10|0,1:2|0:0,0:0:0:0:
327,224,90940,2,0,L|439:224,1,105,8|0,1:2|1:2,0:0:0:0:
200,232,91253,6,0,L|56:232,1,105,6|0,1:2|0:0,0:0:0:0:
328,176,91565,2,0,L|208:176,1,105,10|0,1:2|0:0,0:0:0:0:
464,80,91878,1,10,1:2:0:0:
232,264,92034,2,0,L|232:152,1,105,8|2,0:0|1:2,0:0:0:0:
464,120,92346,6,0,L|464:232,1,105,8|2,0:0|1:2,0:0:0:0:
232,304,92659,1,8,0:0:0:0:
464,160,92815,2,0,L|464:272,1,105,10|0,1:2|0:0,0:0:0:0:
232,248,93128,2,0,L|352:248,1,105,10|0,1:2|0:0,0:0:0:0:
104,184,93440,2,0,L|104:80,1,105,8|0,1:2|1:2,0:0:0:0:
336,168,93753,6,0,L|456:168,1,105,6|0,1:2|0:0,0:0:0:0:
208,192,94065,2,0,L|336:192,1,105,10|0,1:2|0:0,0:0:0:0:
72,112,94378,1,10,1:2:0:0:
312,136,94534,2,0,L|312:8,1,105,8|2,0:0|1:2,0:0:0:0:
32,192,94846,6,0,L|32:80,1,105,12|0,0:0|0:0,0:0:0:0:
480,192,95159,2,0,L|480:80,1,105,12|0,0:0|0:0,0:0:0:0:
256,168,95471,1,12,0:0:0:0:
496,224,95628,2,0,L|496:112,1,105,8|8,0:0|0:0,0:0:0:0:
432,112,95862,1,8,0:0:0:0:
272,208,95940,2,0,L|376:208,1,105,0|0,1:0|1:0,0:0:0:0:
320,168,96174,1,0,0:0:0:0:
112,304,96253,6,0,L|108:182,1,105,6|0,1:2|0:0,0:0:0:0:
256,168,96565,2,0,L|366:165,1,105,8|2,0:2|0:0,0:0:0:0:
120,126,96878,1,2,1:2:0:0:
355,199,97034,2,0,L|358:90,1,105,0|10,1:2|0:2,0:0:0:0:
117,247,97346,6,0,L|241:242,1,105,2|0,1:2|0:0,0:0:0:0:
351,186,97659,2,0,L|238:183,1,105,2|8,0:0|0:2,0:0:0:0:
477,116,97971,1,2,1:2:0:0:
249,198,98128,2,0,L|247:77,1,105,2|0,1:2|1:2,0:0:0:0:
482,196,98440,2,0,L|367:189,1,105,8|2,0:2|1:2,0:0:0:0:
161,297,98753,6,0,L|159:172,1,105,2|0,1:2|0:0,0:0:0:0:
304,164,99065,2,0,L|311:57,1,105,8|2,0:2|0:0,0:0:0:0:
66,163,99378,1,2,1:2:0:0:
320,200,99534,2,0,L|320:81,1,105,0|10,1:2|0:2,0:0:0:0:
96,240,99846,6,0,L|220:235,1,105,2|0,1:2|0:0,0:0:0:0:
330,179,100159,2,0,L|217:176,1,105,2|8,0:0|0:2,0:0:0:0:
456,109,100471,1,2,1:2:0:0:
228,191,100628,2,0,L|226:70,1,105,2|0,1:2|1:2,0:0:0:0:
461,189,100940,2,0,L|346:182,1,105,8|2,0:2|1:2,0:0:0:0:
112,304,101253,6,0,L|108:182,1,105,6|0,1:2|0:0,0:0:0:0:
256,168,101565,2,0,L|366:165,1,105,8|2,0:2|0:0,0:0:0:0:
120,126,101878,1,2,1:2:0:0:
355,199,102034,2,0,L|358:90,1,105,0|10,1:2|0:2,0:0:0:0:
117,247,102346,6,0,L|241:242,1,105,2|0,1:2|0:0,0:0:0:0:
351,186,102659,2,0,L|238:183,1,105,2|8,0:0|0:2,0:0:0:0:
477,116,102971,1,2,1:2:0:0:
249,198,103128,2,0,L|247:77,1,105,2|0,1:2|1:2,0:0:0:0:
482,196,103440,2,0,L|367:189,1,105,8|2,0:2|1:2,0:0:0:0:
161,297,103753,6,0,L|159:172,1,105,2|0,1:2|0:0,0:0:0:0:
304,164,104065,2,0,L|311:57,1,105,8|2,0:2|0:0,0:0:0:0:
66,163,104378,1,6,1:2:0:0:
304,168,104534,2,0,L|368:168,2,52.5,8|8|8,0:0|0:0|0:0,0:0:0:0:
16,32,104846,5,2,1:2:0:0:
