osu file format v14

[General]
AudioFilename: audio.mp3
AudioLeadIn: 0
PreviewTime: 66096
Countdown: 0
SampleSet: Soft
StackLeniency: 0.7
Mode: 2
LetterboxInBreaks: 0
WidescreenStoryboard: 1

[Editor]
DistanceSpacing: 0.6
BeatDivisor: 4
GridSize: 8
TimelineZoom: 1

[Metadata]
Title:AaAaAaAAaAaAAa (Cut Ver.)
TitleUnicode:あぁあぁあぁああぁあぁああぁ (Cut Ver.)
Artist:Nashimoto Ui
ArtistUnicode:梨本うい
Creator:Mochi -
Version:Stardust Prism's Salad
Source:
Tags:hatsune miku vocaloid 初音ミク 梨本p nashimotop japanese rock jrock j-rock original cut short version ver fa featured artist mg mpg mappers' guild stardust prism -hex- -Aku bad_mapper overranked verti sotarks mniam おわり end
BeatmapID:4523576
BeatmapSetID:2147529

[Difficulty]
HPDrainRate:3
CircleSize:3
OverallDifficulty:7
ApproachRate:7
SliderMultiplier:1.3
SliderTickRate:1

[Events]
//Background and Video events
0,0,"bg.jpg",0,0
//Break Periods
//Storyboard Layer 0 (Background)
//Storyboard Layer 1 (Fail)
//Storyboard Layer 2 (Pass)
//Storyboard Layer 3 (Foreground)
//Storyboard Layer 4 (Overlay)
//Storyboard Sound Samples

[TimingPoints]
1253,312.5,4,2,22,52,1,0
1253,-100,4,2,22,52,0,0
6253,-100,4,2,22,62,0,0
9846,-100,4,2,22,62,0,0
10315,-100,4,2,22,52,0,0
10940,-100,4,2,22,62,0,0
11253,-100,4,2,22,72,0,0
21253,-100,4,2,22,62,0,0
21565,-100,4,2,99,62,0,0
21878,-100,4,1,99,62,0,0
22190,-100,4,2,99,62,0,0
22503,-100,4,2,22,62,0,0
22815,-100,4,2,99,62,0,0
23128,-100,4,1,99,62,0,0
23440,-100,4,2,99,62,0,0
23753,-100,4,1,99,62,0,0
24065,-100,4,2,99,62,0,0
24378,-100,4,1,99,62,0,0
24690,-100,4,2,99,62,0,0
25003,-100,4,2,22,62,0,0
25315,-100,4,2,99,62,0,0
25628,-100,4,1,99,62,0,0
25940,-100,4,2,22,62,0,0
26253,-100,4,2,22,62,0,0
26565,-100,4,2,99,62,0,0
26878,-100,4,1,99,62,0,0
27190,-100,4,2,99,62,0,0
27503,-100,4,2,22,62,0,0
27815,-100,4,2,99,62,0,0
28128,-100,4,1,99,62,0,0
28440,-100,4,2,99,62,0,0
28753,-100,4,1,99,62,0,0
29065,-100,4,2,99,62,0,0
29378,-100,4,1,99,62,0,0
29690,-100,4,2,99,62,0,0
30003,-100,4,2,22,62,0,0
30315,-100,4,2,99,62,0,0
30628,-100,4,1,99,62,0,0
30940,-100,4,2,22,62,0,0
31253,-100,4,2,22,62,0,0
46253,-100,4,2,22,62,0,0
46565,-100,4,2,99,62,0,0
46878,-100,4,1,99,62,0,0
47190,-100,4,2,99,62,0,0
47503,-100,4,2,22,62,0,0
47815,-100,4,2,99,62,0,0
48128,-100,4,1,99,62,0,0
48440,-100,4,2,99,62,0,0
48753,-100,4,1,99,62,0,0
49065,-100,4,2,99,62,0,0
49378,-100,4,1,99,62,0,0
49690,-100,4,2,99,62,0,0
50003,-100,4,2,22,62,0,0
51253,-100,4,2,22,62,0,0
51565,-100,4,2,99,62,0,0
51878,-100,4,1,99,62,0,0
52190,-100,4,2,99,62,0,0
52503,-100,4,2,22,62,0,0
52815,-100,4,2,99,62,0,0
53128,-100,4,1,99,62,0,0
53440,-100,4,2,99,62,0,0
53753,-100,4,1,99,62,0,0
54065,-100,4,2,99,62,0,0
54378,-100,4,1,99,62,0,0
54690,-100,4,2,99,62,0,0
55003,-100,4,2,22,62,0,0
56253,-100,4,2,22,62,0,0
56565,-100,4,2,99,62,0,0
56878,-100,4,1,99,62,0,0
57190,-100,4,2,22,62,0,0
57815,-100,4,2,99,62,0,0
58128,-100,4,2,22,62,0,0
59065,-100,4,2,99,62,0,0
59378,-100,4,1,99,62,0,0
59690,-100,4,2,99,62,0,0
60003,-100,4,2,22,62,0,0
61253,-100,4,2,22,62,0,0
61565,-100,4,2,99,62,0,0
61878,-100,4,1,99,62,0,0
62190,-100,4,2,22,62,0,0
62815,-100,4,2,99,62,0,0
63128,-100,4,2,22,62,0,0
64065,-100,4,2,99,62,0,0
64378,-100,4,2,22,62,0,0
64690,-100,4,2,99,62,0,0
65003,-100,4,2,22,62,0,0
66253,-100,4,2,22,72,0,0
76253,-100,4,2,22,82,0,1
76565,-100,4,2,99,62,0,1
78440,-100,4,2,22,82,0,1
79065,-100,4,2,99,62,0,1
80940,-100,4,2,22,82,0,1
81174,-100,4,2,22,82,0,1
81253,-100,4,2,22,82,0,1
81565,-100,4,2,99,62,0,1
83440,-100,4,2,22,82,0,1
84065,-100,4,2,99,62,0,1
85940,-100,4,2,22,82,0,1
86174,-100,4,2,22,5,0,1
86253,-100,4,2,22,82,0,1
96253,-100,4,2,22,62,0,0

[Colours]
Combo1 : 217,126,36
Combo2 : 119,131,170
Combo3 : 49,170,191

[HitObjects]
398,230,1253,5,2,1:2:0:0:
211,230,1721,2,0,L|171:166,2,65,2|2|0,0:0|1:2|0:0,0:0:0:0:
346,203,2346,1,2,0:0:0:0:
216,267,2659,5,2,0:0:0:0:
85,298,2971,2,0,L|83:203,1,65,2|2,0:0|1:2,0:0:0:0:
215,290,3440,1,2,1:2:0:0:
451,270,3753,5,2,1:2:0:0:
451,270,4221,1,2,0:0:0:0:
386,267,4377,1,2,1:2:0:0:
321,264,4533,1,0,0:0:0:0:
184,266,4846,1,2,0:0:0:0:
314,250,5159,5,2,0:0:0:0:
446,235,5471,2,0,L|446:165,1,65,2|2,0:0|1:2,0:0:0:0:
317,202,5940,1,2,1:2:0:0:
80,274,6253,6,0,L|214:264,1,130,10|8,1:2|0:0,0:0:0:0:
314,218,6878,2,0,L|237:215,1,65,10|8,0:0|0:0,0:0:0:0:
126,335,7346,1,10,0:0:0:0:
119,259,7659,5,10,0:0:0:0:
254,185,7971,1,2,1:2:0:0:
189,179,8127,1,10,0:0:0:0:
56,192,8440,1,8,0:0:0:0:
288,199,8753,6,0,L|446:185,1,130,10|8,0:0|0:0,0:0:0:0:
293,299,9378,2,0,L|278:210,1,65,10|8,0:0|0:0,0:0:0:0:
505,199,9846,1,14,0:0:0:0:
256,192,10159,12,8,10940,0:0:0:0:
246,203,11253,6,2,L|109:194,1,130,6|8,1:2|0:0,0:0:0:0:
248,291,11878,2,0,L|260:203,1,65,2|0,1:2|1:2,0:0:0:0:
126,263,12346,2,0,P|119:217|189:170,1,130,2|0,0:0|0:0,0:0:0:0:
306,143,12971,2,0,L|156:133,1,130,0|0,1:2|1:2,0:0:0:0:
109,140,13440,1,8,0:0:0:0:
345,281,13753,6,0,P|381:236|326:190,1,130,2|8,1:2|0:0,0:0:0:0:
208,215,14378,1,2,1:2:0:0:
275,201,14534,2,0,L|411:195,1,130,0|2,1:2|0:0,0:0:0:0:
273,324,15159,6,0,P|231:299|279:244,1,130,0|0,0:0|1:2,0:0:0:0:
399,210,15784,2,0,L|475:206,2,65,0|8|0,1:2|0:0|0:0,0:0:0:0:
241,278,16253,6,0,L|102:270,1,130,2|8,1:2|0:0,0:0:0:0:
245,244,16878,2,0,L|250:172,1,65,2|0,1:2|1:2,0:0:0:0:
117,215,17346,5,2,0:0:0:0:
251,187,17659,1,0,0:0:0:0:
381,277,17971,2,0,P|409:235|350:181,1,130,0|0,1:2|1:2,0:0:0:0:
296,190,18440,1,8,0:0:0:0:
63,326,18753,6,0,P|61:272|128:248,1,130,2|8,1:2|0:0,0:0:0:0:
258,191,19378,1,2,1:2:0:0:
193,186,19534,1,0,1:2:0:0:
128,182,19690,1,8,0:0:0:0:
196,192,19846,6,0,P|235:160|190:105,1,130,2|0,0:0|0:0,0:0:0:0:
35,293,20471,2,0,P|28:236|93:205,1,130,0|0,1:2|1:2,0:0:0:0:
150,207,20940,1,8,0:0:0:0:
384,346,21253,6,0,B|384:86|384:86|384:370|384:370|382:119|382:119|140:120|140:120|384:120|384:120|385:385|385:385|382:9|382:9|383:60,1,1950,6|8,1:2|0:0,0:0:0:0:
154,346,26253,6,0,B|154:86|154:86|154:370|154:370|156:119|156:119|398:120|398:120|154:120|154:120|153:385|153:385|153:4|153:4|154:48,1,1950,6|8,1:2|0:0,0:0:0:0:
395,246,31253,5,6,1:2:0:0:
395,246,31565,2,0,L|318:245,1,65,10|2,0:2|0:0,0:0:0:0:
200,287,32034,2,0,L|176:215,2,65,2|10|2,1:2|0:2|1:2,0:0:0:0:
281,252,32503,6,0,L|421:250,1,130,2|10,1:2|0:2,0:0:0:0:
281,335,33128,2,0,L|269:176,1,130,2|10,1:2|0:0,0:0:0:0:
41,279,33753,6,0,P|36:226|109:195,1,130,2|10,1:2|0:2,0:0:0:0:
166,193,34221,1,2,0:0:0:0:
296,151,34534,1,2,1:2:0:0:
347,107,34690,1,10,0:2:0:0:
291,79,34846,1,2,1:2:0:0:
206,104,35003,5,2,1:2:0:0:
75,239,35315,1,10,0:2:0:0:
136,240,35471,1,2,1:2:0:0:
273,191,35784,2,0,L|279:118,1,65,2|10,1:2|0:0,0:0:0:0:
501,237,36253,6,0,P|500:156|454:137,1,130,6|10,1:2|0:2,0:0:0:0:
395,204,36721,2,0,L|258:193,1,130,2|2,0:0|1:2,0:0:0:0:
202,185,37190,1,10,0:2:0:0:
335,290,37503,5,2,1:2:0:0:
204,312,37815,2,0,L|204:235,1,65,10|2,0:2|1:2,0:0:0:0:
338,208,38284,2,0,L|256:208,1,65,2|10,1:2|0:0,0:0:0:0:
53,328,38753,6,0,P|43:281|117:253,1,130,2|10,1:2|0:2,0:0:0:0:
181,242,39221,2,0,P|215:208|159:157,1,130,2|2,0:0|1:2,0:0:0:0:
91,155,39690,1,10,0:2:0:0:
224,240,40003,6,0,L|245:95,1,130,2|10,1:2|0:2,0:0:0:0:
309,91,40471,1,2,1:2:0:0:
441,208,40784,1,10,0:0:0:0:
359,207,40940,1,10,0:0:0:0:
119,333,41253,6,0,P|109:288|178:253,1,130,6|8,1:2|0:2,0:0:0:0:
251,195,41721,1,2,0:0:0:0:
320,149,41877,1,0,1:2:0:0:
251,195,42033,1,0,1:2:0:0:
119,249,42346,1,2,0:0:0:0:
261,275,42659,5,2,0:0:0:0:
384,233,42971,2,0,L|231:217,1,130,2|0,1:2|1:2,0:0:0:0:
254,219,43440,1,8,0:2:0:0:
490,235,43753,6,0,P|495:168|422:147,1,130,2|8,1:2|0:2,0:0:0:0:
360,261,44221,2,0,L|311:202,2,65,2|2|0,0:0|1:2|1:2,0:0:0:0:
490,232,44846,1,2,0:0:0:0:
352,209,45159,5,2,0:0:0:0:
221,263,45471,2,0,P|219:210|301:192,1,130,2|8,1:2|0:2,0:0:0:0:
349,184,45940,1,8,0:2:0:0:
113,371,46253,6,0,B|113:73|113:73|113:303|113:303|364:303|364:303|114:303|114:303|112:39|112:39|114:320,1,1560,6|0,1:2|1:0,0:0:0:0:
261,193,50315,1,8,0:2:0:0:
131,338,50628,2,0,P|97:315|147:252,1,130,0|8,1:2|0:0,0:0:0:0:
377,368,51253,6,0,B|377:70|377:70|377:300|377:300|126:300|126:300|376:300|376:300|378:36|378:36|376:317,1,1560,6|0,1:2|0:0,0:0:0:0:
242,241,55315,1,8,0:2:0:0:
119,232,55628,2,0,L|85:166,2,65,0|8|8,1:2|0:0|0:0,0:0:0:0:
366,364,56253,6,0,P|420:351|348:127,1,390,6|8,1:2|0:2,0:0:0:0:
215,184,57503,6,0,L|478:167,1,260,2|2,1:2|1:2,0:0:0:0:
212,352,58753,6,0,P|143:346|264:88,1,520,2|0,1:2|1:0,0:0:0:0:
381,176,60315,1,8,0:2:0:0:
250,294,60628,2,0,L|394:290,1,130,2|8,1:2|0:0,0:0:0:0:
145,361,61253,6,0,P|91:348|163:124,1,390,6|8,1:2|0:2,0:0:0:0:
296,181,62503,6,0,L|33:164,1,260,2|2,1:2|1:2,0:0:0:0:
299,349,63753,6,0,P|368:343|247:85,1,520,2|2,1:2|1:2,0:0:0:0:
130,173,65315,1,10,0:2:0:0:
269,261,65628,1,2,1:2:0:0:
333,259,65784,1,8,0:0:0:0:
398,257,65940,1,10,0:0:0:0:
151,326,66253,6,0,P|146:284|219:239,1,130,6|10,1:2|0:2,0:0:0:0:
343,203,66878,2,0,L|194:196,1,130,2|10,1:2|0:2,0:0:0:0:
285,339,67346,6,0,P|319:300|264:244,1,130,2|2,1:2|0:0,0:0:0:0:
150,263,67971,1,2,1:2:0:0:
284,272,68284,2,0,L|357:269,1,65,2|10,1:2|0:2,0:0:0:0:
104,270,68753,6,0,P|75:228|136:182,1,130,2|10,1:2|0:2,0:0:0:0:
256,115,69378,2,0,L|124:112,1,130,2|10,1:2|0:2,0:0:0:0:
196,182,69846,1,2,1:2:0:0:
342,192,70159,5,0,0:0:0:0:
208,295,70471,2,0,P|168:267|200:197,1,130,0|0,1:2|1:2,0:0:0:0:
251,190,70940,1,12,0:2:0:0:
488,177,71253,6,0,L|331:166,2,130,6|10|2,1:2|0:2|1:2,0:0:0:0:
359,263,72190,1,10,0:2:0:0:
290,264,72346,6,0,P|280:214|356:182,1,130,2|2,1:2|0:0,0:0:0:0:
466,148,72971,2,0,L|314:147,1,130,2|2,1:2|1:2,0:0:0:0:
263,151,73440,1,10,0:2:0:0:
28,338,73753,6,0,P|20:284|98:258,1,130,2|10,1:2|0:2,0:0:0:0:
211,253,74378,2,0,P|245:230|182:183,1,130,2|10,1:2|0:2,0:0:0:0:
127,176,74846,6,0,L|-5:170,1,130,2|0,1:2|0:0,0:0:0:0:
145,303,75471,2,0,L|285:288,1,130,0|0,1:2|1:2,0:0:0:0:
349,283,75940,1,12,0:2:0:0:
104,333,76253,6,0,B|104:204|104:204|233:204|233:204|233:70|233:70|357:71|357:71|356:205|356:205|481:205|481:205|483:349,1,910,2|8,1:2|0:0,0:0:0:0:
272,357,78753,6,0,B|272:226|272:226|147:226|147:226|142:94|142:94|18:94|18:94|18:226|18:226|140:226|140:226|141:81,1,910,14|12,0:0|0:0,0:0:0:0:
384,218,81253,6,0,B|123:218|123:218|385:220|385:220|126:217|126:217|126:84,1,910,14|8,0:0|0:0,0:0:0:0:
372,354,83753,6,0,B|373:223|373:223|245:223|245:223|377:223|377:223|241:222|241:222|242:362|242:362|364:361|364:361|238:361,1,910,14|12,0:0|0:0,0:0:0:0:
489,251,86253,6,0,L|490:104,1,130,6|10,1:2|1:2,0:0:0:0:
361,261,86878,1,10,1:2:0:0:
293,226,87034,2,0,L|267:160,2,65,8|2|8,0:0|1:2|0:0,0:0:0:0:
449,216,87503,6,0,P|462:167|381:137,1,130,2|10,1:2|1:2,0:0:0:0:
267,146,88128,2,0,L|424:137,1,130,10|8,1:2|1:2,0:0:0:0:
163,314,88753,6,0,L|16:303,1,130,6|10,1:2|1:2,0:0:0:0:
177,294,89378,2,0,L|206:234,2,65,10|8|2,1:2|0:0|1:2,0:0:0:0:
111,262,89846,1,8,0:0:0:0:
267,259,90003,6,0,L|403:251,1,130,2|10,1:2|1:2,0:0:0:0:
328,240,90471,1,0,0:0:0:0:
257,283,90628,2,0,P|215:271|266:226,1,130,10|8,1:2|1:2,0:0:0:0:
486,209,91253,6,0,L|335:211,1,130,6|10,1:2|1:2,0:0:0:0:
226,300,91878,1,10,1:2:0:0:
290,305,92034,2,0,P|323:281|267:218,1,130,8|8,0:0|0:0,0:0:0:0:
130,257,92503,6,0,L|101:195,2,65,2|8|10,1:2|0:0|1:2,0:0:0:0:
202,247,92971,1,0,0:0:0:0:
272,197,93128,2,0,L|126:191,1,130,10|8,1:2|1:2,0:0:0:0:
381,234,93753,6,0,L|516:223,1,130,6|10,1:2|1:2,0:0:0:0:
368,323,94378,2,0,L|289:318,1,65,10|8,1:2|0:0,0:0:0:0:
70,328,94846,5,12,0:0:0:0:
70,328,95159,1,12,0:0:0:0:
310,287,95471,1,12,0:0:0:0:
241,287,95628,1,8,0:0:0:0:
110,319,95940,1,0,1:0:0:0:
354,338,96253,6,0,P|381:304|316:248,1,130,6|8,1:2|0:2,0:0:0:0:
198,218,96878,2,0,L|275:215,1,65,2|0,1:2|1:2,0:0:0:0:
386,335,97346,1,2,1:2:0:0:
393,259,97659,5,2,0:0:0:0:
258,185,97971,1,2,1:2:0:0:
323,179,98127,1,2,1:2:0:0:
456,192,98440,1,8,0:2:0:0:
224,199,98753,6,0,L|66:185,1,130,2|8,1:2|0:2,0:0:0:0:
219,299,99378,2,0,L|234:210,1,65,2|0,1:2|1:2,0:0:0:0:
7,199,99846,1,2,1:2:0:0:
124,206,100159,5,2,0:0:0:0:
253,150,100471,2,0,L|180:150,1,65,2|2,1:2|1:2,0:0:0:0:
56,315,100940,1,8,0:2:0:0:
306,255,101253,6,0,L|441:256,1,130,6|8,1:2|0:2,0:0:0:0:
299,306,101878,2,0,L|287:229,1,65,2|0,1:2|1:2,0:0:0:0:
68,121,102346,1,2,1:2:0:0:
185,145,102659,5,2,0:0:0:0:
55,251,102971,2,0,L|49:178,1,65,2|2,1:2|1:2,0:0:0:0:
168,305,103440,1,8,0:2:0:0:
402,232,103753,6,0,P|419:173|360:146,1,130,2|8,1:2|0:2,0:0:0:0:
291,138,104221,1,2,0:0:0:0:
437,238,104378,5,6,1:2:0:0:
447,239,104534,1,8,0:0:0:0:
379,290,104690,1,8,0:0:0:0:
230,293,104846,1,2,1:2:0:0:
